  0
SECTION
  2
HEADER
  9
$ACADVER
  1
AC1015
  9
$ACADMAINTVER
 70
     6
  9
$DWGCODEPAGE
  3
ANSI_1252
  9
$INSBASE
 10
0.0
 20
0.0
 30
0.0
  9
$EXTMIN
 10
0.0
 20
0.0
 30
0.0
  9
$EXTMAX
 10
34.0
 20
22.0
 30
0.0
  9
$LIMMIN
 10
0.0
 20
0.0
  9
$LIMMAX
 10
34.0
 20
22.0
  9
$ORTHOMODE
 70
     0
  9
$REGENMODE
 70
     1
  9
$FILLMODE
 70
     1
  9
$QTEXTMODE
 70
     0
  9
$MIRRTEXT
 70
     1
  9
$LTSCALE
 40
1.0
  9
$ATTMODE
 70
     1
  9
$TEXTSIZE
 40
0.2222222222
  9
$TRACEWID
 40
0.05
  9
$TEXTSTYLE
  7
STANDARD
  9
$CLAYER
  8
0
  9
$CELTYPE
  6
ByLayer
  9
$CECOLOR
 62
   256
  9
$CELTSCALE
 40
1.0
  9
$DISPSILH
 70
     0
  9
$DIMSCALE
 40
1.0
  9
$DIMASZ
 40
0.2831217448
  9
$DIMEXO
 40
0.05
  9
$DIMDLI
 40
0.38
  9
$DIMRND
 40
0.0
  9
$DIMDLE
 40
0.0
  9
$DIMEXE
 40
0.125
  9
$DIMTP
 40
0.0
  9
$DIMTM
 40
0.0
  9
$DIMTXT
 40
0.2777777778
  9
$DIMCEN
 40
0.09
  9
$DIMTSZ
 40
0.0
  9
$DIMTOL
 70
     0
  9
$DIMLIM
 70
     0
  9
$DIMTIH
 70
     1
  9
$DIMTOH
 70
     1
  9
$DIMSE1
 70
     0
  9
$DIMSE2
 70
     0
  9
$DIMTAD
 70
     0
  9
$DIMZIN
 70
     0
  9
$DIMBLK
  1

  9
$DIMASO
 70
     1
  9
$DIMSHO
 70
     1
  9
$DIMPOST
  1

  9
$DIMAPOST
  1

  9
$DIMALT
 70
     0
  9
$DIMALTD
 70
     2
  9
$DIMALTF
 40
25.4
  9
$DIMLFAC
 40
1.0
  9
$DIMTOFL
 70
     0
  9
$DIMTVP
 40
0.0
  9
$DIMTIX
 70
     0
  9
$DIMSOXD
 70
     0
  9
$DIMSAH
 70
     0
  9
$DIMBLK1
  1

  9
$DIMBLK2
  1

  9
$DIMSTYLE
  2
Standard
  9
$DIMCLRD
 70
     0
  9
$DIMCLRE
 70
     0
  9
$DIMCLRT
 70
     0
  9
$DIMTFAC
 40
1.0
  9
$DIMGAP
 40
0.06
  9
$DIMJUST
 70
     0
  9
$DIMSD1
 70
     0
  9
$DIMSD2
 70
     0
  9
$DIMTOLJ
 70
     1
  9
$DIMTZIN
 70
     0
  9
$DIMALTZ
 70
     0
  9
$DIMALTTZ
 70
     0
  9
$DIMUPT
 70
     0
  9
$DIMDEC
 70
     2
  9
$DIMTDEC
 70
     2
  9
$DIMALTU
 70
     2
  9
$DIMALTTD
 70
     2
  9
$DIMTXSTY
  7
STANDARD
  9
$DIMAUNIT
 70
     0
  9
$DIMADEC
 70
     0
  9
$DIMALTRND
 40
0.0
  9
$DIMAZIN
 70
     0
  9
$DIMDSEP
 70
    46
  9
$DIMATFIT
 70
     3
  9
$DIMFRAC
 70
     0
  9
$DIMLDRBLK
  1

  9
$DIMLUNIT
 70
     2
  9
$DIMLWD
 70
    -2
  9
$DIMLWE
 70
    -2
  9
$DIMTMOVE
 70
     0
  9
$LUNITS
 70
     2
  9
$LUPREC
 70
     2
  9
$SKETCHINC
 40
0.1
  9
$FILLETRAD
 40
0.5
  9
$AUNITS
 70
     0
  9
$AUPREC
 70
     0
  9
$MENU
  1
.
  9
$ELEVATION
 40
0.0
  9
$PELEVATION
 40
0.0
  9
$THICKNESS
 40
0.0
  9
$LIMCHECK
 70
     0
  9
$CHAMFERA
 40
0.0
  9
$CHAMFERB
 40
0.0
  9
$CHAMFERC
 40
0.0
  9
$CHAMFERD
 40
0.0
  9
$SKPOLY
 70
     0
  9
$TDCREATE
 40
2458914.642133218
  9
$TDUCREATE
 40
2458914.892133218
  9
$TDUPDATE
 40
2458914.642135671
  9
$TDUUPDATE
 40
2458914.892135671
  9
$TDINDWG
 40
0.0000000116
  9
$TDUSRTIMER
 40
0.0000000116
  9
$USRTIMER
 70
     1
  9
$ANGBASE
 50
0.0
  9
$ANGDIR
 70
     0
  9
$PDMODE
 70
     0
  9
$PDSIZE
 40
-1.0
  9
$PLINEWID
 40
0.0
  9
$SPLFRAME
 70
     0
  9
$SPLINETYPE
 70
     6
  9
$SPLINESEGS
 70
     8
  9
$HANDSEED
  5
31C
  9
$SURFTAB1
 70
     6
  9
$SURFTAB2
 70
     6
  9
$SURFTYPE
 70
     6
  9
$SURFU
 70
     6
  9
$SURFV
 70
     6
  9
$UCSBASE
  2

  9
$UCSNAME
  2

  9
$UCSORG
 10
0.0
 20
0.0
 30
0.0
  9
$UCSXDIR
 10
1.0
 20
0.0
 30
0.0
  9
$UCSYDIR
 10
0.0
 20
1.0
 30
0.0
  9
$UCSORTHOREF
  2

  9
$UCSORTHOVIEW
 70
     0
  9
$UCSORGTOP
 10
0.0
 20
0.0
 30
0.0
  9
$UCSORGBOTTOM
 10
0.0
 20
0.0
 30
0.0
  9
$UCSORGLEFT
 10
0.0
 20
0.0
 30
0.0
  9
$UCSORGRIGHT
 10
0.0
 20
0.0
 30
0.0
  9
$UCSORGFRONT
 10
0.0
 20
0.0
 30
0.0
  9
$UCSORGBACK
 10
0.0
 20
0.0
 30
0.0
  9
$PUCSBASE
  2

  9
$PUCSNAME
  2

  9
$PUCSORG
 10
0.0
 20
0.0
 30
0.0
  9
$PUCSXDIR
 10
1.0
 20
0.0
 30
0.0
  9
$PUCSYDIR
 10
0.0
 20
1.0
 30
0.0
  9
$PUCSORTHOREF
  2

  9
$PUCSORTHOVIEW
 70
     0
  9
$PUCSORGTOP
 10
0.0
 20
0.0
 30
0.0
  9
$PUCSORGBOTTOM
 10
0.0
 20
0.0
 30
0.0
  9
$PUCSORGLEFT
 10
0.0
 20
0.0
 30
0.0
  9
$PUCSORGRIGHT
 10
0.0
 20
0.0
 30
0.0
  9
$PUCSORGFRONT
 10
0.0
 20
0.0
 30
0.0
  9
$PUCSORGBACK
 10
0.0
 20
0.0
 30
0.0
  9
$USERI1
 70
     0
  9
$USERI2
 70
     0
  9
$USERI3
 70
     0
  9
$USERI4
 70
     0
  9
$USERI5
 70
     0
  9
$USERR1
 40
0.0
  9
$USERR2
 40
0.0
  9
$USERR3
 40
0.0
  9
$USERR4
 40
0.0
  9
$USERR5
 40
0.0
  9
$WORLDVIEW
 70
     1
  9
$SHADEDGE
 70
     3
  9
$SHADEDIF
 70
    70
  9
$TILEMODE
 70
     1
  9
$MAXACTVP
 70
    64
  9
$PINSBASE
 10
0.0
 20
0.0
 30
0.0
  9
$PLIMCHECK
 70
     0
  9
$PEXTMIN
 10
1.0000000000E+20
 20
1.0000000000E+20
 30
1.0000000000E+20
  9
$PEXTMAX
 10
-1.0000000000E+20
 20
-1.0000000000E+20
 30
-1.0000000000E+20
  9
$PLIMMIN
 10
0.0
 20
0.0
  9
$PLIMMAX
 10
12.0
 20
9.0
  9
$UNITMODE
 70
     0
  9
$VISRETAIN
 70
     1
  9
$PLINEGEN
 70
     0
  9
$PSLTSCALE
 70
     1
  9
$TREEDEPTH
 70
  3020
  9
$CMLSTYLE
  2
Standard
  9
$CMLJUST
 70
     0
  9
$CMLSCALE
 40
1.0
  9
$PROXYGRAPHICS
 70
     1
  9
$MEASUREMENT
 70
     0
  9
$CELWEIGHT
370
    -1
  9
$ENDCAPS
280
     0
  9
$JOINSTYLE
280
     0
  9
$LWDISPLAY
290
     1
  9
$INSUNITS
 70
     1
  9
$HYPERLINKBASE
  1

  9
$STYLESHEET
  1

  9
$XEDIT
290
     1
  9
$CEPSNTYPE
380
     0
  9
$PSTYLEMODE
290
     1
  9
$FINGERPRINTGUID
  2
{C09D305A-E6A1-463B-A839-C39C5CEBCA92}
  9
$VERSIONGUID
  2
{FAEB1C32-E019-11D5-929B-00C0DF256EC4}
  9
$EXTNAMES
290
     1
  9
$PSVPSCALE
 40
0.0
  9
$OLESTARTUP
290
     0
  0
ENDSEC
  0
SECTION
  2
CLASSES
  0
CLASS
  1
ACDBDICTIONARYWDFLT
  2
AcDbDictionaryWithDefault
  3
ObjectDBX Classes
 90
        0
280
     0
281
     0
  0
CLASS
  1
VISUALSTYLE
  2
AcDbVisualStyle
  3
ObjectDBX Classes
 90
     4095
280
     0
281
     0
  0
CLASS
  1
MATERIAL
  2
AcDbMaterial
  3
ObjectDBX Classes
 90
     1153
280
     0
281
     0
  0
CLASS
  1
SCALE
  2
AcDbScale
  3
ObjectDBX Classes
 90
     1153
280
     0
281
     0
  0
CLASS
  1
TABLESTYLE
  2
AcDbTableStyle
  3
ObjectDBX Classes
 90
     4095
280
     0
281
     0
  0
CLASS
  1
MLEADERSTYLE
  2
AcDbMLeaderStyle
  3
ACDB_MLEADERSTYLE_CLASS
 90
     4095
280
     0
281
     0
  0
CLASS
  1
SUN
  2
AcDbSun
  3
SCENEOE
 90
     1153
280
     0
281
     0
  0
CLASS
  1
ACDBPLACEHOLDER
  2
AcDbPlaceHolder
  3
ObjectDBX Classes
 90
        0
280
     0
281
     0
  0
CLASS
  1
LAYOUT
  2
AcDbLayout
  3
ObjectDBX Classes
 90
        0
280
     0
281
     0
  0
ENDSEC
  0
SECTION
  2
TABLES
  0
TABLE
  2
VPORT
  5
8
330
0
100
AcDbSymbolTable
 70
     1
  0
VPORT
  5
29
330
8
100
AcDbSymbolTableRecord
100
AcDbViewportTableRecord
  2
*Active
 70
     0
 10
0.0
 20
0.0
 11
1.0
 21
1.0
 12
17.0
 22
11.0
 13
0.0
 23
0.0
 14
0.5
 24
0.5
 15
0.5
 25
0.5
 16
0.0
 26
0.0
 36
1.0
 17
0.0
 27
0.0
 37
0.0
 40
22.0
 41
1.5454545455
 42
50.0
 43
0.0
 44
0.0
 50
0.0
 51
0.0
 71
     0
 72
  2000
 73
     1
 74
     3
 75
     0
 76
     0
 77
     0
 78
     0
281
     0
 65
     1
110
0.0
120
0.0
130
0.0
111
1.0
121
0.0
131
0.0
112
0.0
122
1.0
132
0.0
 79
     0
146
0.0
  0
ENDTAB
  0
TABLE
  2
LTYPE
  5
5
330
0
100
AcDbSymbolTable
 70
     6
  0
LTYPE
  5
14
330
5
100
AcDbSymbolTableRecord
100
AcDbLinetypeTableRecord
  2
ByBlock
 70
     0
  3

 72
    65
 73
     0
 40
0.0
  0
LTYPE
  5
15
330
5
100
AcDbSymbolTableRecord
100
AcDbLinetypeTableRecord
  2
ByLayer
 70
     0
  3

 72
    65
 73
     0
 40
0.0
  0
LTYPE
  5
16
330
5
100
AcDbSymbolTableRecord
100
AcDbLinetypeTableRecord
  2
Continuous
 70
     0
  3
Solid line
 72
    65
 73
     0
 40
0.0
  0
LTYPE
  5
6E
330
5
100
AcDbSymbolTableRecord
100
AcDbLinetypeTableRecord
  2
HIDDEN
 70
     0
  3
Hidden __ __ __ __ __ __ __ __ __ __ __ __ __ __
 72
    65
 73
     2
 40
0.075
 49
0.05
 74
     0
 49
-0.025
 74
     0
  0
LTYPE
  5
6F
330
5
100
AcDbSymbolTableRecord
100
AcDbLinetypeTableRecord
  2
PHANTOM
 70
     0
  3
Phantom ______  __  __  ______  __  __  ______
 72
    65
 73
     6
 40
0.5
 49
0.25
 74
     0
 49
-0.05
 74
     0
 49
0.05
 74
     0
 49
-0.05
 74
     0
 49
0.05
 74
     0
 49
-0.05
 74
     0
  0
LTYPE
  5
70
330
5
100
AcDbSymbolTableRecord
100
AcDbLinetypeTableRecord
  2
CENTER
 70
     0
  3
Center ____ _ ____ _ ____ _ ____ _ ____ _ ____
 72
    65
 73
     4
 40
0.4
 49
0.25
 74
     0
 49
-0.05
 74
     0
 49
0.05
 74
     0
 49
-0.05
 74
     0
  0
LTYPE
  5
71
330
5
100
AcDbSymbolTableRecord
100
AcDbLinetypeTableRecord
  2
CENTERX2
 70
     0
  3
Center (2x) ________  __  ________  __  _____
 72
    65
 73
     4
 40
0.8
 49
0.5
 74
     0
 49
-0.1
 74
     0
 49
0.1
 74
     0
 49
-0.1
 74
     0
  0
LTYPE
  5
72
330
5
100
AcDbSymbolTableRecord
100
AcDbLinetypeTableRecord
  2
DOT2
 70
     0
  3
Dot (.5x) ........................................
 72
    65
 73
     2
 40
0.025
 49
0.0
 74
     0
 49
-0.025
 74
     0
  0
ENDTAB
  0
TABLE
  2
LAYER
  5
2
330
0
100
AcDbSymbolTable
 70
     7
  0
LAYER
  5
10
330
2
100
AcDbSymbolTableRecord
100
AcDbLayerTableRecord
  2
0
 70
     0
 62
     7
  6
Continuous
370
    -3
390
F
  0
LAYER
  5
73
330
2
100
AcDbSymbolTableRecord
100
AcDbLayerTableRecord
  2
DIM
 70
     0
 62
     1
  6
Continuous
370
    -3
390
F
  0
LAYER
  5
74
330
2
100
AcDbSymbolTableRecord
100
AcDbLayerTableRecord
  2
NOTES
 70
     0
 62
     7
  6
Continuous
370
    -3
390
F
  0
LAYER
  5
75
330
2
100
AcDbSymbolTableRecord
100
AcDbLayerTableRecord
  2
SLD-0
 70
     0
 62
     7
  6
Continuous
370
    -3
390
F
  0
LAYER
  5
76
330
2
100
AcDbSymbolTableRecord
100
AcDbLayerTableRecord
  2
BLOCKS
 70
     0
 62
    16
  6
Continuous
370
    -3
390
F
  0
LAYER
  5
77
330
2
100
AcDbSymbolTableRecord
100
AcDbLayerTableRecord
  2
CENTERLINES
 70
     0
 62
     7
  6
Continuous
370
    -3
390
F
  0
LAYER
  5
78
330
2
100
AcDbSymbolTableRecord
100
AcDbLayerTableRecord
  2
OBJECTS
 70
     0
 62
    56
  6
CENTER
370
    -3
390
F
  0
ENDTAB
  0
TABLE
  2
STYLE
  5
3
330
0
100
AcDbSymbolTable
 70
     3
  0
STYLE
  5
11
330
3
100
AcDbSymbolTableRecord
100
AcDbTextStyleTableRecord
  2
STANDARD
 70
     0
 40
0.0
 41
1.0
 50
0.0
 71
     0
 42
0.2222222222
  3
ARIAL.TTF
  4

1001
ACAD
1000
ARIAL
1071
       34
  0
STYLE
  5
BB
330
3
100
AcDbSymbolTableRecord
100
AcDbTextStyleTableRecord
  2
SLDTEXTSTYLE0
 70
     0
 40
0.0
 41
0.948
 50
0.0
 71
     0
 42
0.2222222222
  3
ARIAL.TTF
  4

1001
ACAD
1000
Arial
1071
      290
  0
STYLE
  5
2F8
330
3
100
AcDbSymbolTableRecord
100
AcDbTextStyleTableRecord
  2
SLDTEXTSTYLE1
 70
     0
 40
0.0
 41
0.948
 50
0.0
 71
     0
 42
0.2222222222
  3
ARIALBD.TTF
  4

1001
ACAD
1000
Arial
1071
 33554722
  0
ENDTAB
  0
TABLE
  2
VIEW
  5
6
330
0
100
AcDbSymbolTable
 70
     0
  0
ENDTAB
  0
TABLE
  2
UCS
  5
7
330
0
100
AcDbSymbolTable
 70
     0
  0
ENDTAB
  0
TABLE
  2
APPID
  5
9
330
0
100
AcDbSymbolTable
 70
     1
  0
APPID
  5
12
330
9
100
AcDbSymbolTableRecord
100
AcDbRegAppTableRecord
  2
ACAD
 70
     0
  0
ENDTAB
  0
TABLE
  2
DIMSTYLE
  5
A
330
0
100
AcDbSymbolTable
 70
     8
100
AcDbDimStyleTable
  0
DIMSTYLE
105
27
330
A
100
AcDbSymbolTableRecord
100
AcDbDimStyleTableRecord
  2
Standard
 70
     0
178
     0
340
11
  0
DIMSTYLE
105
165
102
{ACAD_REACTORS
330
164
330
175
330
1C1
330
1D1
102
}
330
A
100
AcDbSymbolTableRecord
100
AcDbDimStyleTableRecord
  2
SLDDIMSTYLE0
 70
     0
 41
0.2831217448
 44
0.0
 45
0.000000001
 78
    12
 79
     3
140
0.2022298177
147
0.0505574544
148
0.000000001
170
     1
171
     1
173
     1
178
     0
271
     2
272
     2
274
     1
276
     2
277
     5
284
    12
340
BB
  0
DIMSTYLE
105
186
102
{ACAD_REACTORS
330
185
330
1E1
330
1F5
330
209
330
21D
102
}
330
A
100
AcDbSymbolTableRecord
100
AcDbDimStyleTableRecord
  2
SLDDIMSTYLE1
 70
     0
 41
0.2831217448
 44
0.0
 45
0.000000001
 78
    12
 79
     3
140
0.2022298177
147
0.0505574544
148
0.000000001
170
     1
171
     1
173
     1
178
     0
271
     6
272
     2
274
     1
276
     2
277
     5
284
    12
340
BB
  0
DIMSTYLE
105
19B
102
{ACAD_REACTORS
330
19A
330
1AE
330
231
330
244
330
26C
102
}
330
A
100
AcDbSymbolTableRecord
100
AcDbDimStyleTableRecord
  2
SLDDIMSTYLE2
 70
     0
 41
0.2831217448
 44
0.0
 45
0.000000001
 78
    12
 79
     3
140
0.2022298177
141
0.0
147
0.0505574544
148
0.000000001
170
     1
171
     1
173
     1
178
     0
271
     2
272
     2
274
     1
276
     2
277
     5
279
     1
284
    12
340
BB
  0
DIMSTYLE
105
258
102
{ACAD_REACTORS
330
257
102
}
330
A
100
AcDbSymbolTableRecord
100
AcDbDimStyleTableRecord
  2
SLDDIMSTYLE3
 70
     0
 41
0.2831217448
 44
0.0
 45
0.000000001
 78
    12
 79
     3
140
0.2022298177
141
0.0
147
0.0505574544
148
0.000000001
170
     1
171
     1
173
     1
178
     0
271
     2
272
     2
274
     1
276
     2
277
     5
279
     1
284
    12
340
BB
  0
DIMSTYLE
105
280
102
{ACAD_REACTORS
330
27F
330
293
330
2A6
102
}
330
A
100
AcDbSymbolTableRecord
100
AcDbDimStyleTableRecord
  2
SLDDIMSTYLE4
 70
     0
 41
0.2831217448
 44
0.0
 45
0.000000001
 78
    12
 79
     3
140
0.2022298177
141
0.0
147
0.0505574544
148
0.000000001
170
     1
171
     1
173
     1
178
     0
271
     2
272
     2
274
     1
276
     2
277
     5
284
    12
340
BB
  0
DIMSTYLE
105
2BA
102
{ACAD_REACTORS
330
2B9
330
2CE
102
}
330
A
100
AcDbSymbolTableRecord
100
AcDbDimStyleTableRecord
  2
SLDDIMSTYLE5
 70
     0
 41
0.2831217448
 44
0.0
 45
0.000000001
 78
    12
 79
     3
140
0.2022298177
147
0.0505574544
148
0.000000001
170
     1
171
     1
172
     1
173
     1
178
     0
271
     6
272
     2
274
     1
276
     2
277
     5
284
    12
289
     0
340
BB
  0
DIMSTYLE
105
2E7
330
A
100
AcDbSymbolTableRecord
100
AcDbDimStyleTableRecord
  2
SLDDIMSTYLE6
 70
     0
 41
0.2831217448
 44
0.0
 45
0.000000001
146
0.2831217448
147
0.0
173
     1
178
     0
271
     0
272
     0
276
     2
277
     5
340
11
  0
ENDTAB
  0
TABLE
  2
BLOCK_RECORD
  5
1
330
0
100
AcDbSymbolTable
 70
    32
  0
BLOCK_RECORD
  5
1F
330
1
100
AcDbSymbolTableRecord
100
AcDbBlockTableRecord
  2
*Model_Space
340
22
  0
BLOCK_RECORD
  5
1B
330
1
100
AcDbSymbolTableRecord
100
AcDbBlockTableRecord
  2
*Paper_Space
340
1E
  0
BLOCK_RECORD
  5
23
330
1
100
AcDbSymbolTableRecord
100
AcDbBlockTableRecord
  2
*Paper_Space0
340
26
  0
BLOCK_RECORD
  5
79
330
1
100
AcDbSymbolTableRecord
100
AcDbBlockTableRecord
  2
REVEAL- .500
340
0
102
{BLKREFS
331
161
102
}
  0
BLOCK_RECORD
  5
AB
330
1
100
AcDbSymbolTableRecord
100
AcDbBlockTableRecord
  2
SW_BLOCK_DIMENSION_0
340
0
102
{BLKREFS
331
C0
102
}
  0
BLOCK_RECORD
  5
C1
330
1
100
AcDbSymbolTableRecord
100
AcDbBlockTableRecord
  2
OVERHANG - .125
340
0
102
{BLKREFS
331
163
102
}
  0
BLOCK_RECORD
  5
F3
330
1
100
AcDbSymbolTableRecord
100
AcDbBlockTableRecord
  2
SW_BLOCK_DIMENSION_1
340
0
102
{BLKREFS
331
107
102
}
  0
BLOCK_RECORD
  5
108
330
1
100
AcDbSymbolTableRecord
100
AcDbBlockTableRecord
  2
REVEAL - 0 (FLUSH)
340
0
102
{BLKREFS
331
162
102
}
  0
BLOCK_RECORD
  5
166
330
1
100
AcDbSymbolTableRecord
100
AcDbBlockTableRecord
  2
_D
340
0
  0
BLOCK_RECORD
  5
176
330
1
100
AcDbSymbolTableRecord
100
AcDbBlockTableRecord
  2
_D_1
340
0
  0
BLOCK_RECORD
  5
187
330
1
100
AcDbSymbolTableRecord
100
AcDbBlockTableRecord
  2
_D_2
340
0
  0
BLOCK_RECORD
  5
19C
330
1
100
AcDbSymbolTableRecord
100
AcDbBlockTableRecord
  2
_D_3
340
0
  0
BLOCK_RECORD
  5
1AF
330
1
100
AcDbSymbolTableRecord
100
AcDbBlockTableRecord
  2
_D_4
340
0
  0
BLOCK_RECORD
  5
1C2
330
1
100
AcDbSymbolTableRecord
100
AcDbBlockTableRecord
  2
_D_5
340
0
  0
BLOCK_RECORD
  5
1D2
330
1
100
AcDbSymbolTableRecord
100
AcDbBlockTableRecord
  2
_D_6
340
0
  0
BLOCK_RECORD
  5
1E2
330
1
100
AcDbSymbolTableRecord
100
AcDbBlockTableRecord
  2
_D_7
340
0
  0
BLOCK_RECORD
  5
1F6
330
1
100
AcDbSymbolTableRecord
100
AcDbBlockTableRecord
  2
_D_8
340
0
  0
BLOCK_RECORD
  5
20A
330
1
100
AcDbSymbolTableRecord
100
AcDbBlockTableRecord
  2
_D_9
340
0
  0
BLOCK_RECORD
  5
21E
330
1
100
AcDbSymbolTableRecord
100
AcDbBlockTableRecord
  2
_D_10
340
0
  0
BLOCK_RECORD
  5
232
330
1
100
AcDbSymbolTableRecord
100
AcDbBlockTableRecord
  2
_D_11
340
0
  0
BLOCK_RECORD
  5
245
330
1
100
AcDbSymbolTableRecord
100
AcDbBlockTableRecord
  2
_D_12
340
0
  0
BLOCK_RECORD
  5
259
330
1
100
AcDbSymbolTableRecord
100
AcDbBlockTableRecord
  2
_D_13
340
0
  0
BLOCK_RECORD
  5
26D
330
1
100
AcDbSymbolTableRecord
100
AcDbBlockTableRecord
  2
_D_14
340
0
  0
BLOCK_RECORD
  5
281
330
1
100
AcDbSymbolTableRecord
100
AcDbBlockTableRecord
  2
_D_15
340
0
  0
BLOCK_RECORD
  5
294
330
1
100
AcDbSymbolTableRecord
100
AcDbBlockTableRecord
  2
_D_16
340
0
  0
BLOCK_RECORD
  5
2A7
330
1
100
AcDbSymbolTableRecord
100
AcDbBlockTableRecord
  2
_D_17
340
0
  0
BLOCK_RECORD
  5
2BB
330
1
100
AcDbSymbolTableRecord
100
AcDbBlockTableRecord
  2
_D_18
340
0
  0
BLOCK_RECORD
  5
2CF
330
1
100
AcDbSymbolTableRecord
100
AcDbBlockTableRecord
  2
_D_19
340
0
  0
BLOCK_RECORD
  5
2E1
330
1
100
AcDbSymbolTableRecord
100
AcDbBlockTableRecord
  2
SW_NOTE_0
340
0
102
{BLKREFS
331
2E6
102
}
  0
BLOCK_RECORD
  5
2E9
330
1
100
AcDbSymbolTableRecord
100
AcDbBlockTableRecord
  2
SW_NOTE_1
340
0
102
{BLKREFS
331
2EE
102
}
  0
BLOCK_RECORD
  5
2F0
330
1
100
AcDbSymbolTableRecord
100
AcDbBlockTableRecord
  2
SW_NOTE_2
340
0
102
{BLKREFS
331
2F5
102
}
  0
BLOCK_RECORD
  5
2FA
330
1
100
AcDbSymbolTableRecord
100
AcDbBlockTableRecord
  2
SW_NOTE_3
340
0
102
{BLKREFS
331
301
102
}
  0
BLOCK_RECORD
  5
304
330
1
100
AcDbSymbolTableRecord
100
AcDbBlockTableRecord
  2
SW_NOTE_4
340
0
102
{BLKREFS
331
315
102
}
  0
BLOCK_RECORD
  5
316
330
1
100
AcDbSymbolTableRecord
100
AcDbBlockTableRecord
  2
SW_NOTE_5
340
0
102
{BLKREFS
331
31B
102
}
  0
ENDTAB
  0
ENDSEC
  0
SECTION
  2
BLOCKS
  0
BLOCK
  5
20
330
1F
100
AcDbEntity
  8
0
100
AcDbBlockBegin
  2
*Model_Space
 70
     0
 10
0.0
 20
0.0
 30
0.0
  3
*Model_Space
  1

  0
ENDBLK
  5
21
330
1F
100
AcDbEntity
  8
0
100
AcDbBlockEnd
  0
BLOCK
  5
1C
330
1B
100
AcDbEntity
 67
     1
  8
0
100
AcDbBlockBegin
  2
*Paper_Space
 70
     0
 10
0.0
 20
0.0
 30
0.0
  3
*Paper_Space
  1

  0
ENDBLK
  5
1D
330
1B
100
AcDbEntity
 67
     1
  8
0
100
AcDbBlockEnd
  0
BLOCK
  5
24
330
23
100
AcDbEntity
  8
0
100
AcDbBlockBegin
  2
*Paper_Space0
 70
     0
 10
0.0
 20
0.0
 30
0.0
  3
*Paper_Space0
  1

  0
ENDBLK
  5
25
330
23
100
AcDbEntity
  8
0
100
AcDbBlockEnd
  0
BLOCK
  5
7A
330
79
100
AcDbEntity
  8
0
100
AcDbBlockBegin
  2
REVEAL- .500
 70
     0
 10
0.0
 20
0.0
 30
0.0
  3
REVEAL- .500
  1

  0
ARC
  5
7C
330
79
100
AcDbEntity
  8
BLOCKS
100
AcDbCircle
 10
20.1601934329
 20
28.8878838846
 30
0.0
 40
0.2338576391325233
100
AcDbArc
 50
0.0
 51
90.0
  0
ARC
  5
7D
330
79
100
AcDbEntity
  8
BLOCKS
100
AcDbCircle
 10
19.8280715192
 20
29.4726468145
 30
0.0
 40
0.0659795528056719
100
AcDbArc
 50
0.0
 51
90.0
  0
ARC
  5
7E
330
79
100
AcDbEntity
  8
BLOCKS
100
AcDbCircle
 10
19.0470381676
 20
28.990848696
 30
0.0
 40
0.0881257319589152
100
AcDbArc
 50
200.9822712638
 51
339.0177287362
  0
ARC
  5
7F
330
79
100
AcDbEntity
  8
BLOCKS
100
AcDbCircle
 10
20.1601934329
 20
28.8878838846
 30
0.0
 40
0.1878262552218324
100
AcDbArc
 50
0.0
 51
90.0
  0
LINE
  5
80
330
79
100
AcDbEntity
  8
BLOCKS
100
AcDbLine
 10
19.8280715192
 20
29.5386263673
 30
0.0
 11
18.2509355515
 21
29.5386263673
 31
0.0
  0
LINE
  5
81
330
79
100
AcDbEntity
  8
BLOCKS
100
AcDbLine
 10
18.2806192052
 20
29.1434426864
 30
0.0
 11
19.894051072
 21
29.1434426864
 31
0.0
  0
LINE
  5
82
330
79
100
AcDbEntity
  8
BLOCKS
100
AcDbLine
 10
19.3470309437
 20
29.1217415238
 30
0.0
 11
20.1601934329
 21
29.1217415238
 31
0.0
  0
LINE
  5
83
330
79
100
AcDbEntity
  8
BLOCKS
100
AcDbLine
 10
20.394051072
 20
28.8878838846
 30
0.0
 11
20.394051072
 21
28.4971795949
 31
0.0
  0
LINE
  5
84
330
79
100
AcDbEntity
  8
BLOCKS
100
AcDbLine
 10
20.394051072
 20
28.4971795949
 30
0.0
 11
20.3480196881
 21
28.4971795949
 31
0.0
  0
LINE
  5
85
330
79
100
AcDbEntity
  8
BLOCKS
100
AcDbLine
 10
20.3480196881
 20
28.4971795949
 30
0.0
 11
20.3480196881
 21
28.8878838846
 31
0.0
  0
LINE
  5
86
330
79
100
AcDbEntity
  8
BLOCKS
100
AcDbLine
 10
20.1601934329
 20
29.0757101398
 30
0.0
 11
19.3470309437
 21
29.0757101398
 31
0.0
  0
LINE
  5
87
330
79
100
AcDbEntity
  8
BLOCKS
100
AcDbLine
 10
19.3470309437
 20
29.0757101398
 30
0.0
 11
19.3470309437
 21
29.1217415238
 31
0.0
  0
LINE
  5
88
330
79
100
AcDbEntity
  8
BLOCKS
100
AcDbLine
 10
19.679261078
 20
29.0223488565
 30
0.0
 11
19.7319208682
 21
29.073015856
 31
0.0
  0
LINE
  5
89
330
79
100
AcDbEntity
  8
BLOCKS
100
AcDbLine
 10
19.7319208682
 20
29.073015856
 30
0.0
 11
19.7745573648
 21
29.0287024176
 31
0.0
  0
LINE
  5
8A
330
79
100
AcDbEntity
  8
BLOCKS
100
AcDbLine
 10
19.7745573648
 20
29.0287024176
 30
0.0
 11
19.705650009
 21
28.9624027047
 31
0.0
  0
LINE
  5
8B
330
79
100
AcDbEntity
  8
BLOCKS
100
AcDbLine
 10
18.4381035755
 20
29.0888229672
 30
0.0
 11
18.385550816
 21
29.1434426864
 31
0.0
  0
LINE
  5
8C
330
79
100
AcDbEntity
  8
BLOCKS
100
AcDbLine
 10
18.385550816
 20
29.1434426864
 30
0.0
 11
18.3431444562
 21
29.1026410993
 31
0.0
  0
LINE
  5
8D
330
79
100
AcDbEntity
  8
BLOCKS
100
AcDbLine
 10
18.3431444562
 20
29.1026410993
 30
0.0
 11
18.4052557657
 21
29.0380868815
 31
0.0
  0
LINE
  5
8E
330
79
100
AcDbEntity
  8
BLOCKS
100
AcDbLine
 10
18.4381035755
 20
29.0888229672
 30
0.0
 11
19.679261078
 21
29.0223488565
 31
0.0
  0
LINE
  5
8F
330
79
100
AcDbEntity
  8
BLOCKS
100
AcDbLine
 10
19.705650009
 20
28.9624027047
 30
0.0
 11
18.4052557657
 21
29.0380868815
 31
0.0
  0
LINE
  5
90
330
79
100
AcDbEntity
  8
BLOCKS
100
AcDbLine
 10
19.1283677378
 20
29.0518536895
 30
0.0
 11
19.1283677378
 21
28.9960010797
 31
0.0
  0
LINE
  5
91
330
79
100
AcDbEntity
  8
BLOCKS
100
AcDbLine
 10
18.9737480593
 20
29.0601348348
 30
0.0
 11
18.9737480593
 21
29.0050000915
 31
0.0
  0
LINE
  5
92
330
79
100
AcDbEntity
  8
BLOCKS
100
AcDbLine
 10
18.964755941
 20
28.9592927168
 30
0.0
 11
19.1293203942
 21
28.9592927168
 31
0.0
  0
LINE
  5
93
330
79
100
AcDbEntity
  8
BLOCKS
100
AcDbLine
 10
19.0095275609
 20
29.3495924534
 30
0.0
 11
19.0095275609
 21
28.9592927168
 31
0.0
  0
LINE
  5
94
330
79
100
AcDbEntity
  8
BLOCKS
100
AcDbLine
 10
19.0864194327
 20
29.3495924534
 30
0.0
 11
19.0864194327
 21
28.9592927168
 31
0.0
  0
LINE
  5
95
330
79
100
AcDbEntity
  8
BLOCKS
100
AcDbLine
 10
18.9467524826
 20
29.0033177842
 30
0.0
 11
19.1591684741
 21
28.9909549723
 31
0.0
  0
LINE
  5
96
330
79
100
AcDbEntity
  8
BLOCKS
100
AcDbLine
 10
19.0095275609
 20
29.3495924534
 30
0.0
 11
19.0474925407
 21
29.4047818344
 31
0.0
  0
LINE
  5
97
330
79
100
AcDbEntity
  8
BLOCKS
100
AcDbLine
 10
19.0474925407
 20
29.4047818344
 30
0.0
 11
19.0864194327
 21
29.3495924534
 31
0.0
  0
LINE
  5
98
330
79
100
AcDbEntity
  8
BLOCKS
100
AcDbLine
 10
19.1572986604
 20
28.9588281114
 30
0.0
 11
18.9448826689
 21
28.9711909233
 31
0.0
  0
LINE
  5
99
330
79
100
AcDbEntity
  8
BLOCKS
100
AcDbLine
 10
19.1591684741
 20
28.9909549723
 30
0.0
 11
19.1572986604
 21
28.9588281114
 31
0.0
  0
LINE
  5
9A
330
79
100
AcDbEntity
  8
BLOCKS
100
AcDbLine
 10
18.9467524826
 20
29.0033177842
 30
0.0
 11
18.9448826689
 21
28.9711909233
 31
0.0
  0
LINE
  5
9B
330
79
100
AcDbEntity
  8
BLOCKS
100
AcDbLine
 10
19.1142839592
 20
29.1434426864
 30
0.0
 11
19.1142839592
 21
29.4238049236
 31
0.0
  0
LINE
  5
9C
330
79
100
AcDbEntity
  8
BLOCKS
100
AcDbLine
 10
19.1142839592
 20
29.4238049236
 30
0.0
 11
18.9877469673
 21
29.4238049236
 31
0.0
  0
LINE
  5
9D
330
79
100
AcDbEntity
  8
BLOCKS
100
AcDbLine
 10
18.9877469673
 20
29.4238049236
 30
0.0
 11
18.9877469673
 21
29.1434426864
 31
0.0
  0
LINE
  5
9E
330
79
100
AcDbEntity
  8
BLOCKS
  6
Continuous
100
AcDbLine
 10
19.894051072
 20
29.1434426864
 30
0.0
 11
19.894051072
 21
29.4726468145
 31
0.0
  0
LINE
  5
9F
330
79
100
AcDbEntity
  8
BLOCKS
100
AcDbLine
 10
19.3020232313
 20
29.1434426864
 30
0.0
 11
19.3470309437
 21
29.0987258318
 31
0.0
  0
LINE
  5
A0
330
79
100
AcDbEntity
  8
BLOCKS
100
AcDbLine
 10
19.894051072
 20
29.1434426864
 30
0.0
 11
19.9068063572
 21
29.1217415238
 31
0.0
  0
SPLINE
  5
A1
330
79
100
AcDbEntity
  8
BLOCKS
100
AcDbSpline
210
0.0
220
0.0
230
1.0
 70
     8
 71
     3
 72
     9
 73
     5
 74
     0
 42
0.000000001
 43
0.00000001
 40
0.0
 40
0.0
 40
0.0
 40
0.0
 40
0.5928291688347104
 40
1.0
 40
1.0
 40
1.0
 40
1.0
 10
18.28061920517429
 20
29.14344268635683
 30
0.0
 10
18.23604355296101
 20
29.22927712752978
 30
0.0
 10
18.31552651528452
 20
29.34850064146643
 30
0.0
 10
18.29741369383499
 20
29.50274888669875
 30
0.0
 10
18.25093555152442
 20
29.53862636728042
 30
0.0
  0
HATCH
  5
A2
330
79
100
AcDbEntity
  8
BLOCKS
 62
    16
100
AcDbHatch
 10
0.0
 20
0.0
 30
0.0
210
0.0
220
0.0
230
1.0
  2
ANSI36
 70
     0
 71
     0
 91
        1
 92
        0
 93
       10
 72
     4
 94
        3
 73
     1
 74
     0
 95
        9
 96
        5
 40
0.0
 40
0.0
 40
0.0
 40
0.0
 40
0.4071708311652896
 40
1.0
 40
1.0
 40
1.0
 40
1.0
 10
18.25093555152442
 20
29.53862636728042
 42
1.0
 10
18.29741369383499
 20
29.50274888669875
 42
1.0
 10
18.31552651528452
 20
29.34850064146643
 42
1.0
 10
18.23604355296101
 20
29.22927712752978
 42
1.0
 10
18.28061920517429
 20
29.14344268635683
 42
1.0
 72
     1
 10
18.28061920517429
 20
29.14344268635683
 11
18.98774696730679
 21
29.14344268635683
 72
     1
 10
18.98774696730679
 20
29.14344268635683
 11
18.98774696730679
 21
29.42380492355081
 72
     1
 10
18.98774696730679
 20
29.42380492355081
 11
19.11428395924128
 21
29.42380492355081
 72
     1
 10
19.11428395924128
 20
29.42380492355081
 11
19.11428395924128
 21
29.14344268635683
 72
     1
 10
19.11428395924128
 20
29.14344268635683
 11
19.30202323130653
 21
29.14344268635683
 72
     1
 10
19.30202323130653
 20
29.14344268635683
 11
19.89405107202551
 21
29.14344268635683
 72
     1
 10
19.89405107202551
 20
29.14344268635683
 11
19.89405107202551
 21
29.47264681447475
 72
     2
 10
19.82807151921984
 20
29.47264681447475
 40
0.0659795528056717
 50
0.0
 51
90.0
 73
     1
 72
     1
 10
19.82807151921984
 20
29.53862636728042
 11
18.25093555152442
 21
29.53862636728042
 97
        0
 75
     0
 76
     1
 52
0.0
 41
0.5
 77
     0
 78
     1
 53
45.0
 43
0.0
 44
0.0
 45
0.0331456303681194
 46
0.1215339780164378
 79
     4
 49
0.15625
 49
-0.03125
 49
0.0
 49
-0.03125
 98
        1
 10
0.0
 20
0.0
  0
HATCH
  5
A3
330
79
100
AcDbEntity
  8
BLOCKS
 62
    16
100
AcDbHatch
 10
0.0
 20
0.0
 30
0.0
210
0.0
220
0.0
230
1.0
  2
ANSI32
 70
     0
 71
     0
 91
        1
 92
        0
 93
        5
 72
     1
 10
19.08641943273533
 20
29.34959245337754
 11
19.04749254074577
 21
29.40478183438993
 72
     1
 10
19.04749254074577
 20
29.40478183438993
 11
19.00952756093279
 21
29.34959245337754
 72
     1
 10
19.00952756093279
 20
29.34959245337754
 11
19.00952756093279
 21
29.14344268635683
 72
     1
 10
19.00952756093279
 20
29.14344268635683
 11
19.08641943273533
 21
29.14344268635683
 72
     1
 10
19.08641943273533
 20
29.14344268635683
 11
19.08641943273533
 21
29.34959245337754
 97
        0
 75
     0
 76
     1
 52
0.0
 41
0.1666666667
 77
     0
 78
     2
 53
45.0
 43
0.0
 44
0.0
 45
-0.0441941738241592
 46
0.0441941738241592
 79
     0
 53
45.0
 43
0.0294627825
 44
0.0
 45
-0.0441941738241592
 46
0.0441941738241592
 79
     0
 98
        1
 10
0.0
 20
0.0
  0
HATCH
  5
A4
330
79
100
AcDbEntity
  8
BLOCKS
 62
    16
100
AcDbHatch
 10
0.0
 20
0.0
 30
0.0
210
0.0
220
0.0
230
1.0
  2
ANSI32
 70
     0
 71
     0
 91
        1
 92
        0
 93
        4
 72
     1
 10
19.08641943273533
 20
29.05410036351303
 11
19.08641943273533
 21
29.14344268635683
 72
     1
 10
19.08641943273533
 20
29.14344268635683
 11
19.00952756093279
 21
29.14344268635683
 72
     1
 10
19.00952756093279
 20
29.14344268635683
 11
19.00952756093279
 21
29.05821855059726
 72
     1
 10
19.00952756093279
 20
29.05821855059726
 11
19.08641943273533
 21
29.05410036351303
 97
        0
 75
     0
 76
     1
 52
0.0
 41
0.1666666667
 77
     0
 78
     2
 53
45.0
 43
0.0
 44
0.0
 45
-0.0441941738241592
 46
0.0441941738241592
 79
     0
 53
45.0
 43
0.0294627825
 44
0.0
 45
-0.0441941738241592
 46
0.0441941738241592
 79
     0
 98
        1
 10
0.0
 20
0.0
  0
HATCH
  5
A5
330
79
100
AcDbEntity
  8
BLOCKS
 62
    16
100
AcDbHatch
 10
0.0
 20
0.0
 30
0.0
210
0.0
220
0.0
230
1.0
  2
ANSI32
 70
     0
 71
     0
 91
        1
 92
        0
 93
        4
 72
     1
 10
19.08641943273533
 20
28.99844251081363
 11
19.08641943273533
 21
29.05410036351303
 72
     1
 10
19.08641943273533
 20
29.05410036351303
 11
19.00952756093279
 21
29.05821855059726
 72
     1
 10
19.00952756093279
 20
29.05821855059726
 11
19.00952756093279
 21
29.00291769059305
 72
     1
 10
19.00952756093279
 20
29.00291769059305
 11
19.08641943273533
 21
28.99844251081363
 97
        0
 75
     0
 76
     1
 52
0.0
 41
0.1666666667
 77
     0
 78
     2
 53
45.0
 43
0.0
 44
0.0
 45
-0.0441941738241592
 46
0.0441941738241592
 79
     0
 53
45.0
 43
0.0294627825
 44
0.0
 45
-0.0441941738241592
 46
0.0441941738241592
 79
     0
 98
        1
 10
0.0
 20
0.0
  0
HATCH
  5
A6
330
79
100
AcDbEntity
  8
BLOCKS
 62
    16
100
AcDbHatch
 10
0.0
 20
0.0
 30
0.0
210
0.0
220
0.0
230
1.0
  2
ANSI32
 70
     0
 71
     0
 91
        1
 92
        0
 93
        4
 72
     1
 10
19.00952756093279
 20
28.96742852935006
 11
19.08641943273534
 21
28.96295334957064
 72
     1
 10
19.08641943273534
 20
28.96295334957064
 11
19.08641943273534
 21
28.99518903540131
 72
     1
 10
19.08641943273534
 20
28.99518903540131
 11
19.0095275609328
 21
28.99966421518074
 72
     1
 10
19.0095275609328
 20
28.99966421518074
 11
19.00952756093279
 21
28.96742852935006
 97
        0
 75
     0
 76
     1
 52
0.0
 41
0.1666666667
 77
     0
 78
     2
 53
45.0
 43
0.0
 44
0.0
 45
-0.0441941738241592
 46
0.0441941738241592
 79
     0
 53
45.0
 43
0.0294627825
 44
0.0
 45
-0.0441941738241592
 46
0.0441941738241592
 79
     0
 98
        1
 10
0.0
 20
0.0
  0
HATCH
  5
A7
330
79
100
AcDbEntity
  8
BLOCKS
 62
    16
100
AcDbHatch
 10
0.0
 20
0.0
 30
0.0
210
0.0
220
0.0
230
1.0
  2
ANSI32
 70
     0
 71
     0
 91
        1
 92
        0
 93
        4
 72
     1
 10
19.0095275609328
 20
28.99966421518074
 11
18.94675248259694
 21
29.00331778420741
 72
     1
 10
18.94675248259694
 20
29.00331778420741
 11
18.94488266885844
 21
28.97119092330762
 72
     1
 10
18.94488266885844
 20
28.97119092330762
 11
19.00952756093279
 21
28.96742852935006
 72
     1
 10
19.00952756093279
 20
28.96742852935006
 11
19.0095275609328
 21
28.99966421518074
 97
        0
 75
     0
 76
     1
 52
0.0
 41
0.1666666667
 77
     0
 78
     2
 53
45.0
 43
0.0
 44
0.0
 45
-0.0441941738241592
 46
0.0441941738241592
 79
     0
 53
45.0
 43
0.0294627825
 44
0.0
 45
-0.0441941738241592
 46
0.0441941738241592
 79
     0
 98
        1
 10
0.0
 20
0.0
  0
HATCH
  5
A8
330
79
100
AcDbEntity
  8
BLOCKS
 62
    16
100
AcDbHatch
 10
0.0
 20
0.0
 30
0.0
210
0.0
220
0.0
230
1.0
  2
ANSI32
 70
     0
 71
     0
 91
        1
 92
        0
 93
        4
 72
     1
 10
19.15729866039344
 20
28.95882811137627
 11
19.15916847413194
 21
28.99095497227606
 72
     1
 10
19.15916847413194
 20
28.99095497227606
 11
19.08641943273534
 21
28.99518903540131
 72
     1
 10
19.08641943273534
 20
28.99518903540131
 11
19.08641943273534
 21
28.96295334957064
 72
     1
 10
19.08641943273534
 20
28.96295334957064
 11
19.15729866039344
 21
28.95882811137627
 97
        0
 75
     0
 76
     1
 52
0.0
 41
0.1666666667
 77
     0
 78
     2
 53
45.0
 43
0.0
 44
0.0
 45
-0.0441941738241592
 46
0.0441941738241592
 79
     0
 53
45.0
 43
0.0294627825
 44
0.0
 45
-0.0441941738241592
 46
0.0441941738241592
 79
     0
 98
        1
 10
0.0
 20
0.0
  0
HATCH
  5
A9
330
79
100
AcDbEntity
  8
BLOCKS
 62
    16
100
AcDbHatch
 10
0.0
 20
0.0
 30
0.0
210
0.0
220
0.0
230
1.0
  2
ANSI32
 70
     0
 71
     0
 91
        1
 92
        0
 93
        4
 72
     1
 10
19.00952756093279
 20
28.95929271682988
 11
18.96475594104669
 21
28.95929271682988
 72
     2
 10
19.04703816761627
 20
28.99084869604216
 40
0.0881257319589163
 50
200.9822712637957
 51
339.0177287362059
 73
     1
 72
     1
 10
19.12932039418586
 20
28.95929271682988
 11
19.08641943273533
 21
28.95929271682988
 72
     1
 10
19.08641943273533
 20
28.95929271682988
 11
19.00952756093279
 21
28.95929271682988
 97
        0
 75
     0
 76
     1
 52
0.0
 41
0.1666666667
 77
     0
 78
     2
 53
45.0
 43
0.0
 44
0.0
 45
-0.0441941738241592
 46
0.0441941738241592
 79
     0
 53
45.0
 43
0.0294627825
 44
0.0
 45
-0.0441941738241592
 46
0.0441941738241592
 79
     0
 98
        1
 10
0.0
 20
0.0
  0
HATCH
  5
AA
330
79
100
AcDbEntity
  8
BLOCKS
 62
    16
100
AcDbHatch
 10
0.0
 20
0.0
 30
0.0
210
0.0
220
0.0
230
1.0
  2
SOLID
 70
     1
 71
     0
 91
        1
 92
        0
 93
        5
 72
     1
 10
19.90680635715495
 20
29.12174152375217
 11
19.89405107202551
 21
29.14344268635683
 72
     1
 10
19.89405107202551
 20
29.14344268635683
 11
19.30202323130653
 21
29.14344268635683
 72
     1
 10
19.30202323130653
 20
29.14344268635683
 11
19.34703094371573
 21
29.09872583179682
 72
     1
 10
19.34703094371573
 20
29.09872583179682
 11
19.34703094371572
 21
29.12174152375217
 72
     1
 10
19.34703094371572
 20
29.12174152375217
 11
19.90680635715495
 21
29.12174152375217
 97
        0
 75
     0
 76
     1
 98
        1
 10
0.0
 20
0.0
  0
INSERT
  5
C0
330
79
100
AcDbEntity
  8
BLOCKS
100
AcDbBlockReference
  2
SW_BLOCK_DIMENSION_0
 10
19.0632157038
 20
30.4355337656
 30
0.0
  0
ENDBLK
  5
7B
330
79
100
AcDbEntity
  8
0
100
AcDbBlockEnd
  0
BLOCK
  5
AC
330
AB
100
AcDbEntity
  8
0
100
AcDbBlockBegin
  2
SW_BLOCK_DIMENSION_0
 70
     0
 10
0.0
 20
0.0
 30
0.0
  3
SW_BLOCK_DIMENSION_0
  1

  0
SOLID
  5
AE
330
AB
100
AcDbEntity
  8
BLOCKS
 62
     0
100
AcDbTrace
 10
1.3308353682
 20
-0.2045332093
 30
0.0
 11
1.5330651859
 21
-0.2356454889
 31
0.0
 12
1.5330651859
 22
-0.1734209297
 32
0.0
 13
1.5330651859
 23
-0.1734209297
 33
0.0
  0
SOLID
  5
AF
330
AB
100
AcDbEntity
  8
BLOCKS
 62
     0
100
AcDbTrace
 10
0.8308353682
 20
-0.2045332093
 30
0.0
 11
0.6286055505
 21
-0.1734209297
 31
0.0
 12
0.6286055505
 22
-0.2356454889
 32
0.0
 13
0.6286055505
 23
-0.2356454889
 33
0.0
  0
LINE
  5
B0
330
AB
100
AcDbEntity
  8
BLOCKS
 62
     0
100
AcDbLine
 10
-0.0295138874
 20
0.0177083379
 30
0.0
 11
0.1838348813
 21
0.0177083379
 31
0.0
  0
LINE
  5
B1
330
AB
100
AcDbEntity
  8
BLOCKS
 62
     0
100
AcDbLine
 10
-0.0277777774
 20
-0.3299768602
 30
0.0
 11
-0.097222221
 21
-0.3299768602
 31
0.0
  0
LINE
  5
B2
330
AB
100
AcDbEntity
  8
BLOCKS
 62
     0
100
AcDbLine
 10
-0.097222221
 20
-0.3299768602
 30
0.0
 11
-0.097222221
 21
-0.6405478591
 31
0.0
  0
LINE
  5
B3
330
AB
100
AcDbEntity
  8
BLOCKS
 62
     0
100
AcDbLine
 10
-0.097222221
 20
-0.6405478591
 30
0.0
 11
-0.0277777774
 21
-0.6405478591
 31
0.0
  0
LINE
  5
B4
330
AB
100
AcDbEntity
  8
BLOCKS
 62
     0
100
AcDbLine
 10
0.2808642104
 20
-0.3299768602
 30
0.0
 11
0.350308654
 21
-0.3299768602
 31
0.0
  0
LINE
  5
B5
330
AB
100
AcDbEntity
  8
BLOCKS
 62
     0
100
AcDbLine
 10
0.350308654
 20
-0.3299768602
 30
0.0
 11
0.350308654
 21
-0.6405478591
 31
0.0
  0
LINE
  5
B6
330
AB
100
AcDbEntity
  8
BLOCKS
 62
     0
100
AcDbLine
 10
0.350308654
 20
-0.6405478591
 30
0.0
 11
0.2808642104
 21
-0.6405478591
 31
0.0
  0
LINE
  5
B7
330
AB
100
AcDbEntity
  8
BLOCKS
 62
     0
100
AcDbLine
 10
1.3308353682
 20
-1.4976498809
 30
0.0
 11
1.3308353682
 21
-0.0795332093
 31
0.0
  0
LINE
  5
B8
330
AB
100
AcDbEntity
  8
BLOCKS
 62
     0
100
AcDbLine
 10
0.8308353682
 20
-0.9128869511
 30
0.0
 11
0.8308353682
 21
-0.0795332093
 31
0.0
  0
LINE
  5
B9
330
AB
100
AcDbEntity
  8
BLOCKS
 62
     0
100
AcDbLine
 10
1.3308353682
 20
-0.2045332093
 30
0.0
 11
1.7197388638
 21
-0.2045332093
 31
0.0
  0
LINE
  5
BA
330
AB
100
AcDbEntity
  8
BLOCKS
 62
     0
100
AcDbLine
 10
0.8308353682
 20
-0.2045332093
 30
0.0
 11
0.4209019271
 21
-0.2045332093
 31
0.0
  0
MTEXT
  5
BC
330
AB
100
AcDbEntity
  8
BLOCKS
 62
     0
100
AcDbMText
 10
0.0
 20
0.2685557791
 30
0.0
 40
0.2083333333
 41
0.0
 71
     1
 72
     1
  1
1
  7
SLDTEXTSTYLE0
 73
     1
 44
1.0
  0
MTEXT
  5
BD
330
AB
100
AcDbEntity
  8
BLOCKS
 62
     0
100
AcDbMText
 10
0.0
 20
-0.0151247729
 30
0.0
 40
0.2083333333
 41
0.0
 71
     1
 72
     1
  1
2
  7
SLDTEXTSTYLE0
 73
     1
 44
1.0
  0
MTEXT
  5
BE
330
AB
100
AcDbEntity
  8
BLOCKS
 62
     0
100
AcDbMText
 10
0.2133487687
 20
0.1266238321
 30
0.0
 40
0.2083333333
 41
0.0
 71
     1
 72
     1
  1
"
  7
SLDTEXTSTYLE0
 73
     1
 44
1.0
  0
MTEXT
  5
BF
330
AB
100
AcDbEntity
  8
BLOCKS
 62
     0
100
AcDbMText
 10
-0.0277777774
 20
-0.3719920662
 30
0.0
 40
0.2083333333
 41
0.0
 71
     1
 72
     1
  1
13
  7
SLDTEXTSTYLE0
 73
     1
 44
1.0
  0
ENDBLK
  5
AD
330
AB
100
AcDbEntity
  8
0
100
AcDbBlockEnd
  0
BLOCK
  5
C2
330
C1
100
AcDbEntity
  8
0
100
AcDbBlockBegin
  2
OVERHANG - .125
 70
     0
 10
0.0
 20
0.0
 30
0.0
  3
OVERHANG - .125
  1

  0
ARC
  5
C4
330
C1
100
AcDbEntity
  8
0
  6
Continuous
 62
    16
370
    18
100
AcDbCircle
 10
21.0247390722
 20
26.9140495115
 30
0.0
 40
0.0659795528056719
100
AcDbArc
 50
0.0
 51
90.0
  0
ARC
  5
C5
330
C1
100
AcDbEntity
  8
0
  6
Continuous
 62
    16
370
    18
100
AcDbCircle
 10
20.0403577083
 20
26.4212514943
 30
0.0
 40
0.0881257319589152
100
AcDbArc
 50
200.9822712638
 51
339.0177287362
  0
ARC
  5
C6
330
C1
100
AcDbEntity
  8
0
  6
Continuous
 62
    16
370
    18
100
AcDbCircle
 10
20.731618625
 20
26.3139893982
 30
0.0
 40
0.1880000000000024
100
AcDbArc
 50
0.0
 51
90.0
  0
ARC
  5
C7
330
C1
100
AcDbEntity
  8
0
  6
Continuous
 62
    16
370
    18
100
AcDbCircle
 10
20.731618625
 20
26.3139893982
 30
0.0
 40
0.2341000000000015
100
AcDbArc
 50
0.0
 51
90.0
  0
ARC
  5
C8
330
C1
100
AcDbEntity
  8
BLOCKS
100
AcDbCircle
 10
21.3249668066
 20
26.3001927866
 30
0.0
 40
0.3686452378780193
100
AcDbArc
 50
129.4518716023
 51
170.6861521435
  0
LINE
  5
C9
330
C1
100
AcDbEntity
  8
0
  6
Continuous
 62
    16
370
    18
100
AcDbLine
 10
19.4314231162
 20
26.5192257655
 30
0.0
 11
19.3788703567
 21
26.5738454846
 31
0.0
  0
LINE
  5
CA
330
C1
100
AcDbEntity
  8
0
  6
Continuous
 62
    16
370
    18
100
AcDbLine
 10
20.0408120814
 20
26.8351846327
 30
0.0
 11
20.0797389734
 21
26.7799952517
 31
0.0
  0
LINE
  5
CB
330
C1
100
AcDbEntity
  8
0
  6
Continuous
 62
    16
370
    18
100
AcDbLine
 10
19.3788703567
 20
26.5738454846
 30
0.0
 11
19.3364639969
 21
26.5330438976
 31
0.0
  0
LINE
  5
CC
330
C1
100
AcDbEntity
  8
0
  6
Continuous
 62
    16
370
    18
100
AcDbLine
 10
20.6725806187
 20
26.4527516548
 30
0.0
 11
20.7252404088
 21
26.5034186543
 31
0.0
  0
LINE
  5
CD
330
C1
100
AcDbEntity
  8
0
  6
Continuous
 62
    16
370
    18
100
AcDbLine
 10
20.0797389734
 20
26.7799952517
 30
0.0
 11
20.0797389734
 21
26.3896955151
 31
0.0
  0
LINE
  5
CE
330
C1
100
AcDbEntity
  8
0
  6
Continuous
 62
    16
370
    18
100
AcDbLine
 10
19.9814774532
 20
26.8652076206
 30
0.0
 11
19.9814774532
 21
26.5848453834
 31
0.0
  0
LINE
  5
CF
330
C1
100
AcDbEntity
  8
0
  6
Continuous
 62
    16
370
    18
100
AcDbLine
 10
20.7678769055
 20
26.4591052159
 30
0.0
 11
20.6989695496
 21
26.392805503
 31
0.0
  0
LINE
  5
D0
330
C1
100
AcDbEntity
  8
0
  6
Continuous
 62
    16
370
    18
100
AcDbLine
 10
21.0247390722
 20
26.9800290643
 30
0.0
 11
19.2446660374
 21
26.9800290643
 31
0.0
  0
LINE
  5
D1
330
C1
100
AcDbEntity
  8
0
  6
Continuous
 62
    16
370
    18
100
AcDbLine
 10
19.9670675999
 20
26.4905376331
 30
0.0
 11
19.9670675999
 21
26.4354028898
 31
0.0
  0
LINE
  5
D2
330
C1
100
AcDbEntity
  8
0
  6
Continuous
 62
    16
370
    18
100
AcDbLine
 10
20.1524880148
 20
26.4213577706
 30
0.0
 11
20.1506182011
 21
26.3892309097
 31
0.0
  0
LINE
  5
D3
330
C1
100
AcDbEntity
  8
0
  6
Continuous
 62
    16
370
    18
100
AcDbLine
 10
19.3364639969
 20
26.5330438976
 30
0.0
 11
19.3985753063
 21
26.4684896798
 31
0.0
  0
LINE
  5
D4
330
C1
100
AcDbEntity
  8
0
  6
Continuous
 62
    16
370
    18
100
AcDbLine
 10
20.2906117643
 20
26.5019893982
 30
0.0
 11
20.2906117643
 21
26.5480893982
 31
0.0
  0
LINE
  5
D5
330
C1
100
AcDbEntity
  8
0
  6
Continuous
 62
    16
370
    18
100
AcDbLine
 10
19.4314231162
 20
26.5192257655
 30
0.0
 11
20.6725806187
 21
26.4527516548
 31
0.0
  0
LINE
  5
D6
330
C1
100
AcDbEntity
  8
0
  6
Continuous
 62
    16
370
    18
100
AcDbLine
 10
19.9400720233
 20
26.4337205825
 30
0.0
 11
20.1524880148
 21
26.4213577706
 31
0.0
  0
LINE
  5
D7
330
C1
100
AcDbEntity
  8
0
  6
Continuous
 62
    16
370
    18
100
AcDbLine
 10
21.090718625
 20
26.5848453834
 30
0.0
 11
21.090718625
 21
26.9140495115
 31
0.0
  0
LINE
  5
D8
330
C1
100
AcDbEntity
  8
0
  6
Continuous
 62
    16
370
    18
100
AcDbLine
 10
20.731618625
 20
26.5019893982
 30
0.0
 11
20.2906117643
 21
26.5019893982
 31
0.0
  0
LINE
  5
D9
330
C1
100
AcDbEntity
  8
0
  6
Continuous
 62
    16
370
    18
100
AcDbLine
 10
20.919618625
 20
25.9230893982
 30
0.0
 11
20.919618625
 21
26.3139893982
 31
0.0
  0
LINE
  5
DA
330
C1
100
AcDbEntity
  8
0
  6
Continuous
 62
    16
370
    18
100
AcDbLine
 10
19.9580754817
 20
26.3896955151
 30
0.0
 11
20.1226399348
 21
26.3896955151
 31
0.0
  0
LINE
  5
DB
330
C1
100
AcDbEntity
  8
0
  6
Continuous
 62
    16
370
    18
100
AcDbLine
 10
20.1506182011
 20
26.3892309097
 30
0.0
 11
19.9382022095
 21
26.4015937216
 31
0.0
  0
LINE
  5
DC
330
C1
100
AcDbEntity
  8
0
  6
Continuous
 62
    16
370
    18
100
AcDbLine
 10
20.965718625
 20
25.9230893982
 30
0.0
 11
20.919618625
 21
25.9230893982
 31
0.0
  0
LINE
  5
DD
330
C1
100
AcDbEntity
  8
0
  6
Continuous
 62
    16
370
    18
100
AcDbLine
 10
20.965718625
 20
26.3139893982
 30
0.0
 11
20.965718625
 21
25.9230893982
 31
0.0
  0
LINE
  5
DE
330
C1
100
AcDbEntity
  8
0
  6
Continuous
 62
    16
370
    18
100
AcDbLine
 10
20.6989695496
 20
26.392805503
 30
0.0
 11
19.3985753063
 21
26.4684896798
 31
0.0
  0
LINE
  5
DF
330
C1
100
AcDbEntity
  8
0
  6
Continuous
 62
    16
370
    18
100
AcDbLine
 10
19.2743496911
 20
26.5848453834
 30
0.0
 11
21.090718625
 21
26.5848453834
 31
0.0
  0
LINE
  5
E0
330
C1
100
AcDbEntity
  8
0
  6
Continuous
 62
    16
370
    18
100
AcDbLine
 10
20.0028471016
 20
26.7799952517
 30
0.0
 11
20.0408120814
 21
26.8351846327
 31
0.0
  0
LINE
  5
E1
330
C1
100
AcDbEntity
  8
0
  6
Continuous
 62
    16
370
    18
100
AcDbLine
 10
20.2906117643
 20
26.5480893982
 30
0.0
 11
20.731618625
 21
26.5480893982
 31
0.0
  0
LINE
  5
E2
330
C1
100
AcDbEntity
  8
0
  6
Continuous
 62
    16
370
    18
100
AcDbLine
 10
20.0028471016
 20
26.7799952517
 30
0.0
 11
20.0028471016
 21
26.3896955151
 31
0.0
  0
LINE
  5
E3
330
C1
100
AcDbEntity
  8
0
  6
Continuous
 62
    16
370
    18
100
AcDbLine
 10
20.1080144451
 20
26.8652076206
 30
0.0
 11
19.9814774532
 21
26.8652076206
 31
0.0
  0
LINE
  5
E4
330
C1
100
AcDbEntity
  8
0
  6
Continuous
 62
    16
370
    18
100
AcDbLine
 10
20.7252404088
 20
26.5034186543
 30
0.0
 11
20.7678769055
 21
26.4591052159
 31
0.0
  0
LINE
  5
E5
330
C1
100
AcDbEntity
  8
0
  6
Continuous
 62
    16
370
    18
100
AcDbLine
 10
19.9400720233
 20
26.4337205825
 30
0.0
 11
19.9382022095
 21
26.4015937216
 31
0.0
  0
LINE
  5
E6
330
C1
100
AcDbEntity
  8
0
  6
Continuous
 62
    16
370
    18
100
AcDbLine
 10
20.1080144451
 20
26.5848453834
 30
0.0
 11
20.1080144451
 21
26.8652076206
 31
0.0
  0
LINE
  5
E7
330
C1
100
AcDbEntity
  8
0
  6
Continuous
 62
    16
370
    18
100
AcDbLine
 10
20.1216872784
 20
26.4822564878
 30
0.0
 11
20.1216872784
 21
26.426403878
 31
0.0
  0
LINE
  5
E8
330
C1
100
AcDbEntity
  8
BLOCKS
100
AcDbLine
 10
20.2906117643
 20
26.5480893982
 30
0.0
 11
20.2368944426
 21
26.5848453834
 31
0.0
  0
SPLINE
  5
E9
330
C1
100
AcDbEntity
  8
0
  6
Continuous
 62
    16
370
    18
100
AcDbSpline
210
0.0
220
0.0
230
1.0
 70
     8
 71
     3
 72
     9
 73
     5
 74
     0
 42
0.000000001
 43
0.00000001
 40
0.0
 40
0.0
 40
0.0
 40
0.0
 40
0.5928291688347104
 40
1.0
 40
1.0
 40
1.0
 40
1.0
 10
19.27434969107827
 20
26.58484538338648
 30
0.0
 10
19.22977403886498
 20
26.67067982455945
 30
0.0
 10
19.3092570011885
 20
26.78990333849607
 30
0.0
 10
19.29114417973896
 20
26.9441515837284
 30
0.0
 10
19.24466603742839
 20
26.98002906431008
 30
0.0
  0
HATCH
  5
EA
330
C1
100
AcDbEntity
  8
BLOCKS
 62
    16
100
AcDbHatch
 10
0.0
 20
0.0
 30
0.0
210
0.0
220
0.0
230
1.0
  2
ANSI36
 70
     0
 71
     0
 91
        1
 92
        0
 93
       10
 72
     4
 94
        3
 73
     1
 74
     0
 95
        9
 96
        5
 40
0.0
 40
0.0
 40
0.0
 40
0.0
 40
0.4071708311652896
 40
1.0
 40
1.0
 40
1.0
 40
1.0
 10
19.24466603742839
 20
26.98002906431008
 42
1.0
 10
19.29114417973896
 20
26.9441515837284
 42
1.0
 10
19.3092570011885
 20
26.78990333849607
 42
1.0
 10
19.22977403886498
 20
26.67067982455945
 42
1.0
 10
19.27434969107827
 20
26.58484538338648
 42
1.0
 72
     1
 10
19.27434969107827
 20
26.58484538338648
 11
19.98147745321076
 21
26.58484538338648
 72
     1
 10
19.98147745321076
 20
26.58484538338648
 11
19.98147745321076
 21
26.86520762058046
 72
     1
 10
19.98147745321076
 20
26.86520762058046
 11
20.10801444514525
 21
26.86520762058046
 72
     1
 10
20.10801444514525
 20
26.86520762058046
 11
20.10801444514525
 21
26.58484538338648
 72
     1
 10
20.10801444514525
 20
26.58484538338648
 11
20.23689444261453
 21
26.58484538338649
 72
     1
 10
20.23689444261453
 20
26.58484538338649
 11
21.0907186249667
 21
26.58484538338648
 72
     1
 10
21.0907186249667
 20
26.58484538338648
 11
21.0907186249667
 21
26.9140495115044
 72
     2
 10
21.02473907216103
 20
26.9140495115044
 40
0.0659795528056717
 50
0.0
 51
90.0
 73
     1
 72
     1
 10
21.02473907216103
 20
26.98002906431007
 11
19.24466603742839
 21
26.98002906431008
 97
        0
 75
     0
 76
     1
 52
0.0
 41
0.5
 77
     0
 78
     1
 53
45.0
 43
0.0
 44
0.0
 45
0.0331456303681194
 46
0.1215339780164378
 79
     4
 49
0.15625
 49
-0.03125
 49
0.0
 49
-0.03125
 98
        1
 10
0.0
 20
0.0
  0
HATCH
  5
EB
330
C1
100
AcDbEntity
  8
BLOCKS
 62
    16
100
AcDbHatch
 10
0.0
 20
0.0
 30
0.0
210
0.0
220
0.0
230
1.0
  2
ANSI32
 70
     0
 71
     0
 91
        1
 92
        0
 93
        4
 72
     1
 10
20.07973897339712
 20
26.58484538338648
 11
20.00284710159458
 21
26.58484538338648
 72
     1
 10
20.00284710159458
 20
26.58484538338648
 11
20.00284710159458
 21
26.48862134888004
 72
     1
 10
20.00284710159458
 20
26.48862134888004
 11
20.07973897339712
 21
26.4845031617958
 72
     1
 10
20.07973897339712
 20
26.4845031617958
 11
20.07973897339712
 21
26.58484538338648
 97
        0
 75
     0
 76
     1
 52
0.0
 41
0.2
 77
     0
 78
     2
 53
45.0
 43
0.0
 44
0.0
 45
-0.0530330085889911
 46
0.0530330085889911
 79
     0
 53
45.0
 43
0.035355339
 44
0.0
 45
-0.0530330085889911
 46
0.0530330085889911
 79
     0
 98
        1
 10
0.0
 20
0.0
  0
HATCH
  5
EC
330
C1
100
AcDbEntity
  8
BLOCKS
 62
    16
100
AcDbHatch
 10
0.0
 20
0.0
 30
0.0
210
0.0
220
0.0
230
1.0
  2
ANSI32
 70
     0
 71
     0
 91
        1
 92
        0
 93
        5
 72
     1
 10
20.04081208140756
 20
26.8351846326727
 11
20.00284710159458
 21
26.77999525166031
 72
     1
 10
20.00284710159458
 20
26.77999525166031
 11
20.00284710159458
 21
26.58484538338648
 72
     1
 10
20.00284710159458
 20
26.58484538338648
 11
20.07973897339712
 21
26.58484538338648
 72
     1
 10
20.07973897339712
 20
26.58484538338648
 11
20.07973897339712
 21
26.77999525166031
 72
     1
 10
20.07973897339712
 20
26.77999525166031
 11
20.04081208140756
 21
26.8351846326727
 97
        0
 75
     0
 76
     1
 52
0.0
 41
0.2
 77
     0
 78
     2
 53
45.0
 43
0.0
 44
0.0
 45
-0.0530330085889911
 46
0.0530330085889911
 79
     0
 53
45.0
 43
0.035355339
 44
0.0
 45
-0.0530330085889911
 46
0.0530330085889911
 79
     0
 98
        1
 10
0.0
 20
0.0
  0
HATCH
  5
ED
330
C1
100
AcDbEntity
  8
BLOCKS
 62
    16
100
AcDbHatch
 10
0.0
 20
0.0
 30
0.0
210
0.0
220
0.0
230
1.0
  2
ANSI32
 70
     0
 71
     0
 91
        1
 92
        0
 93
        4
 72
     1
 10
20.07973897339712
 20
26.4845031617958
 11
20.00284710159458
 21
26.48862134888004
 72
     1
 10
20.00284710159458
 20
26.48862134888004
 11
20.00284710159458
 21
26.43332048887584
 72
     1
 10
20.00284710159458
 20
26.43332048887584
 11
20.07973897339712
 21
26.42884530909641
 72
     1
 10
20.07973897339712
 20
26.42884530909641
 11
20.07973897339712
 21
26.4845031617958
 97
        0
 75
     0
 76
     1
 52
0.0
 41
0.2
 77
     0
 78
     2
 53
45.0
 43
0.0
 44
0.0
 45
-0.0530330085889911
 46
0.0530330085889911
 79
     0
 53
45.0
 43
0.035355339
 44
0.0
 45
-0.0530330085889911
 46
0.0530330085889911
 79
     0
 98
        1
 10
0.0
 20
0.0
  0
HATCH
  5
EE
330
C1
100
AcDbEntity
  8
BLOCKS
 62
    16
100
AcDbHatch
 10
0.0
 20
0.0
 30
0.0
210
0.0
220
0.0
230
1.0
  2
ANSI32
 70
     0
 71
     0
 91
        1
 92
        0
 93
        4
 72
     1
 10
20.00284710159458
 20
26.43006701346352
 11
19.94007202325873
 21
26.43372058249019
 72
     1
 10
19.94007202325873
 20
26.43372058249019
 11
19.93820220952023
 21
26.40159372159039
 72
     1
 10
19.93820220952023
 20
26.40159372159039
 11
20.00284710159458
 21
26.39783132763285
 72
     1
 10
20.00284710159458
 20
26.39783132763285
 11
20.00284710159458
 21
26.43006701346352
 97
        0
 75
     0
 76
     1
 52
0.0
 41
0.2
 77
     0
 78
     2
 53
45.0
 43
0.0
 44
0.0
 45
-0.0530330085889911
 46
0.0530330085889911
 79
     0
 53
45.0
 43
0.035355339
 44
0.0
 45
-0.0530330085889911
 46
0.0530330085889911
 79
     0
 98
        1
 10
0.0
 20
0.0
  0
HATCH
  5
EF
330
C1
100
AcDbEntity
  8
BLOCKS
 62
    16
100
AcDbHatch
 10
0.0
 20
0.0
 30
0.0
210
0.0
220
0.0
230
1.0
  2
ANSI32
 70
     0
 71
     0
 91
        1
 92
        0
 93
        4
 72
     1
 10
20.07973897339712
 20
26.42559183368408
 11
20.00284710159458
 21
26.43006701346352
 72
     1
 10
20.00284710159458
 20
26.43006701346352
 11
20.00284710159458
 21
26.39783132763285
 72
     1
 10
20.00284710159458
 20
26.39783132763285
 11
20.07973897339712
 21
26.39335614785342
 72
     1
 10
20.07973897339712
 20
26.39335614785342
 11
20.07973897339712
 21
26.42559183368408
 97
        0
 75
     0
 76
     1
 52
0.0
 41
0.2
 77
     0
 78
     2
 53
45.0
 43
0.0
 44
0.0
 45
-0.0530330085889911
 46
0.0530330085889911
 79
     0
 53
45.0
 43
0.035355339
 44
0.0
 45
-0.0530330085889911
 46
0.0530330085889911
 79
     0
 98
        1
 10
0.0
 20
0.0
  0
HATCH
  5
F0
330
C1
100
AcDbEntity
  8
BLOCKS
 62
    16
100
AcDbHatch
 10
0.0
 20
0.0
 30
0.0
210
0.0
220
0.0
230
1.0
  2
ANSI32
 70
     0
 71
     0
 91
        1
 92
        0
 93
        4
 72
     1
 10
20.07973897339712
 20
26.39335614785342
 11
20.15061820105523
 21
26.38923090965904
 72
     1
 10
20.15061820105523
 20
26.38923090965904
 11
20.15248801479373
 21
26.42135777055884
 72
     1
 10
20.15248801479373
 20
26.42135777055884
 11
20.07973897339712
 21
26.42559183368408
 72
     1
 10
20.07973897339712
 20
26.42559183368408
 11
20.07973897339712
 21
26.39335614785342
 97
        0
 75
     0
 76
     1
 52
0.0
 41
0.2
 77
     0
 78
     2
 53
45.0
 43
0.0
 44
0.0
 45
-0.0530330085889911
 46
0.0530330085889911
 79
     0
 53
45.0
 43
0.035355339
 44
0.0
 45
-0.0530330085889911
 46
0.0530330085889911
 79
     0
 98
        1
 10
0.0
 20
0.0
  0
HATCH
  5
F1
330
C1
100
AcDbEntity
  8
BLOCKS
 62
    16
100
AcDbHatch
 10
0.0
 20
0.0
 30
0.0
210
0.0
220
0.0
230
1.0
  2
ANSI32
 70
     0
 71
     0
 91
        1
 92
        0
 93
        4
 72
     1
 10
20.00284710159458
 20
26.38969551511265
 11
19.95807548170848
 21
26.38969551511265
 72
     2
 10
20.04035770827806
 20
26.42125149432493
 40
0.0881257319589163
 50
200.9822712637957
 51
339.0177287362059
 73
     1
 72
     1
 10
20.12263993484765
 20
26.38969551511265
 11
20.07973897339712
 21
26.38969551511265
 72
     1
 10
20.07973897339712
 20
26.38969551511265
 11
20.00284710159458
 21
26.38969551511265
 97
        0
 75
     0
 76
     1
 52
0.0
 41
0.2
 77
     0
 78
     2
 53
45.0
 43
0.0
 44
0.0
 45
-0.0530330085889911
 46
0.0530330085889911
 79
     0
 53
45.0
 43
0.035355339
 44
0.0
 45
-0.0530330085889911
 46
0.0530330085889911
 79
     0
 98
        1
 10
0.0
 20
0.0
  0
HATCH
  5
F2
330
C1
100
AcDbEntity
  8
BLOCKS
100
AcDbHatch
 10
0.0
 20
0.0
 30
0.0
210
0.0
220
0.0
230
1.0
  2
SOLID
 70
     1
 71
     0
 91
        1
 92
        0
 93
        5
 72
     2
 10
21.32496680656287
 20
26.30019278664964
 40
0.3686452378780171
 50
189.3138478564999
 51
230.5481283977412
 73
     0
 72
     1
 10
21.0907186249667
 20
26.58484538338648
 11
20.23689444261453
 21
26.58484538338649
 72
     1
 10
20.23689444261453
 20
26.58484538338649
 11
20.29061176430621
 21
26.54808939823214
 72
     1
 10
20.29061176430621
 20
26.54808939823214
 11
20.7316186249667
 21
26.54808939823214
 72
     2
 10
20.7316186249667
 20
26.31398939823214
 40
0.2341000000000018
 50
270.0000000000008
 51
348.7012977589557
 73
     0
 97
        0
 75
     0
 76
     1
 98
        1
 10
0.0
 20
0.0
  0
INSERT
  5
107
330
C1
100
AcDbEntity
  8
BLOCKS
100
AcDbBlockReference
  2
SW_BLOCK_DIMENSION_1
 10
20.1016287724
 20
25.675266346
 30
0.0
  0
ENDBLK
  5
C3
330
C1
100
AcDbEntity
  8
0
100
AcDbBlockEnd
  0
BLOCK
  5
F4
330
F3
100
AcDbEntity
  8
0
100
AcDbBlockBegin
  2
SW_BLOCK_DIMENSION_1
 70
     0
 10
0.0
 20
0.0
 30
0.0
  3
SW_BLOCK_DIMENSION_1
  1

  0
SOLID
  5
F6
330
F3
100
AcDbEntity
  8
BLOCKS
 62
     0
100
AcDbTrace
 10
0.8640898526
 20
-0.2045332093
 30
0.0
 11
0.6618600349
 21
-0.1734209297
 31
0.0
 12
0.6618600349
 22
-0.2356454889
 32
0.0
 13
0.6618600349
 23
-0.2356454889
 33
0.0
  0
SOLID
  5
F7
330
F3
100
AcDbEntity
  8
BLOCKS
 62
     0
100
AcDbTrace
 10
0.9890898526
 20
-0.2045332093
 30
0.0
 11
1.1913196703
 21
-0.2356454889
 31
0.0
 12
1.1913196703
 22
-0.1734209297
 32
0.0
 13
1.1913196703
 23
-0.1734209297
 33
0.0
  0
LINE
  5
F8
330
F3
100
AcDbEntity
  8
BLOCKS
 62
     0
100
AcDbLine
 10
-0.0295138874
 20
0.0177083379
 30
0.0
 11
0.1838348813
 21
0.0177083379
 31
0.0
  0
LINE
  5
F9
330
F3
100
AcDbEntity
  8
BLOCKS
 62
     0
100
AcDbLine
 10
0.0493827195
 20
-0.3299768602
 30
0.0
 11
-0.0200617241
 21
-0.3299768602
 31
0.0
  0
LINE
  5
FA
330
F3
100
AcDbEntity
  8
BLOCKS
 62
     0
100
AcDbLine
 10
-0.0200617241
 20
-0.3299768602
 30
0.0
 11
-0.0200617241
 21
-0.6405478591
 31
0.0
  0
LINE
  5
FB
330
F3
100
AcDbEntity
  8
BLOCKS
 62
     0
100
AcDbLine
 10
-0.0200617241
 20
-0.6405478591
 30
0.0
 11
0.0493827195
 21
-0.6405478591
 31
0.0
  0
LINE
  5
FC
330
F3
100
AcDbEntity
  8
BLOCKS
 62
     0
100
AcDbLine
 10
0.2037037135
 20
-0.3299768602
 30
0.0
 11
0.2731481571
 21
-0.3299768602
 31
0.0
  0
LINE
  5
FD
330
F3
100
AcDbEntity
  8
BLOCKS
 62
     0
100
AcDbLine
 10
0.2731481571
 20
-0.3299768602
 30
0.0
 11
0.2731481571
 21
-0.6405478591
 31
0.0
  0
LINE
  5
FE
330
F3
100
AcDbEntity
  8
BLOCKS
 62
     0
100
AcDbLine
 10
0.2731481571
 20
-0.6405478591
 30
0.0
 11
0.2037037135
 21
-0.6405478591
 31
0.0
  0
LINE
  5
FF
330
F3
100
AcDbEntity
  8
BLOCKS
 62
     0
100
AcDbLine
 10
0.8640898526
 20
0.1978230522
 30
0.0
 11
0.8640898526
 21
-0.3295332093
 31
0.0
  0
LINE
  5
100
330
F3
100
AcDbEntity
  8
BLOCKS
 62
     0
100
AcDbLine
 10
0.9890898526
 20
0.8595790373
 30
0.0
 11
0.9890898526
 21
-0.3295332093
 31
0.0
  0
LINE
  5
101
330
F3
100
AcDbEntity
  8
BLOCKS
 62
     0
100
AcDbLine
 10
0.8640898526
 20
-0.2045332093
 30
0.0
 11
0.3437414302
 21
-0.2045332093
 31
0.0
  0
LINE
  5
102
330
F3
100
AcDbEntity
  8
BLOCKS
 62
     0
100
AcDbLine
 10
0.9890898526
 20
-0.2045332093
 30
0.0
 11
1.3779933482
 21
-0.2045332093
 31
0.0
  0
MTEXT
  5
103
330
F3
100
AcDbEntity
  8
BLOCKS
 62
     0
100
AcDbMText
 10
0.0
 20
0.2685557791
 30
0.0
 40
0.2083333333
 41
0.0
 71
     1
 72
     1
  1
1
  7
SLDTEXTSTYLE0
 73
     1
 44
1.0
  0
MTEXT
  5
104
330
F3
100
AcDbEntity
  8
BLOCKS
 62
     0
100
AcDbMText
 10
0.0
 20
-0.0151247729
 30
0.0
 40
0.2083333333
 41
0.0
 71
     1
 72
     1
  1
8
  7
SLDTEXTSTYLE0
 73
     1
 44
1.0
  0
MTEXT
  5
105
330
F3
100
AcDbEntity
  8
BLOCKS
 62
     0
100
AcDbMText
 10
0.2133487687
 20
0.1266238321
 30
0.0
 40
0.2083333333
 41
0.0
 71
     1
 72
     1
  1
"
  7
SLDTEXTSTYLE0
 73
     1
 44
1.0
  0
MTEXT
  5
106
330
F3
100
AcDbEntity
  8
BLOCKS
 62
     0
100
AcDbMText
 10
0.0493827195
 20
-0.3719920662
 30
0.0
 40
0.2083333333
 41
0.0
 71
     1
 72
     1
  1
3
  7
SLDTEXTSTYLE0
 73
     1
 44
1.0
  0
ENDBLK
  5
F5
330
F3
100
AcDbEntity
  8
0
100
AcDbBlockEnd
  0
BLOCK
  5
109
330
108
100
AcDbEntity
  8
0
100
AcDbBlockBegin
  2
REVEAL - 0 (FLUSH)
 70
     0
 10
0.0
 20
0.0
 30
0.0
  3
REVEAL - 0 (FLUSH)
  1

  0
ARC
  5
10B
330
108
100
AcDbEntity
  8
0
  6
Continuous
 62
    16
370
    18
100
AcDbCircle
 10
20.8997390722
 20
26.9140495115
 30
0.0
 40
0.0659795528056684
100
AcDbArc
 50
0.0
 51
90.0
  0
ARC
  5
10C
330
108
100
AcDbEntity
  8
0
  6
Continuous
 62
    16
370
    18
100
AcDbCircle
 10
20.0403577083
 20
26.4212514943
 30
0.0
 40
0.0881257319589152
100
AcDbArc
 50
200.9822712638
 51
339.0177287362
  0
ARC
  5
10D
330
108
100
AcDbEntity
  8
0
  6
Continuous
 62
    16
370
    18
100
AcDbCircle
 10
20.731618625
 20
26.3139893982
 30
0.0
 40
0.1880000000000024
100
AcDbArc
 50
0.0
 51
90.0
  0
ARC
  5
10E
330
108
100
AcDbEntity
  8
0
  6
Continuous
 62
    16
370
    18
100
AcDbCircle
 10
20.731618625
 20
26.3139893982
 30
0.0
 40
0.2341000000000015
100
AcDbArc
 50
0.0
 51
90.0
  0
LINE
  5
10F
330
108
100
AcDbEntity
  8
0
  6
Continuous
 62
    16
370
    18
100
AcDbLine
 10
19.4314231162
 20
26.5192257655
 30
0.0
 11
19.3788703567
 21
26.5738454846
 31
0.0
  0
LINE
  5
110
330
108
100
AcDbEntity
  8
0
  6
Continuous
 62
    16
370
    18
100
AcDbLine
 10
20.0408120814
 20
26.8351846327
 30
0.0
 11
20.0797389734
 21
26.7799952517
 31
0.0
  0
LINE
  5
111
330
108
100
AcDbEntity
  8
0
  6
Continuous
 62
    16
370
    18
100
AcDbLine
 10
19.3788703567
 20
26.5738454846
 30
0.0
 11
19.3364639969
 21
26.5330438976
 31
0.0
  0
LINE
  5
112
330
108
100
AcDbEntity
  8
0
  6
Continuous
 62
    16
370
    18
100
AcDbLine
 10
20.6725806187
 20
26.4527516548
 30
0.0
 11
20.7252404088
 21
26.5034186543
 31
0.0
  0
LINE
  5
113
330
108
100
AcDbEntity
  8
0
  6
Continuous
 62
    16
370
    18
100
AcDbLine
 10
20.0797389734
 20
26.7799952517
 30
0.0
 11
20.0797389734
 21
26.3896955151
 31
0.0
  0
LINE
  5
114
330
108
100
AcDbEntity
  8
0
  6
Continuous
 62
    16
370
    18
100
AcDbLine
 10
19.9814774532
 20
26.8652076206
 30
0.0
 11
19.9814774532
 21
26.5848453834
 31
0.0
  0
LINE
  5
115
330
108
100
AcDbEntity
  8
0
  6
Continuous
 62
    16
370
    18
100
AcDbLine
 10
20.7678769055
 20
26.4591052159
 30
0.0
 11
20.6989695496
 21
26.392805503
 31
0.0
  0
LINE
  5
116
330
108
100
AcDbEntity
  8
0
  6
Continuous
 62
    16
370
    18
100
AcDbLine
 10
20.8997390722
 20
26.9800290643
 30
0.0
 11
19.2446660374
 21
26.9800290643
 31
0.0
  0
LINE
  5
117
330
108
100
AcDbEntity
  8
0
  6
Continuous
 62
    16
370
    18
100
AcDbLine
 10
19.9670675999
 20
26.4905376331
 30
0.0
 11
19.9670675999
 21
26.4354028898
 31
0.0
  0
LINE
  5
118
330
108
100
AcDbEntity
  8
0
  6
Continuous
 62
    16
370
    18
100
AcDbLine
 10
20.1524880148
 20
26.4213577706
 30
0.0
 11
20.1506182011
 21
26.3892309097
 31
0.0
  0
LINE
  5
119
330
108
100
AcDbEntity
  8
0
  6
Continuous
 62
    16
370
    18
100
AcDbLine
 10
19.3364639969
 20
26.5330438976
 30
0.0
 11
19.3985753063
 21
26.4684896798
 31
0.0
  0
LINE
  5
11A
330
108
100
AcDbEntity
  8
0
  6
Continuous
 62
    16
370
    18
100
AcDbLine
 10
20.2906117643
 20
26.5019893982
 30
0.0
 11
20.2906117643
 21
26.5480893982
 31
0.0
  0
LINE
  5
11B
330
108
100
AcDbEntity
  8
0
  6
Continuous
 62
    16
370
    18
100
AcDbLine
 10
19.4314231162
 20
26.5192257655
 30
0.0
 11
20.6725806187
 21
26.4527516548
 31
0.0
  0
LINE
  5
11C
330
108
100
AcDbEntity
  8
0
  6
Continuous
 62
    16
370
    18
100
AcDbLine
 10
19.9400720233
 20
26.4337205825
 30
0.0
 11
20.1524880148
 21
26.4213577706
 31
0.0
  0
LINE
  5
11D
330
108
100
AcDbEntity
  8
0
  6
Continuous
 62
    16
370
    18
100
AcDbLine
 10
20.965718625
 20
26.5848453834
 30
0.0
 11
20.965718625
 21
26.9140495115
 31
0.0
  0
LINE
  5
11E
330
108
100
AcDbEntity
  8
0
  6
Continuous
 62
    16
370
    18
100
AcDbLine
 10
20.731618625
 20
26.5019893982
 30
0.0
 11
20.2906117643
 21
26.5019893982
 31
0.0
  0
LINE
  5
11F
330
108
100
AcDbEntity
  8
0
  6
Continuous
 62
    16
370
    18
100
AcDbLine
 10
20.919618625
 20
25.9230893982
 30
0.0
 11
20.919618625
 21
26.3139893982
 31
0.0
  0
LINE
  5
120
330
108
100
AcDbEntity
  8
0
  6
Continuous
 62
    16
370
    18
100
AcDbLine
 10
19.9580754817
 20
26.3896955151
 30
0.0
 11
20.1226399348
 21
26.3896955151
 31
0.0
  0
LINE
  5
121
330
108
100
AcDbEntity
  8
0
  6
Continuous
 62
    16
370
    18
100
AcDbLine
 10
20.1506182011
 20
26.3892309097
 30
0.0
 11
19.9382022095
 21
26.4015937216
 31
0.0
  0
LINE
  5
122
330
108
100
AcDbEntity
  8
0
  6
Continuous
 62
    16
370
    18
100
AcDbLine
 10
20.965718625
 20
25.9230893982
 30
0.0
 11
20.919618625
 21
25.9230893982
 31
0.0
  0
LINE
  5
123
330
108
100
AcDbEntity
  8
0
  6
Continuous
 62
    16
370
    18
100
AcDbLine
 10
20.965718625
 20
26.3139893982
 30
0.0
 11
20.965718625
 21
25.9230893982
 31
0.0
  0
LINE
  5
124
330
108
100
AcDbEntity
  8
0
  6
Continuous
 62
    16
370
    18
100
AcDbLine
 10
20.6989695496
 20
26.392805503
 30
0.0
 11
19.3985753063
 21
26.4684896798
 31
0.0
  0
LINE
  5
125
330
108
100
AcDbEntity
  8
0
  6
Continuous
 62
    16
370
    18
100
AcDbLine
 10
19.2743496911
 20
26.5848453834
 30
0.0
 11
20.0028471016
 21
26.5848453834
 31
0.0
  0
LINE
  5
126
330
108
100
AcDbEntity
  8
0
  6
Continuous
 62
    16
370
    18
100
AcDbLine
 10
20.0028471016
 20
26.7799952517
 30
0.0
 11
20.0408120814
 21
26.8351846327
 31
0.0
  0
LINE
  5
127
330
108
100
AcDbEntity
  8
0
  6
Continuous
 62
    16
370
    18
100
AcDbLine
 10
20.2906117643
 20
26.5480893982
 30
0.0
 11
20.731618625
 21
26.5480893982
 31
0.0
  0
LINE
  5
128
330
108
100
AcDbEntity
  8
0
  6
Continuous
 62
    16
370
    18
100
AcDbLine
 10
20.0028471016
 20
26.7799952517
 30
0.0
 11
20.0028471016
 21
26.3896955151
 31
0.0
  0
LINE
  5
129
330
108
100
AcDbEntity
  8
0
  6
Continuous
 62
    16
370
    18
100
AcDbLine
 10
20.1033429009
 20
26.8652076206
 30
0.0
 11
19.9814774532
 21
26.8652076206
 31
0.0
  0
LINE
  5
12A
330
108
100
AcDbEntity
  8
0
  6
Continuous
 62
    16
370
    18
100
AcDbLine
 10
20.7252404088
 20
26.5034186543
 30
0.0
 11
20.7678769055
 21
26.4591052159
 31
0.0
  0
LINE
  5
12B
330
108
100
AcDbEntity
  8
0
  6
Continuous
 62
    16
370
    18
100
AcDbLine
 10
19.9400720233
 20
26.4337205825
 30
0.0
 11
19.9382022095
 21
26.4015937216
 31
0.0
  0
LINE
  5
12C
330
108
100
AcDbEntity
  8
0
  6
Continuous
 62
    16
370
    18
100
AcDbLine
 10
20.1033429009
 20
26.5848453834
 30
0.0
 11
20.1033429009
 21
26.8652076206
 31
0.0
  0
LINE
  5
12D
330
108
100
AcDbEntity
  8
0
  6
Continuous
 62
    16
370
    18
100
AcDbLine
 10
20.1216872784
 20
26.4822564878
 30
0.0
 11
20.1216872784
 21
26.426403878
 31
0.0
  0
LINE
  5
12E
330
108
100
AcDbEntity
  8
BLOCKS
100
AcDbLine
 10
20.2906117643
 20
26.5480893982
 30
0.0
 11
20.2368944426
 21
26.5848453834
 31
0.0
  0
LINE
  5
12F
330
108
100
AcDbEntity
  8
0
  6
Continuous
 62
     7
370
    18
100
AcDbLine
 10
20.2368944426
 20
26.5848453834
 30
0.0
 11
20.965718625
 21
26.5848453834
 31
0.0
  0
LINE
  5
130
330
108
100
AcDbEntity
  8
BLOCKS
100
AcDbLine
 10
20.0797389734
 20
26.5848453834
 30
0.0
 11
20.965718625
 21
26.5848453834
 31
0.0
  0
LINE
  5
131
330
108
100
AcDbEntity
  8
0
  6
Continuous
 62
     7
370
    18
100
AcDbLine
 10
20.965718625
 20
26.3139893982
 30
0.0
 11
20.965718625
 21
26.5848453834
 31
0.0
  0
SPLINE
  5
132
330
108
100
AcDbEntity
  8
BLOCKS
100
AcDbSpline
210
0.0
220
0.0
230
1.0
 70
     8
 71
     3
 72
     8
 73
     4
 74
     0
 42
0.000000001
 43
0.00000001
 40
0.0
 40
0.0
 40
0.0
 40
0.0
 40
1.0
 40
1.0
 40
1.0
 40
1.0
 10
19.24466603742839
 20
26.98002906431008
 30
0.0
 10
19.40755868602182
 20
26.86177152370008
 30
0.0
 10
19.11947833134008
 20
26.72443452904972
 30
0.0
 10
19.27434969107827
 20
26.58484538338648
 30
0.0
  0
HATCH
  5
133
330
108
100
AcDbEntity
  8
0
  6
Continuous
 62
    16
100
AcDbHatch
 10
0.0
 20
0.0
 30
0.0
210
0.0
220
0.0
230
1.0
  2
SOLID
 70
     1
 71
     0
 91
        1
 92
        0
 93
        5
 72
     1
 10
20.29061176430621
 20
26.54808939823214
 11
20.7316186249667
 21
26.54808939823214
 72
     2
 10
20.7316186249667
 20
26.31398939823214
 40
0.2341000000000018
 50
270.0000000000008
 51
360.0000000000008
 73
     0
 72
     1
 10
20.9657186249667
 20
26.31398939823214
 11
20.9657186249667
 21
26.58484538338648
 72
     1
 10
20.9657186249667
 20
26.58484538338648
 11
20.23689444261454
 21
26.58484538338648
 72
     1
 10
20.23689444261454
 20
26.58484538338648
 11
20.29061176430621
 21
26.54808939823214
 97
        0
 75
     0
 76
     1
 98
        1
 10
0.0
 20
0.0
  0
HATCH
  5
134
330
108
100
AcDbEntity
  8
BLOCKS
 62
    16
100
AcDbHatch
 10
0.0
 20
0.0
 30
0.0
210
0.0
220
0.0
230
1.0
  2
ANSI32
 70
     0
 71
     0
 91
        1
 92
        0
 93
        4
 72
     1
 10
20.07973897339712
 20
26.58484538338648
 11
20.00284710159458
 21
26.58484538338648
 72
     1
 10
20.00284710159458
 20
26.58484538338648
 11
20.00284710159458
 21
26.48862134888004
 72
     1
 10
20.00284710159458
 20
26.48862134888004
 11
20.07973897339712
 21
26.4845031617958
 72
     1
 10
20.07973897339712
 20
26.4845031617958
 11
20.07973897339712
 21
26.58484538338648
 97
        0
 75
     0
 76
     1
 52
0.0
 41
0.2
 77
     0
 78
     2
 53
45.0
 43
0.0
 44
0.0
 45
-0.0530330085889911
 46
0.0530330085889911
 79
     0
 53
45.0
 43
0.035355339
 44
0.0
 45
-0.0530330085889911
 46
0.0530330085889911
 79
     0
 98
        1
 10
0.0
 20
0.0
  0
HATCH
  5
135
330
108
100
AcDbEntity
  8
BLOCKS
 62
    16
100
AcDbHatch
 10
0.0
 20
0.0
 30
0.0
210
0.0
220
0.0
230
1.0
  2
ANSI32
 70
     0
 71
     0
 91
        1
 92
        0
 93
        5
 72
     1
 10
20.04081208140756
 20
26.8351846326727
 11
20.00284710159458
 21
26.77999525166031
 72
     1
 10
20.00284710159458
 20
26.77999525166031
 11
20.00284710159458
 21
26.58484538338648
 72
     1
 10
20.00284710159458
 20
26.58484538338648
 11
20.07973897339712
 21
26.58484538338648
 72
     1
 10
20.07973897339712
 20
26.58484538338648
 11
20.07973897339712
 21
26.77999525166031
 72
     1
 10
20.07973897339712
 20
26.77999525166031
 11
20.04081208140756
 21
26.8351846326727
 97
        0
 75
     0
 76
     1
 52
0.0
 41
0.2
 77
     0
 78
     2
 53
45.0
 43
0.0
 44
0.0
 45
-0.0530330085889911
 46
0.0530330085889911
 79
     0
 53
45.0
 43
0.035355339
 44
0.0
 45
-0.0530330085889911
 46
0.0530330085889911
 79
     0
 98
        1
 10
0.0
 20
0.0
  0
HATCH
  5
136
330
108
100
AcDbEntity
  8
BLOCKS
 62
    16
100
AcDbHatch
 10
0.0
 20
0.0
 30
0.0
210
0.0
220
0.0
230
1.0
  2
ANSI32
 70
     0
 71
     0
 91
        1
 92
        0
 93
        4
 72
     1
 10
20.07973897339712
 20
26.4845031617958
 11
20.00284710159458
 21
26.48862134888004
 72
     1
 10
20.00284710159458
 20
26.48862134888004
 11
20.00284710159458
 21
26.43332048887584
 72
     1
 10
20.00284710159458
 20
26.43332048887584
 11
20.07973897339712
 21
26.42884530909641
 72
     1
 10
20.07973897339712
 20
26.42884530909641
 11
20.07973897339712
 21
26.4845031617958
 97
        0
 75
     0
 76
     1
 52
0.0
 41
0.2
 77
     0
 78
     2
 53
45.0
 43
0.0
 44
0.0
 45
-0.0530330085889911
 46
0.0530330085889911
 79
     0
 53
45.0
 43
0.035355339
 44
0.0
 45
-0.0530330085889911
 46
0.0530330085889911
 79
     0
 98
        1
 10
0.0
 20
0.0
  0
HATCH
  5
137
330
108
100
AcDbEntity
  8
BLOCKS
 62
    16
100
AcDbHatch
 10
0.0
 20
0.0
 30
0.0
210
0.0
220
0.0
230
1.0
  2
ANSI32
 70
     0
 71
     0
 91
        1
 92
        0
 93
        4
 72
     1
 10
20.00284710159458
 20
26.43006701346352
 11
19.94007202325873
 21
26.43372058249019
 72
     1
 10
19.94007202325873
 20
26.43372058249019
 11
19.93820220952023
 21
26.40159372159039
 72
     1
 10
19.93820220952023
 20
26.40159372159039
 11
20.00284710159458
 21
26.39783132763285
 72
     1
 10
20.00284710159458
 20
26.39783132763285
 11
20.00284710159458
 21
26.43006701346352
 97
        0
 75
     0
 76
     1
 52
0.0
 41
0.2
 77
     0
 78
     2
 53
45.0
 43
0.0
 44
0.0
 45
-0.0530330085889911
 46
0.0530330085889911
 79
     0
 53
45.0
 43
0.035355339
 44
0.0
 45
-0.0530330085889911
 46
0.0530330085889911
 79
     0
 98
        1
 10
0.0
 20
0.0
  0
HATCH
  5
138
330
108
100
AcDbEntity
  8
BLOCKS
 62
    16
100
AcDbHatch
 10
0.0
 20
0.0
 30
0.0
210
0.0
220
0.0
230
1.0
  2
ANSI32
 70
     0
 71
     0
 91
        1
 92
        0
 93
        4
 72
     1
 10
20.07973897339712
 20
26.42559183368408
 11
20.00284710159458
 21
26.43006701346352
 72
     1
 10
20.00284710159458
 20
26.43006701346352
 11
20.00284710159458
 21
26.39783132763285
 72
     1
 10
20.00284710159458
 20
26.39783132763285
 11
20.07973897339712
 21
26.39335614785342
 72
     1
 10
20.07973897339712
 20
26.39335614785342
 11
20.07973897339712
 21
26.42559183368408
 97
        0
 75
     0
 76
     1
 52
0.0
 41
0.2
 77
     0
 78
     2
 53
45.0
 43
0.0
 44
0.0
 45
-0.0530330085889911
 46
0.0530330085889911
 79
     0
 53
45.0
 43
0.035355339
 44
0.0
 45
-0.0530330085889911
 46
0.0530330085889911
 79
     0
 98
        1
 10
0.0
 20
0.0
  0
HATCH
  5
139
330
108
100
AcDbEntity
  8
BLOCKS
 62
    16
100
AcDbHatch
 10
0.0
 20
0.0
 30
0.0
210
0.0
220
0.0
230
1.0
  2
ANSI32
 70
     0
 71
     0
 91
        1
 92
        0
 93
        4
 72
     1
 10
20.07973897339712
 20
26.39335614785342
 11
20.15061820105523
 21
26.38923090965904
 72
     1
 10
20.15061820105523
 20
26.38923090965904
 11
20.15248801479373
 21
26.42135777055884
 72
     1
 10
20.15248801479373
 20
26.42135777055884
 11
20.07973897339712
 21
26.42559183368408
 72
     1
 10
20.07973897339712
 20
26.42559183368408
 11
20.07973897339712
 21
26.39335614785342
 97
        0
 75
     0
 76
     1
 52
0.0
 41
0.2
 77
     0
 78
     2
 53
45.0
 43
0.0
 44
0.0
 45
-0.0530330085889911
 46
0.0530330085889911
 79
     0
 53
45.0
 43
0.035355339
 44
0.0
 45
-0.0530330085889911
 46
0.0530330085889911
 79
     0
 98
        1
 10
0.0
 20
0.0
  0
HATCH
  5
13A
330
108
100
AcDbEntity
  8
BLOCKS
 62
    16
100
AcDbHatch
 10
0.0
 20
0.0
 30
0.0
210
0.0
220
0.0
230
1.0
  2
ANSI32
 70
     0
 71
     0
 91
        1
 92
        0
 93
        4
 72
     1
 10
20.00284710159458
 20
26.38969551511265
 11
19.95807548170848
 21
26.38969551511265
 72
     2
 10
20.04035770827806
 20
26.42125149432493
 40
0.0881257319589163
 50
200.9822712637957
 51
339.0177287362059
 73
     1
 72
     1
 10
20.12263993484765
 20
26.38969551511265
 11
20.07973897339712
 21
26.38969551511265
 72
     1
 10
20.07973897339712
 20
26.38969551511265
 11
20.00284710159458
 21
26.38969551511265
 97
        0
 75
     0
 76
     1
 52
0.0
 41
0.2
 77
     0
 78
     2
 53
45.0
 43
0.0
 44
0.0
 45
-0.0530330085889911
 46
0.0530330085889911
 79
     0
 53
45.0
 43
0.035355339
 44
0.0
 45
-0.0530330085889911
 46
0.0530330085889911
 79
     0
 98
        1
 10
0.0
 20
0.0
  0
HATCH
  5
13B
330
108
100
AcDbEntity
  8
0
  6
Continuous
 62
    16
100
AcDbHatch
 10
0.0
 20
0.0
 30
0.0
210
0.0
220
0.0
230
1.0
  2
ANSI36
 70
     0
 71
     0
 91
        1
 92
        0
 93
        9
 72
     2
 10
20.89973907216103
 20
26.9140495115044
 40
0.0659795528056695
 50
270.0000000000008
 51
360.0000000000008
 73
     0
 72
     1
 10
20.9657186249667
 20
26.9140495115044
 11
20.9657186249667
 21
26.58484538338648
 72
     1
 10
20.9657186249667
 20
26.58484538338648
 11
20.10334290092126
 21
26.58484538338648
 72
     1
 10
20.10334290092126
 20
26.58484538338648
 11
20.10334290092126
 21
26.86520762058046
 72
     1
 10
20.10334290092126
 20
26.86520762058046
 11
19.98147745321076
 21
26.86520762058046
 72
     1
 10
19.98147745321076
 20
26.86520762058046
 11
19.98147745321076
 21
26.58484538338648
 72
     1
 10
19.98147745321076
 20
26.58484538338648
 11
19.27434969107827
 21
26.58484538338648
 72
     4
 94
        3
 73
     1
 74
     0
 95
        8
 96
        4
 40
0.0
 40
0.0
 40
0.0
 40
0.0
 40
1.0
 40
1.0
 40
1.0
 40
1.0
 10
19.27434969107827
 20
26.58484538338648
 42
1.0
 10
19.11947833134008
 20
26.72443452904972
 42
1.0
 10
19.40755868602182
 20
26.86177152370009
 42
1.0
 10
19.24466603742839
 20
26.98002906431008
 42
1.0
 72
     1
 10
19.24466603742839
 20
26.98002906431008
 11
20.89973907216103
 21
26.98002906431007
 97
        0
 75
     0
 76
     1
 52
90.0
 41
0.5
 77
     0
 78
     1
 53
135.0000000000002
 43
0.0
 44
0.0
 45
-0.121533978016438
 46
0.033145630368119
 79
     4
 49
0.15625
 49
-0.03125
 49
0.0
 49
-0.03125
 98
        1
 10
0.0
 20
0.0
  0
ENDBLK
  5
10A
330
108
100
AcDbEntity
  8
0
100
AcDbBlockEnd
  0
BLOCK
  5
167
330
166
100
AcDbEntity
  8
0
100
AcDbBlockBegin
  2
_D
 70
     0
 10
0.0
 20
0.0
 30
0.0
  3
_D
  1

  0
SOLID
  5
169
330
166
100
AcDbEntity
  8
DIM
100
AcDbTrace
 10
27.4652621751
 20
20.1423532429
 30
0.0
 11
27.4217049836
 21
19.8592314981
 31
0.0
 12
27.5088193667
 22
19.8592314981
 32
0.0
 13
27.5088193667
 23
19.8592314981
 33
0.0
  0
SOLID
  5
16A
330
166
100
AcDbEntity
  8
DIM
100
AcDbTrace
 10
27.4652621751
 20
1.1423532429
 30
0.0
 11
27.5088193667
 21
1.4254749877
 31
0.0
 12
27.4217049836
 22
1.4254749877
 32
0.0
 13
27.4217049836
 23
1.4254749877
 33
0.0
  0
LINE
  5
16B
330
166
100
AcDbEntity
  8
DIM
100
AcDbLine
 10
27.2337806842
 20
12.2223714197
 30
0.0
 11
27.1643362406
 21
12.2223714197
 31
0.0
  0
LINE
  5
16C
330
166
100
AcDbEntity
  8
DIM
100
AcDbLine
 10
27.1643362406
 20
12.2223714197
 30
0.0
 11
27.1643362406
 21
11.9118004207
 31
0.0
  0
LINE
  5
16D
330
166
100
AcDbEntity
  8
DIM
100
AcDbLine
 10
27.1643362406
 20
11.9118004207
 30
0.0
 11
27.2337806842
 21
11.9118004207
 31
0.0
  0
LINE
  5
16E
330
166
100
AcDbEntity
  8
DIM
100
AcDbLine
 10
27.6967436661
 20
12.2223714197
 30
0.0
 11
27.7661881097
 21
12.2223714197
 31
0.0
  0
LINE
  5
16F
330
166
100
AcDbEntity
  8
DIM
100
AcDbLine
 10
27.7661881097
 20
12.2223714197
 30
0.0
 11
27.7661881097
 21
11.9118004207
 31
0.0
  0
LINE
  5
170
330
166
100
AcDbEntity
  8
DIM
100
AcDbLine
 10
27.7661881097
 20
11.9118004207
 30
0.0
 11
27.6967436661
 21
11.9118004207
 31
0.0
  0
LINE
  5
171
330
166
100
AcDbEntity
  8
DIM
100
AcDbLine
 10
27.4652621751
 20
20.1423532429
 30
0.0
 11
27.4652621751
 21
12.5464454959
 31
0.0
  0
LINE
  5
172
330
166
100
AcDbEntity
  8
DIM
100
AcDbLine
 10
27.4652621751
 20
1.1423532429
 30
0.0
 11
27.4652621751
 21
11.8655040822
 31
0.0
  0
MTEXT
  5
173
330
166
100
AcDbEntity
  8
DIM
100
AcDbMText
 10
27.2615584617
 20
12.537223496
 30
0.0
 40
0.2083333333
 41
0.0
 71
     1
 72
     1
  1
19"
  7
SLDTEXTSTYLE0
 73
     1
 44
1.0
  0
MTEXT
  5
174
330
166
100
AcDbEntity
  8
DIM
100
AcDbMText
 10
27.2337806842
 20
12.1803562136
 30
0.0
 40
0.2083333333
 41
0.0
 71
     1
 72
     1
  1
483
  7
SLDTEXTSTYLE0
 73
     1
 44
1.0
  0
ENDBLK
  5
168
330
166
100
AcDbEntity
  8
0
100
AcDbBlockEnd
  0
BLOCK
  5
177
330
176
100
AcDbEntity
  8
0
100
AcDbBlockBegin
  2
_D_1
 70
     0
 10
0.0
 20
0.0
 30
0.0
  3
_D_1
  1

  0
SOLID
  5
179
330
176
100
AcDbEntity
  8
DIM
100
AcDbTrace
 10
26.4946271467
 20
1.6423532429
 30
0.0
 11
26.5381843382
 21
1.9254749877
 31
0.0
 12
26.4510699552
 22
1.9254749877
 32
0.0
 13
26.4510699552
 23
1.9254749877
 33
0.0
  0
SOLID
  5
17A
330
176
100
AcDbEntity
  8
DIM
100
AcDbTrace
 10
26.4946271467
 20
19.6423532429
 30
0.0
 11
26.4510699552
 21
19.3592314981
 31
0.0
 12
26.5381843382
 22
19.3592314981
 32
0.0
 13
26.5381843382
 23
19.3592314981
 33
0.0
  0
LINE
  5
17B
330
176
100
AcDbEntity
  8
DIM
100
AcDbLine
 10
26.2631456558
 20
10.6528175913
 30
0.0
 11
26.1937012122
 21
10.6528175913
 31
0.0
  0
LINE
  5
17C
330
176
100
AcDbEntity
  8
DIM
100
AcDbLine
 10
26.1937012122
 20
10.6528175913
 30
0.0
 11
26.1937012122
 21
10.3422465924
 31
0.0
  0
LINE
  5
17D
330
176
100
AcDbEntity
  8
DIM
100
AcDbLine
 10
26.1937012122
 20
10.3422465924
 30
0.0
 11
26.2631456558
 21
10.3422465924
 31
0.0
  0
LINE
  5
17E
330
176
100
AcDbEntity
  8
DIM
100
AcDbLine
 10
26.7261086376
 20
10.6528175913
 30
0.0
 11
26.7955530812
 21
10.6528175913
 31
0.0
  0
LINE
  5
17F
330
176
100
AcDbEntity
  8
DIM
100
AcDbLine
 10
26.7955530812
 20
10.6528175913
 30
0.0
 11
26.7955530812
 21
10.3422465924
 31
0.0
  0
LINE
  5
180
330
176
100
AcDbEntity
  8
DIM
100
AcDbLine
 10
26.7955530812
 20
10.3422465924
 30
0.0
 11
26.7261086376
 21
10.3422465924
 31
0.0
  0
LINE
  5
181
330
176
100
AcDbEntity
  8
DIM
100
AcDbLine
 10
26.4946271467
 20
1.6423532429
 30
0.0
 11
26.4946271467
 21
10.2959502538
 31
0.0
  0
LINE
  5
182
330
176
100
AcDbEntity
  8
DIM
100
AcDbLine
 10
26.4946271467
 20
19.6423532429
 30
0.0
 11
26.4946271467
 21
10.9768916675
 31
0.0
  0
MTEXT
  5
183
330
176
100
AcDbEntity
  8
DIM
100
AcDbMText
 10
26.2909234333
 20
10.9676696677
 30
0.0
 40
0.2083333333
 41
0.0
 71
     1
 72
     1
  1
18"
  7
SLDTEXTSTYLE0
 73
     1
 44
1.0
  0
MTEXT
  5
184
330
176
100
AcDbEntity
  8
DIM
100
AcDbMText
 10
26.2631456558
 20
10.6108023852
 30
0.0
 40
0.2083333333
 41
0.0
 71
     1
 72
     1
  1
457
  7
SLDTEXTSTYLE0
 73
     1
 44
1.0
  0
ENDBLK
  5
178
330
176
100
AcDbEntity
  8
0
100
AcDbBlockEnd
  0
BLOCK
  5
188
330
187
100
AcDbEntity
  8
0
100
AcDbBlockBegin
  2
_D_2
 70
     0
 10
0.0
 20
0.0
 30
0.0
  3
_D_2
  1

  0
SOLID
  5
18A
330
187
100
AcDbEntity
  8
DIM
100
AcDbTrace
 10
25.5916543807
 20
19.5173532429
 30
0.0
 11
25.5480971892
 21
19.2342314981
 31
0.0
 12
25.6352115722
 22
19.2342314981
 32
0.0
 13
25.6352115722
 23
19.2342314981
 33
0.0
  0
SOLID
  5
18B
330
187
100
AcDbEntity
  8
DIM
100
AcDbTrace
 10
25.5916543807
 20
1.7673532429
 30
0.0
 11
25.6352115722
 21
2.0504749877
 31
0.0
 12
25.5480971892
 22
2.0504749877
 32
0.0
 13
25.5480971892
 23
2.0504749877
 33
0.0
  0
LINE
  5
18C
330
187
100
AcDbEntity
  8
DIM
100
AcDbLine
 10
25.5899182891
 20
9.0275163748
 30
0.0
 11
25.8032670578
 21
9.0275163748
 31
0.0
  0
LINE
  5
18D
330
187
100
AcDbEntity
  8
DIM
100
AcDbLine
 10
25.3601728898
 20
8.6798311767
 30
0.0
 11
25.2907284462
 21
8.6798311767
 31
0.0
  0
LINE
  5
18E
330
187
100
AcDbEntity
  8
DIM
100
AcDbLine
 10
25.2907284462
 20
8.6798311767
 30
0.0
 11
25.2907284462
 21
8.3692601778
 31
0.0
  0
LINE
  5
18F
330
187
100
AcDbEntity
  8
DIM
100
AcDbLine
 10
25.2907284462
 20
8.3692601778
 30
0.0
 11
25.3601728898
 21
8.3692601778
 31
0.0
  0
LINE
  5
190
330
187
100
AcDbEntity
  8
DIM
100
AcDbLine
 10
25.8231358716
 20
8.6798311767
 30
0.0
 11
25.8925803152
 21
8.6798311767
 31
0.0
  0
LINE
  5
191
330
187
100
AcDbEntity
  8
DIM
100
AcDbLine
 10
25.8925803152
 20
8.6798311767
 30
0.0
 11
25.8925803152
 21
8.3692601778
 31
0.0
  0
LINE
  5
192
330
187
100
AcDbEntity
  8
DIM
100
AcDbLine
 10
25.8925803152
 20
8.3692601778
 30
0.0
 11
25.8231358716
 21
8.3692601778
 31
0.0
  0
LINE
  5
193
330
187
100
AcDbEntity
  8
DIM
100
AcDbLine
 10
25.5916543807
 20
19.5173532429
 30
0.0
 11
25.5916543807
 21
9.2875858159
 31
0.0
  0
LINE
  5
194
330
187
100
AcDbEntity
  8
DIM
100
AcDbLine
 10
25.5916543807
 20
1.7673532429
 30
0.0
 11
25.5916543807
 21
8.3229638393
 31
0.0
  0
MTEXT
  5
195
330
187
100
AcDbEntity
  8
DIM
100
AcDbMText
 10
25.2517624139
 20
9.1364318689
 30
0.0
 40
0.2083333333
 41
0.0
 71
     1
 72
     1
  1
17
  7
SLDTEXTSTYLE0
 73
     1
 44
1.0
  0
MTEXT
  5
196
330
187
100
AcDbEntity
  8
DIM
100
AcDbMText
 10
25.6194321765
 20
9.278363816
 30
0.0
 40
0.2083333333
 41
0.0
 71
     1
 72
     1
  1
3
  7
SLDTEXTSTYLE0
 73
     1
 44
1.0
  0
MTEXT
  5
197
330
187
100
AcDbEntity
  8
DIM
100
AcDbMText
 10
25.6194321765
 20
8.994683264
 30
0.0
 40
0.2083333333
 41
0.0
 71
     1
 72
     1
  1
4
  7
SLDTEXTSTYLE0
 73
     1
 44
1.0
  0
MTEXT
  5
198
330
187
100
AcDbEntity
  8
DIM
100
AcDbMText
 10
25.8327809452
 20
9.1364318689
 30
0.0
 40
0.2083333333
 41
0.0
 71
     1
 72
     1
  1
"
  7
SLDTEXTSTYLE0
 73
     1
 44
1.0
  0
MTEXT
  5
199
330
187
100
AcDbEntity
  8
DIM
100
AcDbMText
 10
25.3601728898
 20
8.6378159707
 30
0.0
 40
0.2083333333
 41
0.0
 71
     1
 72
     1
  1
451
  7
SLDTEXTSTYLE0
 73
     1
 44
1.0
  0
ENDBLK
  5
189
330
187
100
AcDbEntity
  8
0
100
AcDbBlockEnd
  0
BLOCK
  5
19D
330
19C
100
AcDbEntity
  8
0
100
AcDbBlockBegin
  2
_D_3
 70
     0
 10
0.0
 20
0.0
 30
0.0
  3
_D_3
  1

  0
SOLID
  5
19F
330
19C
100
AcDbEntity
  8
DIM
100
AcDbTrace
 10
30.418632988
 20
1.9504115047
 30
0.0
 11
30.2492352678
 21
2.1814083958
 31
0.0
 12
30.1876360969
 22
2.1198092248
 32
0.0
 13
30.1876360969
 23
2.1198092248
 33
0.0
  0
LINE
  5
1A0
330
19C
100
AcDbEntity
  8
DIM
100
AcDbLine
 10
28.8899565864
 20
3.1023711164
 30
0.0
 11
29.1033053551
 21
3.1023711164
 31
0.0
  0
LINE
  5
1A1
330
19C
100
AcDbEntity
  8
DIM
100
AcDbLine
 10
28.7913840484
 20
2.7546859183
 30
0.0
 11
28.7219396048
 21
2.7546859183
 31
0.0
  0
LINE
  5
1A2
330
19C
100
AcDbEntity
  8
DIM
100
AcDbLine
 10
28.7219396048
 20
2.7546859183
 30
0.0
 11
28.7219396048
 21
2.4441149194
 31
0.0
  0
LINE
  5
1A3
330
19C
100
AcDbEntity
  8
DIM
100
AcDbLine
 10
28.7219396048
 20
2.4441149194
 30
0.0
 11
28.7913840484
 21
2.4441149194
 31
0.0
  0
LINE
  5
1A4
330
19C
100
AcDbEntity
  8
DIM
100
AcDbLine
 10
29.1000260363
 20
2.7546859183
 30
0.0
 11
29.1694704799
 21
2.7546859183
 31
0.0
  0
LINE
  5
1A5
330
19C
100
AcDbEntity
  8
DIM
100
AcDbLine
 10
29.1694704799
 20
2.7546859183
 30
0.0
 11
29.1694704799
 21
2.4441149194
 31
0.0
  0
LINE
  5
1A6
330
19C
100
AcDbEntity
  8
DIM
100
AcDbLine
 10
29.1694704799
 20
2.4441149194
 30
0.0
 11
29.1000260363
 21
2.4441149194
 31
0.0
  0
LINE
  5
1A7
330
19C
100
AcDbEntity
  8
DIM
100
AcDbLine
 10
30.418632988
 20
1.9504115047
 30
0.0
 11
29.4889149235
 21
2.8801295692
 31
0.0
  0
LINE
  5
1A8
330
19C
100
AcDbEntity
  8
DIM
100
AcDbLine
 10
29.4889149235
 20
2.8801295692
 30
0.0
 11
29.2389149235
 21
2.8801295692
 31
0.0
  0
MTEXT
  5
1A9
330
19C
100
AcDbEntity
  8
DIM
100
AcDbMText
 10
28.6598254215
 20
3.2112866105
 30
0.0
 40
0.2083333333
 41
0.0
 71
     1
 72
     1
  1
R
  7
SLDTEXTSTYLE0
 73
     1
 44
1.0
  0
MTEXT
  5
1AA
330
19C
100
AcDbEntity
  8
DIM
100
AcDbMText
 10
28.9194704737
 20
3.3532185576
 30
0.0
 40
0.2083333333
 41
0.0
 71
     1
 72
     1
  1
5
  7
SLDTEXTSTYLE0
 73
     1
 44
1.0
  0
MTEXT
  5
1AB
330
19C
100
AcDbEntity
  8
DIM
100
AcDbMText
 10
28.9194704737
 20
3.0695380056
 30
0.0
 40
0.2083333333
 41
0.0
 71
     1
 72
     1
  1
8
  7
SLDTEXTSTYLE0
 73
     1
 44
1.0
  0
MTEXT
  5
1AC
330
19C
100
AcDbEntity
  8
DIM
100
AcDbMText
 10
29.1328192241
 20
3.2112866105
 30
0.0
 40
0.2083333333
 41
0.0
 71
     1
 72
     1
  1
"
  7
SLDTEXTSTYLE0
 73
     1
 44
1.0
  0
MTEXT
  5
1AD
330
19C
100
AcDbEntity
  8
DIM
100
AcDbMText
 10
28.7913840484
 20
2.7126707122
 30
0.0
 40
0.2083333333
 41
0.0
 71
     1
 72
     1
  1
16
  7
SLDTEXTSTYLE0
 73
     1
 44
1.0
  0
ENDBLK
  5
19E
330
19C
100
AcDbEntity
  8
0
100
AcDbBlockEnd
  0
BLOCK
  5
1B0
330
1AF
100
AcDbEntity
  8
0
100
AcDbBlockBegin
  2
_D_4
 70
     0
 10
0.0
 20
0.0
 30
0.0
  3
_D_4
  1

  0
SOLID
  5
1B2
330
1AF
100
AcDbEntity
  8
DIM
100
AcDbTrace
 10
30.8605747262
 20
19.7762367194
 30
0.0
 11
30.6295778351
 21
19.6068389992
 31
0.0
 12
30.6911770061
 22
19.5452398283
 32
0.0
 13
30.6911770061
 23
19.5452398283
 33
0.0
  0
LINE
  5
1B3
330
1AF
100
AcDbEntity
  8
DIM
100
AcDbLine
 10
28.4928053029
 20
18.2223369751
 30
0.0
 11
28.7061540716
 21
18.2223369751
 31
0.0
  0
LINE
  5
1B4
330
1AF
100
AcDbEntity
  8
DIM
100
AcDbLine
 10
28.3170723047
 20
17.874651777
 30
0.0
 11
28.247627861
 21
17.874651777
 31
0.0
  0
LINE
  5
1B5
330
1AF
100
AcDbEntity
  8
DIM
100
AcDbLine
 10
28.247627861
 20
17.874651777
 30
0.0
 11
28.247627861
 21
17.5640807781
 31
0.0
  0
LINE
  5
1B6
330
1AF
100
AcDbEntity
  8
DIM
100
AcDbLine
 10
28.247627861
 20
17.5640807781
 30
0.0
 11
28.3170723047
 21
17.5640807781
 31
0.0
  0
LINE
  5
1B7
330
1AF
100
AcDbEntity
  8
DIM
100
AcDbLine
 10
28.6257142925
 20
17.874651777
 30
0.0
 11
28.6951587361
 21
17.874651777
 31
0.0
  0
LINE
  5
1B8
330
1AF
100
AcDbEntity
  8
DIM
100
AcDbLine
 10
28.6951587361
 20
17.874651777
 30
0.0
 11
28.6951587361
 21
17.5640807781
 31
0.0
  0
LINE
  5
1B9
330
1AF
100
AcDbEntity
  8
DIM
100
AcDbLine
 10
28.6951587361
 20
17.5640807781
 30
0.0
 11
28.6257142925
 21
17.5640807781
 31
0.0
  0
LINE
  5
1BA
330
1AF
100
AcDbEntity
  8
DIM
100
AcDbLine
 10
30.8605747262
 20
19.7762367194
 30
0.0
 11
29.0844334347
 21
18.0000954279
 31
0.0
  0
LINE
  5
1BB
330
1AF
100
AcDbEntity
  8
DIM
100
AcDbLine
 10
29.0844334347
 20
18.0000954279
 30
0.0
 11
28.8344334347
 21
18.0000954279
 31
0.0
  0
MTEXT
  5
1BC
330
1AF
100
AcDbEntity
  8
DIM
100
AcDbMText
 10
28.1083531625
 20
18.3312524693
 30
0.0
 40
0.2083333333
 41
0.0
 71
     1
 72
     1
  1
R1
  7
SLDTEXTSTYLE0
 73
     1
 44
1.0
  0
MTEXT
  5
1BD
330
1AF
100
AcDbEntity
  8
DIM
100
AcDbMText
 10
28.5223191903
 20
18.4731844163
 30
0.0
 40
0.2083333333
 41
0.0
 71
     1
 72
     1
  1
1
  7
SLDTEXTSTYLE0
 73
     1
 44
1.0
  0
MTEXT
  5
1BE
330
1AF
100
AcDbEntity
  8
DIM
100
AcDbMText
 10
28.5223191903
 20
18.1895038643
 30
0.0
 40
0.2083333333
 41
0.0
 71
     1
 72
     1
  1
4
  7
SLDTEXTSTYLE0
 73
     1
 44
1.0
  0
MTEXT
  5
1BF
330
1AF
100
AcDbEntity
  8
DIM
100
AcDbMText
 10
28.7356679957
 20
18.3312524693
 30
0.0
 40
0.2083333333
 41
0.0
 71
     1
 72
     1
  1
"
  7
SLDTEXTSTYLE0
 73
     1
 44
1.0
  0
MTEXT
  5
1C0
330
1AF
100
AcDbEntity
  8
DIM
100
AcDbMText
 10
28.3170723047
 20
17.832636571
 30
0.0
 40
0.2083333333
 41
0.0
 71
     1
 72
     1
  1
32
  7
SLDTEXTSTYLE0
 73
     1
 44
1.0
  0
ENDBLK
  5
1B1
330
1AF
100
AcDbEntity
  8
0
100
AcDbBlockEnd
  0
BLOCK
  5
1C3
330
1C2
100
AcDbEntity
  8
0
100
AcDbBlockBegin
  2
_D_5
 70
     0
 10
0.0
 20
0.0
 30
0.0
  3
_D_5
  1

  0
SOLID
  5
1C5
330
1C2
100
AcDbEntity
  8
DIM
100
AcDbTrace
 10
9.8867487744
 20
18.1423532429
 30
0.0
 11
9.8431915829
 21
17.8592314981
 31
0.0
 12
9.9303059659
 22
17.8592314981
 32
0.0
 13
9.9303059659
 23
17.8592314981
 33
0.0
  0
SOLID
  5
1C6
330
1C2
100
AcDbEntity
  8
DIM
100
AcDbTrace
 10
9.8867487744
 20
1.1423532429
 30
0.0
 11
9.9303059659
 21
1.4254749877
 31
0.0
 12
9.8431915829
 22
1.4254749877
 32
0.0
 13
9.8431915829
 23
1.4254749877
 33
0.0
  0
LINE
  5
1C7
330
1C2
100
AcDbEntity
  8
DIM
100
AcDbLine
 10
9.6552672835
 20
9.6064483724
 30
0.0
 11
9.5858228399
 21
9.6064483724
 31
0.0
  0
LINE
  5
1C8
330
1C2
100
AcDbEntity
  8
DIM
100
AcDbLine
 10
9.5858228399
 20
9.6064483724
 30
0.0
 11
9.5858228399
 21
9.2958773734
 31
0.0
  0
LINE
  5
1C9
330
1C2
100
AcDbEntity
  8
DIM
100
AcDbLine
 10
9.5858228399
 20
9.2958773734
 30
0.0
 11
9.6552672835
 21
9.2958773734
 31
0.0
  0
LINE
  5
1CA
330
1C2
100
AcDbEntity
  8
DIM
100
AcDbLine
 10
10.1182302653
 20
9.6064483724
 30
0.0
 11
10.1876747089
 21
9.6064483724
 31
0.0
  0
LINE
  5
1CB
330
1C2
100
AcDbEntity
  8
DIM
100
AcDbLine
 10
10.1876747089
 20
9.6064483724
 30
0.0
 11
10.1876747089
 21
9.2958773734
 31
0.0
  0
LINE
  5
1CC
330
1C2
100
AcDbEntity
  8
DIM
100
AcDbLine
 10
10.1876747089
 20
9.2958773734
 30
0.0
 11
10.1182302653
 21
9.2958773734
 31
0.0
  0
LINE
  5
1CD
330
1C2
100
AcDbEntity
  8
DIM
100
AcDbLine
 10
9.8867487744
 20
18.1423532429
 30
0.0
 11
9.8867487744
 21
9.9305224486
 31
0.0
  0
LINE
  5
1CE
330
1C2
100
AcDbEntity
  8
DIM
100
AcDbLine
 10
9.8867487744
 20
1.1423532429
 30
0.0
 11
9.8867487744
 21
9.2495810349
 31
0.0
  0
MTEXT
  5
1CF
330
1C2
100
AcDbEntity
  8
DIM
100
AcDbMText
 10
9.6830450609
 20
9.9213004487
 30
0.0
 40
0.2083333333
 41
0.0
 71
     1
 72
     1
  1
17"
  7
SLDTEXTSTYLE0
 73
     1
 44
1.0
  0
MTEXT
  5
1D0
330
1C2
100
AcDbEntity
  8
DIM
100
AcDbMText
 10
9.6552672835
 20
9.5644331663
 30
0.0
 40
0.2083333333
 41
0.0
 71
     1
 72
     1
  1
432
  7
SLDTEXTSTYLE0
 73
     1
 44
1.0
  0
ENDBLK
  5
1C4
330
1C2
100
AcDbEntity
  8
0
100
AcDbBlockEnd
  0
BLOCK
  5
1D3
330
1D2
100
AcDbEntity
  8
0
100
AcDbBlockBegin
  2
_D_6
 70
     0
 10
0.0
 20
0.0
 30
0.0
  3
_D_6
  1

  0
SOLID
  5
1D5
330
1D2
100
AcDbEntity
  8
DIM
100
AcDbTrace
 10
9.1406588645
 20
17.6423532429
 30
0.0
 11
9.097101673
 21
17.3592314981
 31
0.0
 12
9.184216056
 22
17.3592314981
 32
0.0
 13
9.184216056
 23
17.3592314981
 33
0.0
  0
SOLID
  5
1D6
330
1D2
100
AcDbEntity
  8
DIM
100
AcDbTrace
 10
9.1406588645
 20
1.6423532429
 30
0.0
 11
9.184216056
 21
1.9254749877
 31
0.0
 12
9.097101673
 22
1.9254749877
 32
0.0
 13
9.097101673
 23
1.9254749877
 33
0.0
  0
LINE
  5
1D7
330
1D2
100
AcDbEntity
  8
DIM
100
AcDbLine
 10
8.9091773736
 20
10.3912252865
 30
0.0
 11
8.83973293
 21
10.3912252865
 31
0.0
  0
LINE
  5
1D8
330
1D2
100
AcDbEntity
  8
DIM
100
AcDbLine
 10
8.83973293
 20
10.3912252865
 30
0.0
 11
8.83973293
 21
10.0806542876
 31
0.0
  0
LINE
  5
1D9
330
1D2
100
AcDbEntity
  8
DIM
100
AcDbLine
 10
8.83973293
 20
10.0806542876
 30
0.0
 11
8.9091773736
 21
10.0806542876
 31
0.0
  0
LINE
  5
1DA
330
1D2
100
AcDbEntity
  8
DIM
100
AcDbLine
 10
9.3721403554
 20
10.3912252865
 30
0.0
 11
9.441584799
 21
10.3912252865
 31
0.0
  0
LINE
  5
1DB
330
1D2
100
AcDbEntity
  8
DIM
100
AcDbLine
 10
9.441584799
 20
10.3912252865
 30
0.0
 11
9.441584799
 21
10.0806542876
 31
0.0
  0
LINE
  5
1DC
330
1D2
100
AcDbEntity
  8
DIM
100
AcDbLine
 10
9.441584799
 20
10.0806542876
 30
0.0
 11
9.3721403554
 21
10.0806542876
 31
0.0
  0
LINE
  5
1DD
330
1D2
100
AcDbEntity
  8
DIM
100
AcDbLine
 10
9.1406588645
 20
17.6423532429
 30
0.0
 11
9.1406588645
 21
10.7152993628
 31
0.0
  0
LINE
  5
1DE
330
1D2
100
AcDbEntity
  8
DIM
100
AcDbLine
 10
9.1406588645
 20
1.6423532429
 30
0.0
 11
9.1406588645
 21
10.0343579491
 31
0.0
  0
MTEXT
  5
1DF
330
1D2
100
AcDbEntity
  8
DIM
100
AcDbMText
 10
8.9369551511
 20
10.7060773629
 30
0.0
 40
0.2083333333
 41
0.0
 71
     1
 72
     1
  1
16"
  7
SLDTEXTSTYLE0
 73
     1
 44
1.0
  0
MTEXT
  5
1E0
330
1D2
100
AcDbEntity
  8
DIM
100
AcDbMText
 10
8.9091773736
 20
10.3492100805
 30
0.0
 40
0.2083333333
 41
0.0
 71
     1
 72
     1
  1
406
  7
SLDTEXTSTYLE0
 73
     1
 44
1.0
  0
ENDBLK
  5
1D4
330
1D2
100
AcDbEntity
  8
0
100
AcDbBlockEnd
  0
BLOCK
  5
1E3
330
1E2
100
AcDbEntity
  8
0
100
AcDbBlockBegin
  2
_D_7
 70
     0
 10
0.0
 20
0.0
 30
0.0
  3
_D_7
  1

  0
SOLID
  5
1E5
330
1E2
100
AcDbEntity
  8
DIM
100
AcDbTrace
 10
8.3944887927
 20
1.7673532429
 30
0.0
 11
8.4380459842
 21
2.0504749877
 31
0.0
 12
8.3509316012
 22
2.0504749877
 32
0.0
 13
8.3509316012
 23
2.0504749877
 33
0.0
  0
SOLID
  5
1E6
330
1E2
100
AcDbEntity
  8
DIM
100
AcDbTrace
 10
8.3944887927
 20
17.5173532429
 30
0.0
 11
8.3509316012
 21
17.2342314981
 31
0.0
 12
8.4380459842
 22
17.2342314981
 32
0.0
 13
8.4380459842
 23
17.2342314981
 33
0.0
  0
LINE
  5
1E7
330
1E2
100
AcDbEntity
  8
DIM
100
AcDbLine
 10
8.3927527011
 20
11.7336296549
 30
0.0
 11
8.6061014698
 21
11.7336296549
 31
0.0
  0
LINE
  5
1E8
330
1E2
100
AcDbEntity
  8
DIM
100
AcDbLine
 10
8.1630073018
 20
11.3859444568
 30
0.0
 11
8.0935628582
 21
11.3859444568
 31
0.0
  0
LINE
  5
1E9
330
1E2
100
AcDbEntity
  8
DIM
100
AcDbLine
 10
8.0935628582
 20
11.3859444568
 30
0.0
 11
8.0935628582
 21
11.0753734579
 31
0.0
  0
LINE
  5
1EA
330
1E2
100
AcDbEntity
  8
DIM
100
AcDbLine
 10
8.0935628582
 20
11.0753734579
 30
0.0
 11
8.1630073018
 21
11.0753734579
 31
0.0
  0
LINE
  5
1EB
330
1E2
100
AcDbEntity
  8
DIM
100
AcDbLine
 10
8.6259702836
 20
11.3859444568
 30
0.0
 11
8.6954147272
 21
11.3859444568
 31
0.0
  0
LINE
  5
1EC
330
1E2
100
AcDbEntity
  8
DIM
100
AcDbLine
 10
8.6954147272
 20
11.3859444568
 30
0.0
 11
8.6954147272
 21
11.0753734579
 31
0.0
  0
LINE
  5
1ED
330
1E2
100
AcDbEntity
  8
DIM
100
AcDbLine
 10
8.6954147272
 20
11.0753734579
 30
0.0
 11
8.6259702836
 21
11.0753734579
 31
0.0
  0
LINE
  5
1EE
330
1E2
100
AcDbEntity
  8
DIM
100
AcDbLine
 10
8.3944887927
 20
1.7673532429
 30
0.0
 11
8.3944887927
 21
11.0290771194
 31
0.0
  0
LINE
  5
1EF
330
1E2
100
AcDbEntity
  8
DIM
100
AcDbLine
 10
8.3944887927
 20
17.5173532429
 30
0.0
 11
8.3944887927
 21
11.993699096
 31
0.0
  0
MTEXT
  5
1F0
330
1E2
100
AcDbEntity
  8
DIM
100
AcDbMText
 10
8.0545968259
 20
11.8425451491
 30
0.0
 40
0.2083333333
 41
0.0
 71
     1
 72
     1
  1
15
  7
SLDTEXTSTYLE0
 73
     1
 44
1.0
  0
MTEXT
  5
1F1
330
1E2
100
AcDbEntity
  8
DIM
100
AcDbMText
 10
8.4222665885
 20
11.9844770961
 30
0.0
 40
0.2083333333
 41
0.0
 71
     1
 72
     1
  1
3
  7
SLDTEXTSTYLE0
 73
     1
 44
1.0
  0
MTEXT
  5
1F2
330
1E2
100
AcDbEntity
  8
DIM
100
AcDbMText
 10
8.4222665885
 20
11.7007965441
 30
0.0
 40
0.2083333333
 41
0.0
 71
     1
 72
     1
  1
4
  7
SLDTEXTSTYLE0
 73
     1
 44
1.0
  0
MTEXT
  5
1F3
330
1E2
100
AcDbEntity
  8
DIM
100
AcDbMText
 10
8.6356153572
 20
11.8425451491
 30
0.0
 40
0.2083333333
 41
0.0
 71
     1
 72
     1
  1
"
  7
SLDTEXTSTYLE0
 73
     1
 44
1.0
  0
MTEXT
  5
1F4
330
1E2
100
AcDbEntity
  8
DIM
100
AcDbMText
 10
8.1630073018
 20
11.3439292508
 30
0.0
 40
0.2083333333
 41
0.0
 71
     1
 72
     1
  1
400
  7
SLDTEXTSTYLE0
 73
     1
 44
1.0
  0
ENDBLK
  5
1E4
330
1E2
100
AcDbEntity
  8
0
100
AcDbBlockEnd
  0
BLOCK
  5
1F7
330
1F6
100
AcDbEntity
  8
0
100
AcDbBlockBegin
  2
_D_8
 70
     0
 10
0.0
 20
0.0
 30
0.0
  3
_D_8
  1

  0
SOLID
  5
1F9
330
1F6
100
AcDbEntity
  8
DIM
100
AcDbTrace
 10
1.4766912497
 20
5.0359055081
 30
0.0
 11
1.7598129945
 21
4.9923483166
 31
0.0
 12
1.7598129945
 22
5.0794626996
 32
0.0
 13
1.7598129945
 23
5.0794626996
 33
0.0
  0
SOLID
  5
1FA
330
1F6
100
AcDbEntity
  8
DIM
100
AcDbTrace
 10
31.2266912497
 20
5.0359055081
 30
0.0
 11
30.9435695049
 21
5.0794626996
 31
0.0
 12
30.9435695049
 22
4.9923483166
 32
0.0
 13
30.9435695049
 23
4.9923483166
 33
0.0
  0
LINE
  5
1FB
330
1F6
100
AcDbEntity
  8
DIM
100
AcDbLine
 10
18.1688321736
 20
5.2581470554
 30
0.0
 11
18.3821809424
 21
5.2581470554
 31
0.0
  0
LINE
  5
1FC
330
1F6
100
AcDbEntity
  8
DIM
100
AcDbLine
 10
17.9390867744
 20
4.9104618573
 30
0.0
 11
17.8696423307
 21
4.9104618573
 31
0.0
  0
LINE
  5
1FD
330
1F6
100
AcDbEntity
  8
DIM
100
AcDbLine
 10
17.8696423307
 20
4.9104618573
 30
0.0
 11
17.8696423307
 21
4.5998908583
 31
0.0
  0
LINE
  5
1FE
330
1F6
100
AcDbEntity
  8
DIM
100
AcDbLine
 10
17.8696423307
 20
4.5998908583
 30
0.0
 11
17.9390867744
 21
4.5998908583
 31
0.0
  0
LINE
  5
1FF
330
1F6
100
AcDbEntity
  8
DIM
100
AcDbLine
 10
18.4020497562
 20
4.9104618573
 30
0.0
 11
18.4714941998
 21
4.9104618573
 31
0.0
  0
LINE
  5
200
330
1F6
100
AcDbEntity
  8
DIM
100
AcDbLine
 10
18.4714941998
 20
4.9104618573
 30
0.0
 11
18.4714941998
 21
4.5998908583
 31
0.0
  0
LINE
  5
201
330
1F6
100
AcDbEntity
  8
DIM
100
AcDbLine
 10
18.4714941998
 20
4.5998908583
 30
0.0
 11
18.4020497562
 21
4.5998908583
 31
0.0
  0
LINE
  5
202
330
1F6
100
AcDbEntity
  8
DIM
100
AcDbLine
 10
1.4766912497
 20
5.0359055081
 30
0.0
 11
17.7539068166
 21
5.0359055081
 31
0.0
  0
LINE
  5
203
330
1F6
100
AcDbEntity
  8
DIM
100
AcDbLine
 10
31.2266912497
 20
5.0359055081
 30
0.0
 11
18.5872297139
 21
5.0359055081
 31
0.0
  0
MTEXT
  5
204
330
1F6
100
AcDbEntity
  8
DIM
100
AcDbMText
 10
17.8306762984
 20
5.3670625495
 30
0.0
 40
0.2083333333
 41
0.0
 71
     1
 72
     1
  1
29
  7
SLDTEXTSTYLE0
 73
     1
 44
1.0
  0
MTEXT
  5
205
330
1F6
100
AcDbEntity
  8
DIM
100
AcDbMText
 10
18.198346061
 20
5.5089944966
 30
0.0
 40
0.2083333333
 41
0.0
 71
     1
 72
     1
  1
3
  7
SLDTEXTSTYLE0
 73
     1
 44
1.0
  0
MTEXT
  5
206
330
1F6
100
AcDbEntity
  8
DIM
100
AcDbMText
 10
18.198346061
 20
5.2253139445
 30
0.0
 40
0.2083333333
 41
0.0
 71
     1
 72
     1
  1
4
  7
SLDTEXTSTYLE0
 73
     1
 44
1.0
  0
MTEXT
  5
207
330
1F6
100
AcDbEntity
  8
DIM
100
AcDbMText
 10
18.4116948297
 20
5.3670625495
 30
0.0
 40
0.2083333333
 41
0.0
 71
     1
 72
     1
  1
"
  7
SLDTEXTSTYLE0
 73
     1
 44
1.0
  0
MTEXT
  5
208
330
1F6
100
AcDbEntity
  8
DIM
100
AcDbMText
 10
17.9390867744
 20
4.8684466512
 30
0.0
 40
0.2083333333
 41
0.0
 71
     1
 72
     1
  1
756
  7
SLDTEXTSTYLE0
 73
     1
 44
1.0
  0
ENDBLK
  5
1F8
330
1F6
100
AcDbEntity
  8
0
100
AcDbBlockEnd
  0
BLOCK
  5
20B
330
20A
100
AcDbEntity
  8
0
100
AcDbBlockBegin
  2
_D_9
 70
     0
 10
0.0
 20
0.0
 30
0.0
  3
_D_9
  1

  0
SOLID
  5
20D
330
20A
100
AcDbEntity
  8
DIM
100
AcDbTrace
 10
1.9766912497
 20
5.8315064853
 30
0.0
 11
2.2598129945
 21
5.7879492938
 31
0.0
 12
2.2598129945
 22
5.8750636768
 32
0.0
 13
2.2598129945
 23
5.8750636768
 33
0.0
  0
SOLID
  5
20E
330
20A
100
AcDbEntity
  8
DIM
100
AcDbTrace
 10
30.7266912497
 20
5.8315064853
 30
0.0
 11
30.4435695049
 21
5.8750636768
 31
0.0
 12
30.4435695049
 22
5.7879492938
 32
0.0
 13
30.4435695049
 23
5.7879492938
 33
0.0
  0
LINE
  5
20F
330
20A
100
AcDbEntity
  8
DIM
100
AcDbLine
 10
16.0645283374
 20
6.0537480325
 30
0.0
 11
16.2778771062
 21
6.0537480325
 31
0.0
  0
LINE
  5
210
330
20A
100
AcDbEntity
  8
DIM
100
AcDbLine
 10
15.8347829381
 20
5.7060628344
 30
0.0
 11
15.7653384945
 21
5.7060628344
 31
0.0
  0
LINE
  5
211
330
20A
100
AcDbEntity
  8
DIM
100
AcDbLine
 10
15.7653384945
 20
5.7060628344
 30
0.0
 11
15.7653384945
 21
5.3954918355
 31
0.0
  0
LINE
  5
212
330
20A
100
AcDbEntity
  8
DIM
100
AcDbLine
 10
15.7653384945
 20
5.3954918355
 30
0.0
 11
15.8347829381
 21
5.3954918355
 31
0.0
  0
LINE
  5
213
330
20A
100
AcDbEntity
  8
DIM
100
AcDbLine
 10
16.29774592
 20
5.7060628344
 30
0.0
 11
16.3671903636
 21
5.7060628344
 31
0.0
  0
LINE
  5
214
330
20A
100
AcDbEntity
  8
DIM
100
AcDbLine
 10
16.3671903636
 20
5.7060628344
 30
0.0
 11
16.3671903636
 21
5.3954918355
 31
0.0
  0
LINE
  5
215
330
20A
100
AcDbEntity
  8
DIM
100
AcDbLine
 10
16.3671903636
 20
5.3954918355
 30
0.0
 11
16.29774592
 21
5.3954918355
 31
0.0
  0
LINE
  5
216
330
20A
100
AcDbEntity
  8
DIM
100
AcDbLine
 10
1.9766912497
 20
5.8315064853
 30
0.0
 11
15.6496029804
 21
5.8315064853
 31
0.0
  0
LINE
  5
217
330
20A
100
AcDbEntity
  8
DIM
100
AcDbLine
 10
30.7266912497
 20
5.8315064853
 30
0.0
 11
16.4829258777
 21
5.8315064853
 31
0.0
  0
MTEXT
  5
218
330
20A
100
AcDbEntity
  8
DIM
100
AcDbMText
 10
15.7263724622
 20
6.1626635267
 30
0.0
 40
0.2083333333
 41
0.0
 71
     1
 72
     1
  1
28
  7
SLDTEXTSTYLE0
 73
     1
 44
1.0
  0
MTEXT
  5
219
330
20A
100
AcDbEntity
  8
DIM
100
AcDbMText
 10
16.0940422248
 20
6.3045954737
 30
0.0
 40
0.2083333333
 41
0.0
 71
     1
 72
     1
  1
3
  7
SLDTEXTSTYLE0
 73
     1
 44
1.0
  0
MTEXT
  5
21A
330
20A
100
AcDbEntity
  8
DIM
100
AcDbMText
 10
16.0940422248
 20
6.0209149217
 30
0.0
 40
0.2083333333
 41
0.0
 71
     1
 72
     1
  1
4
  7
SLDTEXTSTYLE0
 73
     1
 44
1.0
  0
MTEXT
  5
21B
330
20A
100
AcDbEntity
  8
DIM
100
AcDbMText
 10
16.3073909935
 20
6.1626635267
 30
0.0
 40
0.2083333333
 41
0.0
 71
     1
 72
     1
  1
"
  7
SLDTEXTSTYLE0
 73
     1
 44
1.0
  0
MTEXT
  5
21C
330
20A
100
AcDbEntity
  8
DIM
100
AcDbMText
 10
15.8347829381
 20
5.6640476284
 30
0.0
 40
0.2083333333
 41
0.0
 71
     1
 72
     1
  1
730
  7
SLDTEXTSTYLE0
 73
     1
 44
1.0
  0
ENDBLK
  5
20C
330
20A
100
AcDbEntity
  8
0
100
AcDbBlockEnd
  0
BLOCK
  5
21F
330
21E
100
AcDbEntity
  8
0
100
AcDbBlockBegin
  2
_D_10
 70
     0
 10
0.0
 20
0.0
 30
0.0
  3
_D_10
  1

  0
SOLID
  5
221
330
21E
100
AcDbEntity
  8
DIM
100
AcDbTrace
 10
30.6016912497
 20
6.639883056
 30
0.0
 11
30.3185695049
 21
6.6834402475
 31
0.0
 12
30.3185695049
 22
6.5963258645
 32
0.0
 13
30.3185695049
 23
6.5963258645
 33
0.0
  0
SOLID
  5
222
330
21E
100
AcDbEntity
  8
DIM
100
AcDbTrace
 10
2.1016912497
 20
6.639883056
 30
0.0
 11
2.3848129945
 21
6.5963258645
 31
0.0
 12
2.3848129945
 22
6.6834402475
 32
0.0
 13
2.3848129945
 23
6.6834402475
 33
0.0
  0
LINE
  5
223
330
21E
100
AcDbEntity
  8
DIM
100
AcDbLine
 10
19.8505350009
 20
6.8621246032
 30
0.0
 11
20.0638837696
 21
6.8621246032
 31
0.0
  0
LINE
  5
224
330
21E
100
AcDbEntity
  8
DIM
100
AcDbLine
 10
19.6207896016
 20
6.5144394051
 30
0.0
 11
19.551345158
 21
6.5144394051
 31
0.0
  0
LINE
  5
225
330
21E
100
AcDbEntity
  8
DIM
100
AcDbLine
 10
19.551345158
 20
6.5144394051
 30
0.0
 11
19.551345158
 21
6.2038684062
 31
0.0
  0
LINE
  5
226
330
21E
100
AcDbEntity
  8
DIM
100
AcDbLine
 10
19.551345158
 20
6.2038684062
 30
0.0
 11
19.6207896016
 21
6.2038684062
 31
0.0
  0
LINE
  5
227
330
21E
100
AcDbEntity
  8
DIM
100
AcDbLine
 10
20.0837525834
 20
6.5144394051
 30
0.0
 11
20.153197027
 21
6.5144394051
 31
0.0
  0
LINE
  5
228
330
21E
100
AcDbEntity
  8
DIM
100
AcDbLine
 10
20.153197027
 20
6.5144394051
 30
0.0
 11
20.153197027
 21
6.2038684062
 31
0.0
  0
LINE
  5
229
330
21E
100
AcDbEntity
  8
DIM
100
AcDbLine
 10
20.153197027
 20
6.2038684062
 30
0.0
 11
20.0837525834
 21
6.2038684062
 31
0.0
  0
LINE
  5
22A
330
21E
100
AcDbEntity
  8
DIM
100
AcDbLine
 10
30.6016912497
 20
6.639883056
 30
0.0
 11
20.2689325412
 21
6.639883056
 31
0.0
  0
LINE
  5
22B
330
21E
100
AcDbEntity
  8
DIM
100
AcDbLine
 10
2.1016912497
 20
6.639883056
 30
0.0
 11
19.4356096439
 21
6.639883056
 31
0.0
  0
MTEXT
  5
22C
330
21E
100
AcDbEntity
  8
DIM
100
AcDbMText
 10
19.5123791257
 20
6.9710400973
 30
0.0
 40
0.2083333333
 41
0.0
 71
     1
 72
     1
  1
28
  7
SLDTEXTSTYLE0
 73
     1
 44
1.0
  0
MTEXT
  5
22D
330
21E
100
AcDbEntity
  8
DIM
100
AcDbMText
 10
19.8800488883
 20
7.1129720444
 30
0.0
 40
0.2083333333
 41
0.0
 71
     1
 72
     1
  1
1
  7
SLDTEXTSTYLE0
 73
     1
 44
1.0
  0
MTEXT
  5
22E
330
21E
100
AcDbEntity
  8
DIM
100
AcDbMText
 10
19.8800488883
 20
6.8292914924
 30
0.0
 40
0.2083333333
 41
0.0
 71
     1
 72
     1
  1
2
  7
SLDTEXTSTYLE0
 73
     1
 44
1.0
  0
MTEXT
  5
22F
330
21E
100
AcDbEntity
  8
DIM
100
AcDbMText
 10
20.093397657
 20
6.9710400973
 30
0.0
 40
0.2083333333
 41
0.0
 71
     1
 72
     1
  1
"
  7
SLDTEXTSTYLE0
 73
     1
 44
1.0
  0
MTEXT
  5
230
330
21E
100
AcDbEntity
  8
DIM
100
AcDbMText
 10
19.6207896016
 20
6.4724241991
 30
0.0
 40
0.2083333333
 41
0.0
 71
     1
 72
     1
  1
724
  7
SLDTEXTSTYLE0
 73
     1
 44
1.0
  0
ENDBLK
  5
220
330
21E
100
AcDbEntity
  8
0
100
AcDbBlockEnd
  0
BLOCK
  5
233
330
232
100
AcDbEntity
  8
0
100
AcDbBlockBegin
  2
_D_11
 70
     0
 10
0.0
 20
0.0
 30
0.0
  3
_D_11
  1

  0
SOLID
  5
235
330
232
100
AcDbEntity
  8
DIM
100
AcDbTrace
 10
2.121711336
 20
17.335635663
 30
0.0
 11
2.3243444446
 21
17.1331635055
 31
0.0
 12
2.3758328107
 22
17.2034334414
 32
0.0
 13
2.3758328107
 23
17.2034334414
 33
0.0
  0
LINE
  5
236
330
232
100
AcDbEntity
  8
DIM
100
AcDbLine
 10
4.2592127538
 20
16.3488557128
 30
0.0
 11
4.4725615225
 21
16.3488557128
 31
0.0
  0
LINE
  5
237
330
232
100
AcDbEntity
  8
DIM
100
AcDbLine
 10
4.1606402159
 20
16.0011705147
 30
0.0
 11
4.0911957723
 21
16.0011705147
 31
0.0
  0
LINE
  5
238
330
232
100
AcDbEntity
  8
DIM
100
AcDbLine
 10
4.0911957723
 20
16.0011705147
 30
0.0
 11
4.0911957723
 21
15.6905995158
 31
0.0
  0
LINE
  5
239
330
232
100
AcDbEntity
  8
DIM
100
AcDbLine
 10
4.0911957723
 20
15.6905995158
 30
0.0
 11
4.1606402159
 21
15.6905995158
 31
0.0
  0
LINE
  5
23A
330
232
100
AcDbEntity
  8
DIM
100
AcDbLine
 10
4.4692822038
 20
16.0011705147
 30
0.0
 11
4.5387266474
 21
16.0011705147
 31
0.0
  0
LINE
  5
23B
330
232
100
AcDbEntity
  8
DIM
100
AcDbLine
 10
4.5387266474
 20
16.0011705147
 30
0.0
 11
4.5387266474
 21
15.6905995158
 31
0.0
  0
LINE
  5
23C
330
232
100
AcDbEntity
  8
DIM
100
AcDbLine
 10
4.5387266474
 20
15.6905995158
 30
0.0
 11
4.4692822038
 21
15.6905995158
 31
0.0
  0
LINE
  5
23D
330
232
100
AcDbEntity
  8
DIM
100
AcDbLine
 10
2.121711336
 20
17.335635663
 30
0.0
 11
3.7717513287
 21
16.1266141656
 31
0.0
  0
LINE
  5
23E
330
232
100
AcDbEntity
  8
DIM
100
AcDbLine
 10
3.7717513287
 20
16.1266141656
 30
0.0
 11
4.0217513287
 21
16.1266141656
 31
0.0
  0
MTEXT
  5
23F
330
232
100
AcDbEntity
  8
DIM
100
AcDbMText
 10
4.029081589
 20
16.4577712069
 30
0.0
 40
0.2083333333
 41
0.0
 71
     1
 72
     1
  1
R
  7
SLDTEXTSTYLE0
 73
     1
 44
1.0
  0
MTEXT
  5
240
330
232
100
AcDbEntity
  8
DIM
100
AcDbMText
 10
4.2887266412
 20
16.599703154
 30
0.0
 40
0.2083333333
 41
0.0
 71
     1
 72
     1
  1
3
  7
SLDTEXTSTYLE0
 73
     1
 44
1.0
  0
MTEXT
  5
241
330
232
100
AcDbEntity
  8
DIM
100
AcDbMText
 10
4.2887266412
 20
16.316022602
 30
0.0
 40
0.2083333333
 41
0.0
 71
     1
 72
     1
  1
4
  7
SLDTEXTSTYLE0
 73
     1
 44
1.0
  0
MTEXT
  5
242
330
232
100
AcDbEntity
  8
DIM
100
AcDbMText
 10
4.5020753916
 20
16.4577712069
 30
0.0
 40
0.2083333333
 41
0.0
 71
     1
 72
     1
  1
"
  7
SLDTEXTSTYLE0
 73
     1
 44
1.0
  0
MTEXT
  5
243
330
232
100
AcDbEntity
  8
DIM
100
AcDbMText
 10
4.1606402159
 20
15.9591553087
 30
0.0
 40
0.2083333333
 41
0.0
 71
     1
 72
     1
  1
19
  7
SLDTEXTSTYLE0
 73
     1
 44
1.0
  0
ENDBLK
  5
234
330
232
100
AcDbEntity
  8
0
100
AcDbBlockEnd
  0
BLOCK
  5
246
330
245
100
AcDbEntity
  8
0
100
AcDbBlockBegin
  2
_D_12
 70
     0
 10
0.0
 20
0.0
 30
0.0
  3
_D_12
  1

  0
SOLID
  5
248
330
245
100
AcDbEntity
  8
DIM
100
AcDbTrace
 10
17.0347495115
 20
19.3342949812
 30
0.0
 11
17.2041472317
 21
19.10329809
 31
0.0
 12
17.2657464026
 22
19.164897261
 32
0.0
 13
17.2657464026
 23
19.164897261
 33
0.0
  0
LINE
  5
249
330
245
100
AcDbEntity
  8
DIM
100
AcDbLine
 10
18.7929452294
 20
18.2858022356
 30
0.0
 11
19.0062939982
 21
18.2858022356
 31
0.0
  0
LINE
  5
24A
330
245
100
AcDbEntity
  8
DIM
100
AcDbLine
 10
18.6943726915
 20
17.9381170375
 30
0.0
 11
18.6249282479
 21
17.9381170375
 31
0.0
  0
LINE
  5
24B
330
245
100
AcDbEntity
  8
DIM
100
AcDbLine
 10
18.6249282479
 20
17.9381170375
 30
0.0
 11
18.6249282479
 21
17.6275460386
 31
0.0
  0
LINE
  5
24C
330
245
100
AcDbEntity
  8
DIM
100
AcDbLine
 10
18.6249282479
 20
17.6275460386
 30
0.0
 11
18.6943726915
 21
17.6275460386
 31
0.0
  0
LINE
  5
24D
330
245
100
AcDbEntity
  8
DIM
100
AcDbLine
 10
19.0030146794
 20
17.9381170375
 30
0.0
 11
19.072459123
 21
17.9381170375
 31
0.0
  0
LINE
  5
24E
330
245
100
AcDbEntity
  8
DIM
100
AcDbLine
 10
19.072459123
 20
17.9381170375
 30
0.0
 11
19.072459123
 21
17.6275460386
 31
0.0
  0
LINE
  5
24F
330
245
100
AcDbEntity
  8
DIM
100
AcDbLine
 10
19.072459123
 20
17.6275460386
 30
0.0
 11
19.0030146794
 21
17.6275460386
 31
0.0
  0
LINE
  5
250
330
245
100
AcDbEntity
  8
DIM
100
AcDbLine
 10
17.0347495115
 20
19.3342949812
 30
0.0
 11
18.3054838043
 21
18.0635606884
 31
0.0
  0
LINE
  5
251
330
245
100
AcDbEntity
  8
DIM
100
AcDbLine
 10
18.3054838043
 20
18.0635606884
 30
0.0
 11
18.5554838043
 21
18.0635606884
 31
0.0
  0
MTEXT
  5
252
330
245
100
AcDbEntity
  8
DIM
100
AcDbMText
 10
18.5628140646
 20
18.3947177297
 30
0.0
 40
0.2083333333
 41
0.0
 71
     1
 72
     1
  1
R
  7
SLDTEXTSTYLE0
 73
     1
 44
1.0
  0
MTEXT
  5
253
330
245
100
AcDbEntity
  8
DIM
100
AcDbMText
 10
18.8224591168
 20
18.5366496768
 30
0.0
 40
0.2083333333
 41
0.0
 71
     1
 72
     1
  1
5
  7
SLDTEXTSTYLE0
 73
     1
 44
1.0
  0
MTEXT
  5
254
330
245
100
AcDbEntity
  8
DIM
100
AcDbMText
 10
18.8224591168
 20
18.2529691248
 30
0.0
 40
0.2083333333
 41
0.0
 71
     1
 72
     1
  1
8
  7
SLDTEXTSTYLE0
 73
     1
 44
1.0
  0
MTEXT
  5
255
330
245
100
AcDbEntity
  8
DIM
100
AcDbMText
 10
19.0358078672
 20
18.3947177297
 30
0.0
 40
0.2083333333
 41
0.0
 71
     1
 72
     1
  1
"
  7
SLDTEXTSTYLE0
 73
     1
 44
1.0
  0
MTEXT
  5
256
330
245
100
AcDbEntity
  8
DIM
100
AcDbMText
 10
18.6943726915
 20
17.8961018314
 30
0.0
 40
0.2083333333
 41
0.0
 71
     1
 72
     1
  1
16
  7
SLDTEXTSTYLE0
 73
     1
 44
1.0
  0
ENDBLK
  5
247
330
245
100
AcDbEntity
  8
0
100
AcDbBlockEnd
  0
BLOCK
  5
25A
330
259
100
AcDbEntity
  8
0
100
AcDbBlockBegin
  2
_D_13
 70
     0
 10
0.0
 20
0.0
 30
0.0
  3
_D_13
  1

  0
SOLID
  5
25C
330
259
100
AcDbEntity
  8
DIM
100
AcDbTrace
 10
17.1191039995
 20
19.5516190151
 30
0.0
 11
17.0224040518
 21
19.8212563112
 31
0.0
 12
16.9458286772
 22
19.7797216543
 32
0.0
 13
16.9458286772
 23
19.7797216543
 33
0.0
  0
LINE
  5
25D
330
259
100
AcDbEntity
  8
DIM
100
AcDbLine
 10
19.1730817821
 20
16.8857525123
 30
0.0
 11
19.3864305508
 21
16.8857525123
 31
0.0
  0
LINE
  5
25E
330
259
100
AcDbEntity
  8
DIM
100
AcDbLine
 10
19.0745092442
 20
16.5380673142
 30
0.0
 11
19.0050648005
 21
16.5380673142
 31
0.0
  0
LINE
  5
25F
330
259
100
AcDbEntity
  8
DIM
100
AcDbLine
 10
19.0050648005
 20
16.5380673142
 30
0.0
 11
19.0050648005
 21
16.2274963153
 31
0.0
  0
LINE
  5
260
330
259
100
AcDbEntity
  8
DIM
100
AcDbLine
 10
19.0050648005
 20
16.2274963153
 30
0.0
 11
19.0745092442
 21
16.2274963153
 31
0.0
  0
LINE
  5
261
330
259
100
AcDbEntity
  8
DIM
100
AcDbLine
 10
19.383151232
 20
16.5380673142
 30
0.0
 11
19.4525956756
 21
16.5380673142
 31
0.0
  0
LINE
  5
262
330
259
100
AcDbEntity
  8
DIM
100
AcDbLine
 10
19.4525956756
 20
16.5380673142
 30
0.0
 11
19.4525956756
 21
16.2274963153
 31
0.0
  0
LINE
  5
263
330
259
100
AcDbEntity
  8
DIM
100
AcDbLine
 10
19.4525956756
 20
16.2274963153
 30
0.0
 11
19.383151232
 21
16.2274963153
 31
0.0
  0
LINE
  5
264
330
259
100
AcDbEntity
  8
DIM
100
AcDbLine
 10
17.1191039995
 20
19.5516190151
 30
0.0
 11
18.6856203569
 21
16.6635109651
 31
0.0
  0
LINE
  5
265
330
259
100
AcDbEntity
  8
DIM
100
AcDbLine
 10
17.1191039995
 20
19.5516190151
 30
0.0
 11
16.8595123938
 21
20.0302151067
 31
0.0
  0
LINE
  5
266
330
259
100
AcDbEntity
  8
DIM
100
AcDbLine
 10
18.6856203569
 20
16.6635109651
 30
0.0
 11
18.9356203569
 21
16.6635109651
 31
0.0
  0
MTEXT
  5
267
330
259
100
AcDbEntity
  8
DIM
100
AcDbMText
 10
18.9429506173
 20
16.9946680065
 30
0.0
 40
0.2083333333
 41
0.0
 71
     1
 72
     1
  1
R
  7
SLDTEXTSTYLE0
 73
     1
 44
1.0
  0
MTEXT
  5
268
330
259
100
AcDbEntity
  8
DIM
100
AcDbMText
 10
19.2025956695
 20
17.1365999535
 30
0.0
 40
0.2083333333
 41
0.0
 71
     1
 72
     1
  1
3
  7
SLDTEXTSTYLE0
 73
     1
 44
1.0
  0
MTEXT
  5
269
330
259
100
AcDbEntity
  8
DIM
100
AcDbMText
 10
19.2025956695
 20
16.8529194015
 30
0.0
 40
0.2083333333
 41
0.0
 71
     1
 72
     1
  1
4
  7
SLDTEXTSTYLE0
 73
     1
 44
1.0
  0
MTEXT
  5
26A
330
259
100
AcDbEntity
  8
DIM
100
AcDbMText
 10
19.4159444199
 20
16.9946680065
 30
0.0
 40
0.2083333333
 41
0.0
 71
     1
 72
     1
  1
"
  7
SLDTEXTSTYLE0
 73
     1
 44
1.0
  0
MTEXT
  5
26B
330
259
100
AcDbEntity
  8
DIM
100
AcDbMText
 10
19.0745092442
 20
16.4960521082
 30
0.0
 40
0.2083333333
 41
0.0
 71
     1
 72
     1
  1
19
  7
SLDTEXTSTYLE0
 73
     1
 44
1.0
  0
ENDBLK
  5
25B
330
259
100
AcDbEntity
  8
0
100
AcDbBlockEnd
  0
BLOCK
  5
26E
330
26D
100
AcDbEntity
  8
0
100
AcDbBlockBegin
  2
_D_14
 70
     0
 10
0.0
 20
0.0
 30
0.0
  3
_D_14
  1

  0
SOLID
  5
270
330
26D
100
AcDbEntity
  8
DIM
100
AcDbTrace
 10
17.1758922375
 20
20.1056215373
 30
0.0
 11
17.2017451829
 21
19.82033786
 31
0.0
 12
17.286299678
 22
19.8413009963
 32
0.0
 13
17.286299678
 23
19.8413009963
 33
0.0
  0
LINE
  5
271
330
26D
100
AcDbEntity
  8
DIM
100
AcDbLine
 10
18.9665328646
 20
15.6643942032
 30
0.0
 11
19.1798816334
 21
15.6643942032
 31
0.0
  0
LINE
  5
272
330
26D
100
AcDbEntity
  8
DIM
100
AcDbLine
 10
18.7907998664
 20
15.3167090051
 30
0.0
 11
18.7213554228
 21
15.3167090051
 31
0.0
  0
LINE
  5
273
330
26D
100
AcDbEntity
  8
DIM
100
AcDbLine
 10
18.7213554228
 20
15.3167090051
 30
0.0
 11
18.7213554228
 21
15.0061380061
 31
0.0
  0
LINE
  5
274
330
26D
100
AcDbEntity
  8
DIM
100
AcDbLine
 10
18.7213554228
 20
15.0061380061
 30
0.0
 11
18.7907998664
 21
15.0061380061
 31
0.0
  0
LINE
  5
275
330
26D
100
AcDbEntity
  8
DIM
100
AcDbLine
 10
19.0994418543
 20
15.3167090051
 30
0.0
 11
19.1688862979
 21
15.3167090051
 31
0.0
  0
LINE
  5
276
330
26D
100
AcDbEntity
  8
DIM
100
AcDbLine
 10
19.1688862979
 20
15.3167090051
 30
0.0
 11
19.1688862979
 21
15.0061380061
 31
0.0
  0
LINE
  5
277
330
26D
100
AcDbEntity
  8
DIM
100
AcDbLine
 10
19.1688862979
 20
15.0061380061
 30
0.0
 11
19.0994418543
 21
15.0061380061
 31
0.0
  0
LINE
  5
278
330
26D
100
AcDbEntity
  8
DIM
100
AcDbLine
 10
17.1758922375
 20
20.1056215373
 30
0.0
 11
18.3320807242
 21
15.4421526559
 31
0.0
  0
LINE
  5
279
330
26D
100
AcDbEntity
  8
DIM
100
AcDbLine
 10
18.3320807242
 20
15.4421526559
 30
0.0
 11
18.5820807242
 21
15.4421526559
 31
0.0
  0
MTEXT
  5
27A
330
26D
100
AcDbEntity
  8
DIM
100
AcDbMText
 10
18.5820807242
 20
15.7733096973
 30
0.0
 40
0.2083333333
 41
0.0
 71
     1
 72
     1
  1
R1
  7
SLDTEXTSTYLE0
 73
     1
 44
1.0
  0
MTEXT
  5
27B
330
26D
100
AcDbEntity
  8
DIM
100
AcDbMText
 10
18.996046752
 20
15.9152416444
 30
0.0
 40
0.2083333333
 41
0.0
 71
     1
 72
     1
  1
1
  7
SLDTEXTSTYLE0
 73
     1
 44
1.0
  0
MTEXT
  5
27C
330
26D
100
AcDbEntity
  8
DIM
100
AcDbMText
 10
18.996046752
 20
15.6315610923
 30
0.0
 40
0.2083333333
 41
0.0
 71
     1
 72
     1
  1
4
  7
SLDTEXTSTYLE0
 73
     1
 44
1.0
  0
MTEXT
  5
27D
330
26D
100
AcDbEntity
  8
DIM
100
AcDbMText
 10
19.2093955574
 20
15.7733096973
 30
0.0
 40
0.2083333333
 41
0.0
 71
     1
 72
     1
  1
"
  7
SLDTEXTSTYLE0
 73
     1
 44
1.0
  0
MTEXT
  5
27E
330
26D
100
AcDbEntity
  8
DIM
100
AcDbMText
 10
18.7907998664
 20
15.274693799
 30
0.0
 40
0.2083333333
 41
0.0
 71
     1
 72
     1
  1
32
  7
SLDTEXTSTYLE0
 73
     1
 44
1.0
  0
ENDBLK
  5
26F
330
26D
100
AcDbEntity
  8
0
100
AcDbBlockEnd
  0
BLOCK
  5
282
330
281
100
AcDbEntity
  8
0
100
AcDbBlockBegin
  2
_D_15
 70
     0
 10
0.0
 20
0.0
 30
0.0
  3
_D_15
  1

  0
SOLID
  5
284
330
281
100
AcDbEntity
  8
DIM
100
AcDbTrace
 10
15.5531380793
 20
17.797900191
 30
0.0
 11
15.6358172968
 21
17.5236388224
 31
0.0
 12
15.7144309236
 22
17.5611729858
 32
0.0
 13
15.7144309236
 23
17.5611729858
 33
0.0
  0
LINE
  5
285
330
281
100
AcDbEntity
  8
DIM
100
AcDbLine
 10
16.974971607
 20
16.3710066317
 30
0.0
 11
17.1883203757
 21
16.3710066317
 31
0.0
  0
LINE
  5
286
330
281
100
AcDbEntity
  8
DIM
100
AcDbLine
 10
16.7992386088
 20
16.0233214336
 30
0.0
 11
16.7297941652
 21
16.0233214336
 31
0.0
  0
LINE
  5
287
330
281
100
AcDbEntity
  8
DIM
100
AcDbLine
 10
16.7297941652
 20
16.0233214336
 30
0.0
 11
16.7297941652
 21
15.7127504347
 31
0.0
  0
LINE
  5
288
330
281
100
AcDbEntity
  8
DIM
100
AcDbLine
 10
16.7297941652
 20
15.7127504347
 30
0.0
 11
16.7992386088
 21
15.7127504347
 31
0.0
  0
LINE
  5
289
330
281
100
AcDbEntity
  8
DIM
100
AcDbLine
 10
17.1078805966
 20
16.0233214336
 30
0.0
 11
17.1773250402
 21
16.0233214336
 31
0.0
  0
LINE
  5
28A
330
281
100
AcDbEntity
  8
DIM
100
AcDbLine
 10
17.1773250402
 20
16.0233214336
 30
0.0
 11
17.1773250402
 21
15.7127504347
 31
0.0
  0
LINE
  5
28B
330
281
100
AcDbEntity
  8
DIM
100
AcDbLine
 10
17.1773250402
 20
15.7127504347
 30
0.0
 11
17.1078805966
 21
15.7127504347
 31
0.0
  0
LINE
  5
28C
330
281
100
AcDbEntity
  8
DIM
100
AcDbLine
 10
15.5531380793
 20
17.797900191
 30
0.0
 11
16.3405194666
 21
16.1487650845
 31
0.0
  0
LINE
  5
28D
330
281
100
AcDbEntity
  8
DIM
100
AcDbLine
 10
16.3405194666
 20
16.1487650845
 30
0.0
 11
16.5905194666
 21
16.1487650845
 31
0.0
  0
MTEXT
  5
28E
330
281
100
AcDbEntity
  8
DIM
100
AcDbMText
 10
16.5905194666
 20
16.4799221259
 30
0.0
 40
0.2083333333
 41
0.0
 71
     1
 72
     1
  1
R2
  7
SLDTEXTSTYLE0
 73
     1
 44
1.0
  0
MTEXT
  5
28F
330
281
100
AcDbEntity
  8
DIM
100
AcDbMText
 10
17.0044854944
 20
16.6218540729
 30
0.0
 40
0.2083333333
 41
0.0
 71
     1
 72
     1
  1
7
  7
SLDTEXTSTYLE0
 73
     1
 44
1.0
  0
MTEXT
  5
290
330
281
100
AcDbEntity
  8
DIM
100
AcDbMText
 10
17.0044854944
 20
16.3381735209
 30
0.0
 40
0.2083333333
 41
0.0
 71
     1
 72
     1
  1
8
  7
SLDTEXTSTYLE0
 73
     1
 44
1.0
  0
MTEXT
  5
291
330
281
100
AcDbEntity
  8
DIM
100
AcDbMText
 10
17.2178342998
 20
16.4799221259
 30
0.0
 40
0.2083333333
 41
0.0
 71
     1
 72
     1
  1
"
  7
SLDTEXTSTYLE0
 73
     1
 44
1.0
  0
MTEXT
  5
292
330
281
100
AcDbEntity
  8
DIM
100
AcDbMText
 10
16.7992386088
 20
15.9813062276
 30
0.0
 40
0.2083333333
 41
0.0
 71
     1
 72
     1
  1
73
  7
SLDTEXTSTYLE0
 73
     1
 44
1.0
  0
ENDBLK
  5
283
330
281
100
AcDbEntity
  8
0
100
AcDbBlockEnd
  0
BLOCK
  5
295
330
294
100
AcDbEntity
  8
0
100
AcDbBlockBegin
  2
_D_16
 70
     0
 10
0.0
 20
0.0
 30
0.0
  3
_D_16
  1

  0
SOLID
  5
297
330
294
100
AcDbEntity
  8
DIM
100
AcDbTrace
 10
15.999110277
 20
18.218808426
 30
0.0
 11
15.8600918197
 21
18.4692660468
 31
0.0
 12
15.7912383594
 22
18.4158982968
 32
0.0
 13
15.7912383594
 23
18.4158982968
 33
0.0
  0
LINE
  5
298
330
294
100
AcDbEntity
  8
DIM
100
AcDbLine
 10
15.1573221732
 20
19.5547246988
 30
0.0
 11
15.3706709419
 21
19.5547246988
 31
0.0
  0
LINE
  5
299
330
294
100
AcDbEntity
  8
DIM
100
AcDbLine
 10
14.9815891749
 20
19.2070395007
 30
0.0
 11
14.9121447313
 21
19.2070395007
 31
0.0
  0
LINE
  5
29A
330
294
100
AcDbEntity
  8
DIM
100
AcDbLine
 10
14.9121447313
 20
19.2070395007
 30
0.0
 11
14.9121447313
 21
18.8964685018
 31
0.0
  0
LINE
  5
29B
330
294
100
AcDbEntity
  8
DIM
100
AcDbLine
 10
14.9121447313
 20
18.8964685018
 30
0.0
 11
14.9815891749
 21
18.8964685018
 31
0.0
  0
LINE
  5
29C
330
294
100
AcDbEntity
  8
DIM
100
AcDbLine
 10
15.2902311628
 20
19.2070395007
 30
0.0
 11
15.3596756064
 21
19.2070395007
 31
0.0
  0
LINE
  5
29D
330
294
100
AcDbEntity
  8
DIM
100
AcDbLine
 10
15.3596756064
 20
19.2070395007
 30
0.0
 11
15.3596756064
 21
18.8964685018
 31
0.0
  0
LINE
  5
29E
330
294
100
AcDbEntity
  8
DIM
100
AcDbLine
 10
15.3596756064
 20
18.8964685018
 30
0.0
 11
15.2902311628
 21
18.8964685018
 31
0.0
  0
LINE
  5
29F
330
294
100
AcDbEntity
  8
DIM
100
AcDbLine
 10
14.3144135896
 20
20.3923532429
 30
0.0
 11
14.7620748939
 21
19.8147941398
 31
0.0
  0
LINE
  5
2A0
330
294
100
AcDbEntity
  8
DIM
100
AcDbLine
 10
15.999110277
 20
18.218808426
 30
0.0
 11
15.5097454439
 21
18.8501721632
 31
0.0
  0
MTEXT
  5
2A1
330
294
100
AcDbEntity
  8
DIM
100
AcDbMText
 10
14.7728700327
 20
19.6636401929
 30
0.0
 40
0.2083333333
 41
0.0
 71
     1
 72
     1
  1
R2
  7
SLDTEXTSTYLE0
 73
     1
 44
1.0
  0
MTEXT
  5
2A2
330
294
100
AcDbEntity
  8
DIM
100
AcDbMText
 10
15.1868360606
 20
19.80557214
 30
0.0
 40
0.2083333333
 41
0.0
 71
     1
 72
     1
  1
3
  7
SLDTEXTSTYLE0
 73
     1
 44
1.0
  0
MTEXT
  5
2A3
330
294
100
AcDbEntity
  8
DIM
100
AcDbMText
 10
15.1868360606
 20
19.5218915879
 30
0.0
 40
0.2083333333
 41
0.0
 71
     1
 72
     1
  1
4
  7
SLDTEXTSTYLE0
 73
     1
 44
1.0
  0
MTEXT
  5
2A4
330
294
100
AcDbEntity
  8
DIM
100
AcDbMText
 10
15.400184866
 20
19.6636401929
 30
0.0
 40
0.2083333333
 41
0.0
 71
     1
 72
     1
  1
"
  7
SLDTEXTSTYLE0
 73
     1
 44
1.0
  0
MTEXT
  5
2A5
330
294
100
AcDbEntity
  8
DIM
100
AcDbMText
 10
14.9815891749
 20
19.1650242946
 30
0.0
 40
0.2083333333
 41
0.0
 71
     1
 72
     1
  1
70
  7
SLDTEXTSTYLE0
 73
     1
 44
1.0
  0
ENDBLK
  5
296
330
294
100
AcDbEntity
  8
0
100
AcDbBlockEnd
  0
BLOCK
  5
2A8
330
2A7
100
AcDbEntity
  8
0
100
AcDbBlockBegin
  2
_D_17
 70
     0
 10
0.0
 20
0.0
 30
0.0
  3
_D_17
  1

  0
SOLID
  5
2AA
330
2A7
100
AcDbEntity
  8
DIM
100
AcDbTrace
 10
14.7888838093
 20
18.1929492303
 30
0.0
 11
14.8060095758
 21
17.9070089229
 31
0.0
 12
14.8911650085
 22
17.9253792253
 32
0.0
 13
14.8911650085
 23
17.9253792253
 33
0.0
  0
LINE
  5
2AB
330
2A7
100
AcDbEntity
  8
DIM
100
AcDbLine
 10
13.6867836676
 20
16.6030888625
 30
0.0
 11
13.9001324363
 21
16.6030888625
 31
0.0
  0
LINE
  5
2AC
330
2A7
100
AcDbEntity
  8
DIM
100
AcDbLine
 10
13.5110506694
 20
16.2554036644
 30
0.0
 11
13.4416062258
 21
16.2554036644
 31
0.0
  0
LINE
  5
2AD
330
2A7
100
AcDbEntity
  8
DIM
100
AcDbLine
 10
13.4416062258
 20
16.2554036644
 30
0.0
 11
13.4416062258
 21
15.9448326655
 31
0.0
  0
LINE
  5
2AE
330
2A7
100
AcDbEntity
  8
DIM
100
AcDbLine
 10
13.4416062258
 20
15.9448326655
 30
0.0
 11
13.5110506694
 21
15.9448326655
 31
0.0
  0
LINE
  5
2AF
330
2A7
100
AcDbEntity
  8
DIM
100
AcDbLine
 10
13.8196926572
 20
16.2554036644
 30
0.0
 11
13.8891371008
 21
16.2554036644
 31
0.0
  0
LINE
  5
2B0
330
2A7
100
AcDbEntity
  8
DIM
100
AcDbLine
 10
13.8891371008
 20
16.2554036644
 30
0.0
 11
13.8891371008
 21
15.9448326655
 31
0.0
  0
LINE
  5
2B1
330
2A7
100
AcDbEntity
  8
DIM
100
AcDbLine
 10
13.8891371008
 20
15.9448326655
 30
0.0
 11
13.8196926572
 21
15.9448326655
 31
0.0
  0
LINE
  5
2B2
330
2A7
100
AcDbEntity
  8
DIM
100
AcDbLine
 10
14.7888838093
 20
18.1929492303
 30
0.0
 11
15.1798026167
 21
16.3808473152
 31
0.0
  0
LINE
  5
2B3
330
2A7
100
AcDbEntity
  8
DIM
100
AcDbLine
 10
15.1798026167
 20
16.3808473152
 30
0.0
 11
14.0284117994
 21
16.3808473152
 31
0.0
  0
MTEXT
  5
2B4
330
2A7
100
AcDbEntity
  8
DIM
100
AcDbMText
 10
13.3023315272
 20
16.7120043566
 30
0.0
 40
0.2083333333
 41
0.0
 71
     1
 72
     1
  1
R2
  7
SLDTEXTSTYLE0
 73
     1
 44
1.0
  0
MTEXT
  5
2B5
330
2A7
100
AcDbEntity
  8
DIM
100
AcDbMText
 10
13.716297555
 20
16.8539363037
 30
0.0
 40
0.2083333333
 41
0.0
 71
     1
 72
     1
  1
1
  7
SLDTEXTSTYLE0
 73
     1
 44
1.0
  0
MTEXT
  5
2B6
330
2A7
100
AcDbEntity
  8
DIM
100
AcDbMText
 10
13.716297555
 20
16.5702557517
 30
0.0
 40
0.2083333333
 41
0.0
 71
     1
 72
     1
  1
4
  7
SLDTEXTSTYLE0
 73
     1
 44
1.0
  0
MTEXT
  5
2B7
330
2A7
100
AcDbEntity
  8
DIM
100
AcDbMText
 10
13.9296463604
 20
16.7120043566
 30
0.0
 40
0.2083333333
 41
0.0
 71
     1
 72
     1
  1
"
  7
SLDTEXTSTYLE0
 73
     1
 44
1.0
  0
MTEXT
  5
2B8
330
2A7
100
AcDbEntity
  8
DIM
100
AcDbMText
 10
13.5110506694
 20
16.2133884583
 30
0.0
 40
0.2083333333
 41
0.0
 71
     1
 72
     1
  1
57
  7
SLDTEXTSTYLE0
 73
     1
 44
1.0
  0
ENDBLK
  5
2A9
330
2A7
100
AcDbEntity
  8
0
100
AcDbBlockEnd
  0
BLOCK
  5
2BC
330
2BB
100
AcDbEntity
  8
0
100
AcDbBlockBegin
  2
_D_18
 70
     0
 10
0.0
 20
0.0
 30
0.0
  3
_D_18
  1

  0
SOLID
  5
2BE
330
2BB
100
AcDbEntity
  8
DIM
100
AcDbTrace
 10
9.1440294717
 20
17.6423532429
 30
0.0
 11
9.1004722802
 21
17.3592314981
 31
0.0
 12
9.1875866632
 22
17.3592314981
 32
0.0
 13
9.1875866632
 23
17.3592314981
 33
0.0
  0
SOLID
  5
2BF
330
2BB
100
AcDbEntity
  8
DIM
100
AcDbTrace
 10
9.1440294717
 20
18.1423532429
 30
0.0
 11
9.1875866632
 21
18.4254749877
 31
0.0
 12
9.1004722802
 22
18.4254749877
 32
0.0
 13
9.1004722802
 23
18.4254749877
 33
0.0
  0
LINE
  5
2C0
330
2BB
100
AcDbEntity
  8
DIM
100
AcDbLine
 10
8.305889275
 20
19.1113675874
 30
0.0
 11
8.5192380438
 21
19.1113675874
 31
0.0
  0
LINE
  5
2C1
330
2BB
100
AcDbEntity
  8
DIM
100
AcDbLine
 10
8.307625385
 20
18.7636823893
 30
0.0
 11
8.2381809414
 21
18.7636823893
 31
0.0
  0
LINE
  5
2C2
330
2BB
100
AcDbEntity
  8
DIM
100
AcDbLine
 10
8.2381809414
 20
18.7636823893
 30
0.0
 11
8.2381809414
 21
18.4531113904
 31
0.0
  0
LINE
  5
2C3
330
2BB
100
AcDbEntity
  8
DIM
100
AcDbLine
 10
8.2381809414
 20
18.4531113904
 30
0.0
 11
8.307625385
 21
18.4531113904
 31
0.0
  0
LINE
  5
2C4
330
2BB
100
AcDbEntity
  8
DIM
100
AcDbLine
 10
8.6162673729
 20
18.7636823893
 30
0.0
 11
8.6857118165
 21
18.7636823893
 31
0.0
  0
LINE
  5
2C5
330
2BB
100
AcDbEntity
  8
DIM
100
AcDbLine
 10
8.6857118165
 20
18.7636823893
 30
0.0
 11
8.6857118165
 21
18.4531113904
 31
0.0
  0
LINE
  5
2C6
330
2BB
100
AcDbEntity
  8
DIM
100
AcDbLine
 10
8.6857118165
 20
18.4531113904
 30
0.0
 11
8.6162673729
 21
18.4531113904
 31
0.0
  0
LINE
  5
2C7
330
2BB
100
AcDbEntity
  8
DIM
100
AcDbLine
 10
8.8940294717
 20
18.8891260402
 30
0.0
 11
9.1440294717
 21
18.8891260402
 31
0.0
  0
LINE
  5
2C8
330
2BB
100
AcDbEntity
  8
DIM
100
AcDbLine
 10
9.1440294717
 20
18.8891260402
 30
0.0
 11
9.1440294717
 21
18.1423532429
 31
0.0
  0
LINE
  5
2C9
330
2BB
100
AcDbEntity
  8
DIM
100
AcDbLine
 10
9.1440294717
 20
17.6423532429
 30
0.0
 11
9.1440294717
 21
17.0978883491
 31
0.0
  0
MTEXT
  5
2CA
330
2BB
100
AcDbEntity
  8
DIM
100
AcDbMText
 10
8.3354031624
 20
19.3622150286
 30
0.0
 40
0.2083333333
 41
0.0
 71
     1
 72
     1
  1
1
  7
SLDTEXTSTYLE0
 73
     1
 44
1.0
  0
MTEXT
  5
2CB
330
2BB
100
AcDbEntity
  8
DIM
100
AcDbMText
 10
8.3354031624
 20
19.0785344766
 30
0.0
 40
0.2083333333
 41
0.0
 71
     1
 72
     1
  1
2
  7
SLDTEXTSTYLE0
 73
     1
 44
1.0
  0
MTEXT
  5
2CC
330
2BB
100
AcDbEntity
  8
DIM
100
AcDbMText
 10
8.5487519311
 20
19.2202830816
 30
0.0
 40
0.2083333333
 41
0.0
 71
     1
 72
     1
  1
"
  7
SLDTEXTSTYLE0
 73
     1
 44
1.0
  0
MTEXT
  5
2CD
330
2BB
100
AcDbEntity
  8
DIM
100
AcDbMText
 10
8.307625385
 20
18.7216671833
 30
0.0
 40
0.2083333333
 41
0.0
 71
     1
 72
     1
  1
13
  7
SLDTEXTSTYLE0
 73
     1
 44
1.0
  0
ENDBLK
  5
2BD
330
2BB
100
AcDbEntity
  8
0
100
AcDbBlockEnd
  0
BLOCK
  5
2D0
330
2CF
100
AcDbEntity
  8
0
100
AcDbBlockBegin
  2
_D_19
 70
     0
 10
0.0
 20
0.0
 30
0.0
  3
_D_19
  1

  0
SOLID
  5
2D2
330
2CF
100
AcDbEntity
  8
DIM
100
AcDbTrace
 10
30.8516912497
 20
7.4289364493
 30
0.0
 11
31.1348129945
 21
7.3853792578
 31
0.0
 12
31.1348129945
 22
7.4724936408
 32
0.0
 13
31.1348129945
 23
7.4724936408
 33
0.0
  0
SOLID
  5
2D3
330
2CF
100
AcDbEntity
  8
DIM
100
AcDbTrace
 10
30.6016912497
 20
7.4289364493
 30
0.0
 11
30.3185695049
 21
7.4724936408
 31
0.0
 12
30.3185695049
 22
7.3853792578
 32
0.0
 13
30.3185695049
 23
7.3853792578
 33
0.0
  0
LINE
  5
2D4
330
2CF
100
AcDbEntity
  8
DIM
100
AcDbLine
 10
29.3505712362
 20
7.6511779965
 30
0.0
 11
29.5639200049
 21
7.6511779965
 31
0.0
  0
LINE
  5
2D5
330
2CF
100
AcDbEntity
  8
DIM
100
AcDbLine
 10
29.4294678431
 20
7.3034927984
 30
0.0
 11
29.3600233995
 21
7.3034927984
 31
0.0
  0
LINE
  5
2D6
330
2CF
100
AcDbEntity
  8
DIM
100
AcDbLine
 10
29.3600233995
 20
7.3034927984
 30
0.0
 11
29.3600233995
 21
6.9929217995
 31
0.0
  0
LINE
  5
2D7
330
2CF
100
AcDbEntity
  8
DIM
100
AcDbLine
 10
29.3600233995
 20
6.9929217995
 30
0.0
 11
29.4294678431
 21
6.9929217995
 31
0.0
  0
LINE
  5
2D8
330
2CF
100
AcDbEntity
  8
DIM
100
AcDbLine
 10
29.5837888371
 20
7.3034927984
 30
0.0
 11
29.6532332807
 21
7.3034927984
 31
0.0
  0
LINE
  5
2D9
330
2CF
100
AcDbEntity
  8
DIM
100
AcDbLine
 10
29.6532332807
 20
7.3034927984
 30
0.0
 11
29.6532332807
 21
6.9929217995
 31
0.0
  0
LINE
  5
2DA
330
2CF
100
AcDbEntity
  8
DIM
100
AcDbLine
 10
29.6532332807
 20
6.9929217995
 30
0.0
 11
29.5837888371
 21
6.9929217995
 31
0.0
  0
LINE
  5
2DB
330
2CF
100
AcDbEntity
  8
DIM
100
AcDbLine
 10
30.8516912497
 20
7.4289364493
 30
0.0
 11
31.3961561436
 21
7.4289364493
 31
0.0
  0
LINE
  5
2DC
330
2CF
100
AcDbEntity
  8
DIM
100
AcDbLine
 10
30.6016912497
 20
7.4289364493
 30
0.0
 11
29.7689687948
 21
7.4289364493
 31
0.0
  0
MTEXT
  5
2DD
330
2CF
100
AcDbEntity
  8
DIM
100
AcDbMText
 10
29.3800851236
 20
7.9020254377
 30
0.0
 40
0.2083333333
 41
0.0
 71
     1
 72
     1
  1
1
  7
SLDTEXTSTYLE0
 73
     1
 44
1.0
  0
MTEXT
  5
2DE
330
2CF
100
AcDbEntity
  8
DIM
100
AcDbMText
 10
29.3800851236
 20
7.6183448857
 30
0.0
 40
0.2083333333
 41
0.0
 71
     1
 72
     1
  1
4
  7
SLDTEXTSTYLE0
 73
     1
 44
1.0
  0
MTEXT
  5
2DF
330
2CF
100
AcDbEntity
  8
DIM
100
AcDbMText
 10
29.5934338923
 20
7.7600934906
 30
0.0
 40
0.2083333333
 41
0.0
 71
     1
 72
     1
  1
"
  7
SLDTEXTSTYLE0
 73
     1
 44
1.0
  0
MTEXT
  5
2E0
330
2CF
100
AcDbEntity
  8
DIM
100
AcDbMText
 10
29.4294678431
 20
7.2614775923
 30
0.0
 40
0.2083333333
 41
0.0
 71
     1
 72
     1
  1
6
  7
SLDTEXTSTYLE0
 73
     1
 44
1.0
  0
ENDBLK
  5
2D1
330
2CF
100
AcDbEntity
  8
0
100
AcDbBlockEnd
  0
BLOCK
  5
2E2
330
2E1
100
AcDbEntity
  8
0
100
AcDbBlockBegin
  2
SW_NOTE_0
 70
     0
 10
0.0
 20
0.0
 30
0.0
  3
SW_NOTE_0
  1

  0
MTEXT
  5
2E4
330
2E1
100
AcDbEntity
  8
NOTES
 62
     0
100
AcDbMText
 10
0.0217634216
 20
0.2414106503
 30
0.0
 40
0.2083333333
 41
0.0
 71
     1
 72
     1
  1
1/8" OVERHANG
  7
SLDTEXTSTYLE0
 73
     1
 44
1.0
  0
MTEXT
  5
2E5
330
2E1
100
AcDbEntity
  8
NOTES
 62
     0
100
AcDbMText
 10
0.0217634216
 20
-0.0757372093
 30
0.0
 40
0.2083333333
 41
0.0
 71
     1
 72
     1
  1
[3.2 SOBRESALIENTE]
  7
SLDTEXTSTYLE0
 73
     1
 44
1.0
  0
ENDBLK
  5
2E3
330
2E1
100
AcDbEntity
  8
0
100
AcDbBlockEnd
  0
BLOCK
  5
2EA
330
2E9
100
AcDbEntity
  8
0
100
AcDbBlockBegin
  2
SW_NOTE_1
 70
     0
 10
0.0
 20
0.0
 30
0.0
  3
SW_NOTE_1
  1

  0
MTEXT
  5
2EC
330
2E9
100
AcDbEntity
  8
NOTES
 62
     0
100
AcDbMText
 10
0.0202783379
 20
0.2419203106
 30
0.0
 40
0.2083333333
 41
0.0
 71
     1
 72
     1
  1
1/2" REVEAL
  7
SLDTEXTSTYLE0
 73
     1
 44
1.0
  0
MTEXT
  5
2ED
330
2E9
100
AcDbEntity
  8
NOTES
 62
     0
100
AcDbMText
 10
0.0202783379
 20
-0.075227549
 30
0.0
 40
0.2083333333
 41
0.0
 71
     1
 72
     1
  1
[12.7 REVELADO]
  7
SLDTEXTSTYLE0
 73
     1
 44
1.0
  0
ENDBLK
  5
2EB
330
2E9
100
AcDbEntity
  8
0
100
AcDbBlockEnd
  0
BLOCK
  5
2F1
330
2F0
100
AcDbEntity
  8
0
100
AcDbBlockBegin
  2
SW_NOTE_2
 70
     0
 10
0.0
 20
0.0
 30
0.0
  3
SW_NOTE_2
  1

  0
MTEXT
  5
2F3
330
2F0
100
AcDbEntity
  8
NOTES
 62
     0
100
AcDbMText
 10
1.0734991566
 20
0.2420417838
 30
0.0
 40
0.2083333333
 41
0.0
 71
     2
 72
     1
  1
ZERO REVEAL
  7
SLDTEXTSTYLE0
 73
     1
 44
1.0
  0
MTEXT
  5
2F4
330
2F0
100
AcDbEntity
  8
NOTES
 62
     0
100
AcDbMText
 10
1.0756693421
 20
-0.0751060758
 30
0.0
 40
0.2083333333
 41
0.0
 71
     2
 72
     1
  1
[0 REVEALADO]
  7
SLDTEXTSTYLE0
 73
     1
 44
1.0
  0
ENDBLK
  5
2F2
330
2F0
100
AcDbEntity
  8
0
100
AcDbBlockEnd
  0
BLOCK
  5
2FB
330
2FA
100
AcDbEntity
  8
0
100
AcDbBlockBegin
  2
SW_NOTE_3
 70
     0
 10
0.0
 20
0.0
 30
0.0
  3
SW_NOTE_3
  1

  0
MTEXT
  5
2FD
330
2FA
100
AcDbEntity
  8
NOTES
 62
     0
100
AcDbMText
 10
0.8396595896
 20
0.7173272144
 30
0.0
 40
0.2083333333
 41
0.0
 71
     2
 72
     1
  1
TEMPLATE
  7
SLDTEXTSTYLE0
 73
     1
 44
1.0
  0
MTEXT
  5
2FE
330
2FA
100
AcDbEntity
  8
NOTES
 62
     0
100
AcDbMText
 10
0.8427942598
 20
0.4001793548
 30
0.0
 40
0.2083333333
 41
0.0
 71
     2
 72
     1
  1
CENTERLINE
  7
SLDTEXTSTYLE0
 73
     1
 44
1.0
  0
MTEXT
  5
2FF
330
2FA
100
AcDbEntity
  8
NOTES
 62
     0
100
AcDbMText
 10
0.8429147979
 20
-0.2341163644
 30
0.0
 40
0.2083333333
 41
0.0
 71
     2
 72
     1
  1
PLANTILLA
  7
SLDTEXTSTYLE0
 73
     1
 44
1.0
  0
MTEXT
  5
300
330
2FA
100
AcDbEntity
  8
NOTES
 62
     0
100
AcDbMText
 10
0.8399007324
 20
-0.551264224
 30
0.0
 40
0.2083333333
 41
0.0
 71
     2
 72
     1
  1
CENTRAL
  7
SLDTEXTSTYLE0
 73
     1
 44
1.0
  0
ENDBLK
  5
2FC
330
2FA
100
AcDbEntity
  8
0
100
AcDbBlockEnd
  0
BLOCK
  5
305
330
304
100
AcDbEntity
  8
0
100
AcDbBlockBegin
  2
SW_NOTE_4
 70
     0
 10
0.0
 20
0.0
 30
0.0
  3
SW_NOTE_4
  1

  0
MTEXT
  5
307
330
304
100
AcDbEntity
  8
NOTES
 62
     0
100
AcDbMText
 10
0.0
 20
0.2148446233
 30
0.0
 40
0.1666666667
 41
0.0
 71
     1
 72
     1
  1
NOTES:
  7
SLDTEXTSTYLE0
 73
     1
 44
1.0
  0
MTEXT
  5
308
330
304
100
AcDbEntity
  8
NOTES
 62
     0
100
AcDbMText
 10
0.3937007786
 20
-0.3083399862
 30
0.0
 40
0.1666666667
 41
0.0
 71
     1
 72
     1
  1
THOROUGHLY READ ALL INSTALLATION INSTRUCTIONS
  7
SLDTEXTSTYLE0
 73
     1
 44
1.0
  0
MTEXT
  5
309
330
304
100
AcDbEntity
  8
NOTES
 62
     0
100
AcDbMText
 10
0.0
 20
-0.3083399862
 30
0.0
 40
0.1666666667
 41
0.0
 71
     1
 72
     1
  1
1.
  7
SLDTEXTSTYLE0
 73
     1
 44
1.0
  0
MTEXT
  5
30A
330
304
100
AcDbEntity
  8
NOTES
 62
     0
100
AcDbMText
 10
0.3937007874
 20
-0.5699322909
 30
0.0
 40
0.1666666667
 41
0.0
 71
     1
 72
     1
  1
BEFORE CUTTING COUNTERTOP.
  7
SLDTEXTSTYLE0
 73
     1
 44
1.0
  0
MTEXT
  5
30B
330
304
100
AcDbEntity
  8
NOTES
 62
     0
100
AcDbMText
 10
0.3937007786
 20
-1.0931169004
 30
0.0
 40
0.1666666667
 41
0.0
 71
     1
 72
     1
  1
DIMENSIONS ARE IN INCHES [MM].
  7
SLDTEXTSTYLE0
 73
     1
 44
1.0
  0
MTEXT
  5
30C
330
304
100
AcDbEntity
  8
NOTES
 62
     0
100
AcDbMText
 10
0.0
 20
-1.0931169004
 30
0.0
 40
0.1666666667
 41
0.0
 71
     1
 72
     1
  1
2.
  7
SLDTEXTSTYLE0
 73
     1
 44
1.0
  0
MTEXT
  5
30D
330
304
100
AcDbEntity
  8
NOTES
 62
     0
100
AcDbMText
 10
0.0
 20
-1.6163015098
 30
0.0
 40
0.1666666667
 41
0.0
 71
     1
 72
     1
  1
PLEASE CHECK TEMPLATE AGAINST PHYSICAL SINK FOR MOST 
  7
SLDTEXTSTYLE1
 73
     1
 44
1.0
  0
MTEXT
  5
30E
330
304
100
AcDbEntity
  8
NOTES
 62
     0
100
AcDbMText
 10
0.0
 20
-1.8778938145
 30
0.0
 40
0.1666666667
 41
0.0
 71
     1
 72
     1
  1
ACCURATE CUT.
  7
SLDTEXTSTYLE1
 73
     1
 44
1.0
  0
MTEXT
  5
30F
330
304
100
AcDbEntity
  8
NOTES
 62
     0
100
AcDbMText
 10
0.0
 20
-2.6626707287
 30
0.0
 40
0.1666666667
 41
0.0
 71
     1
 72
     1
  1
NOTAS:
  7
SLDTEXTSTYLE0
 73
     1
 44
1.0
  0
MTEXT
  5
310
330
304
100
AcDbEntity
  8
NOTES
 62
     0
100
AcDbMText
 10
0.0
 20
-3.1858553382
 30
0.0
 40
0.1666666667
 41
0.0
 71
     1
 72
     1
  1
1.     EA ATENTAMENTE LAS INSTRUCCIONES DE INSTALACIÓN ANTES 
  7
SLDTEXTSTYLE0
 73
     1
 44
1.0
  0
MTEXT
  5
311
330
304
100
AcDbEntity
  8
NOTES
 62
     0
100
AcDbMText
 10
0.0
 20
-3.4474476429
 30
0.0
 40
0.1666666667
 41
0.0
 71
     1
 72
     1
  1
        DE CORTAR LA ENCIMERA.
  7
SLDTEXTSTYLE0
 73
     1
 44
1.0
  0
MTEXT
  5
312
330
304
100
AcDbEntity
  8
NOTES
 62
     0
100
AcDbMText
 10
0.0
 20
-3.9706322524
 30
0.0
 40
0.1666666667
 41
0.0
 71
     1
 72
     1
  1
2.     DIMENSIONES EN PULGADAS [MM].
  7
SLDTEXTSTYLE0
 73
     1
 44
1.0
  0
MTEXT
  5
313
330
304
100
AcDbEntity
  8
NOTES
 62
     0
100
AcDbMText
 10
0.0
 20
-4.4938168618
 30
0.0
 40
0.1666666667
 41
0.0
 71
     1
 72
     1
  1
POR FAVOR COMPRUEBE PLANTILLA CONTRA FREGADERO FÍSICO 
  7
SLDTEXTSTYLE1
 73
     1
 44
1.0
  0
MTEXT
  5
314
330
304
100
AcDbEntity
  8
NOTES
 62
     0
100
AcDbMText
 10
0.0
 20
-4.7554091666
 30
0.0
 40
0.1666666667
 41
0.0
 71
     1
 72
     1
  1
PARA CORTE MÁS EXACTO.
  7
SLDTEXTSTYLE1
 73
     1
 44
1.0
  0
ENDBLK
  5
306
330
304
100
AcDbEntity
  8
0
100
AcDbBlockEnd
  0
BLOCK
  5
317
330
316
100
AcDbEntity
  8
0
100
AcDbBlockBegin
  2
SW_NOTE_5
 70
     0
 10
0.0
 20
0.0
 30
0.0
  3
SW_NOTE_5
  1

  0
MTEXT
  5
319
330
316
100
AcDbEntity
  8
NOTES
 62
     0
100
AcDbMText
 10
3.087890625
 20
0.4834004024
 30
0.0
 40
0.375
 41
0.0
 71
     2
 72
     1
  1
TEMPLATE #: 1000005606
  7
SLDTEXTSTYLE0
 73
     1
 44
1.0
  0
MTEXT
  5
31A
330
316
100
AcDbEntity
  8
NOTES
 62
     0
100
AcDbMText
 10
3.0892182413
 20
-0.1142089029
 30
0.0
 40
0.2083333333
 41
0.0
 71
     2
 72
     1
  1
 LEFT UNDERMOUNT TEMPLATE 31" X 20" W/ 3/4" RADIUS
  7
SLDTEXTSTYLE0
 73
     1
 44
1.0
  0
ENDBLK
  5
318
330
316
100
AcDbEntity
  8
0
100
AcDbBlockEnd
  0
ENDSEC
  0
SECTION
  2
ENTITIES
  0
LINE
  5
13C
330
1F
100
AcDbEntity
  8
OBJECTS
100
AcDbLine
 10
31.2266912497
 20
10.6423532429
 30
0.0
 11
29.4508244124
 21
10.6423532429
 31
0.0
  0
LINE
  5
13D
330
1F
100
AcDbEntity
  8
OBJECTS
100
AcDbLine
 10
1.4766912497
 20
10.6423532429
 30
0.0
 11
6.1353717415
 21
10.6423532429
 31
0.0
  0
LINE
  5
13E
330
1F
100
AcDbEntity
  8
OBJECTS
100
AcDbLine
 10
16.3516912497
 20
20.1423532429
 30
0.0
 11
16.3516912497
 21
17.4013000493
 31
0.0
  0
LINE
  5
13F
330
1F
100
AcDbEntity
  8
OBJECTS
  6
CENTER
 62
    56
100
AcDbLine
 10
16.3516912497
 20
1.1423532429
 30
0.0
 11
16.3516912497
 21
4.5172577068
 31
0.0
  0
LINE
  5
140
330
1F
100
AcDbEntity
  8
SLD-0
100
AcDbLine
 10
29.9766912497
 20
20.1423532429
 30
0.0
 11
17.4766912497
 21
20.1423532429
 31
0.0
  0
LINE
  5
141
330
1F
100
AcDbEntity
  8
SLD-0
100
AcDbLine
 10
31.2266912497
 20
2.3923532429
 30
0.0
 11
31.2266912497
 21
18.8923532429
 31
0.0
  0
LINE
  5
142
330
1F
100
AcDbEntity
  8
SLD-0
100
AcDbLine
 10
2.7266912497
 20
1.1423532429
 30
0.0
 11
29.9766912497
 21
1.1423532429
 31
0.0
  0
LINE
  5
143
330
1F
100
AcDbEntity
  8
SLD-0
100
AcDbLine
 10
1.4766912497
 20
16.8923532429
 30
0.0
 11
1.4766912497
 21
2.3923532429
 31
0.0
  0
LINE
  5
144
330
1F
100
AcDbEntity
  8
SLD-0
100
AcDbLine
 10
14.3144135896
 20
18.1423532429
 30
0.0
 11
2.7266912497
 21
18.1423532429
 31
0.0
  0
LINE
  5
145
330
1F
100
AcDbEntity
  8
SLD-0
100
AcDbLine
 10
29.9766912497
 20
19.5173532429
 30
0.0
 11
17.4766912497
 21
19.5173532429
 31
0.0
  0
LINE
  5
146
330
1F
100
AcDbEntity
  8
SLD-0
100
AcDbLine
 10
30.6016912497
 20
2.3923532429
 30
0.0
 11
30.6016912497
 21
18.8923532429
 31
0.0
  0
LINE
  5
147
330
1F
100
AcDbEntity
  8
SLD-0
100
AcDbLine
 10
2.7266912497
 20
1.7673532429
 30
0.0
 11
29.9766912497
 21
1.7673532429
 31
0.0
  0
LINE
  5
148
330
1F
100
AcDbEntity
  8
SLD-0
100
AcDbLine
 10
2.1016912497
 20
16.8923532429
 30
0.0
 11
2.1016912497
 21
2.3923532429
 31
0.0
  0
LINE
  5
149
330
1F
100
AcDbEntity
  8
SLD-0
100
AcDbLine
 10
14.3144135896
 20
17.5173532429
 30
0.0
 11
2.7266912497
 21
17.5173532429
 31
0.0
  0
LINE
  5
14A
330
1F
100
AcDbEntity
  8
SLD-0
  6
CENTERX2
100
AcDbLine
 10
2.7266912497
 20
17.6423532429
 30
0.0
 11
14.3144135896
 21
17.6423532429
 31
0.0
  0
LINE
  5
14B
330
1F
100
AcDbEntity
  8
SLD-0
  6
CENTERX2
100
AcDbLine
 10
1.9766912497
 20
16.8923532429
 30
0.0
 11
1.9766912497
 21
2.3923532429
 31
0.0
  0
LINE
  5
14C
330
1F
100
AcDbEntity
  8
SLD-0
  6
CENTERX2
100
AcDbLine
 10
2.7266912497
 20
1.6423532429
 30
0.0
 11
29.9766912497
 21
1.6423532429
 31
0.0
  0
LINE
  5
14D
330
1F
100
AcDbEntity
  8
SLD-0
  6
CENTERX2
100
AcDbLine
 10
30.7266912497
 20
18.8923532429
 30
0.0
 11
30.7266912497
 21
2.3923532429
 31
0.0
  0
LINE
  5
14E
330
1F
100
AcDbEntity
  8
SLD-0
  6
CENTERX2
100
AcDbLine
 10
17.4766912497
 20
19.6423532429
 30
0.0
 11
29.9766912497
 21
19.6423532429
 31
0.0
  0
ARC
  5
14F
330
1F
100
AcDbEntity
  8
SLD-0
100
AcDbCircle
 10
14.3144135896
 20
20.3923532429
 30
0.0
 40
2.25
100
AcDbArc
 50
270.0
 51
334.6230664748
  0
ARC
  5
150
330
1F
100
AcDbEntity
  8
SLD-0
100
AcDbCircle
 10
17.4766912497
 20
18.8923532429
 30
0.0
 40
1.249999999999998
100
AcDbArc
 50
90.0
 51
154.6230664748
  0
ARC
  5
151
330
1F
100
AcDbEntity
  8
SLD-0
100
AcDbCircle
 10
29.9766912497
 20
18.8923532429
 30
0.0
 40
1.250000000000004
100
AcDbArc
 50
0.0
 51
90.0
  0
ARC
  5
152
330
1F
100
AcDbEntity
  8
SLD-0
100
AcDbCircle
 10
29.9766912497
 20
2.3923532429
 30
0.0
 40
1.250000000000004
100
AcDbArc
 50
270.0
 51
0.0
  0
ARC
  5
153
330
1F
100
AcDbEntity
  8
SLD-0
100
AcDbCircle
 10
2.7266912497
 20
2.3923532429
 30
0.0
 40
1.25
100
AcDbArc
 50
180.0
 51
270.0
  0
ARC
  5
154
330
1F
100
AcDbEntity
  8
SLD-0
100
AcDbCircle
 10
2.7266912497
 20
16.8923532429
 30
0.0
 40
1.25
100
AcDbArc
 50
90.0
 51
180.0
  0
ARC
  5
155
330
1F
100
AcDbEntity
  8
SLD-0
100
AcDbCircle
 10
14.3144135896
 20
20.3923532429
 30
0.0
 40
2.875000000000002
100
AcDbArc
 50
270.0
 51
334.6230664748
  0
ARC
  5
156
330
1F
100
AcDbEntity
  8
SLD-0
100
AcDbCircle
 10
17.4766912497
 20
18.8923532429
 30
0.0
 40
0.6249999999999964
100
AcDbArc
 50
90.0
 51
154.6230664748
  0
ARC
  5
157
330
1F
100
AcDbEntity
  8
SLD-0
100
AcDbCircle
 10
29.9766912497
 20
18.8923532429
 30
0.0
 40
0.6250000000000036
100
AcDbArc
 50
0.0
 51
90.0
  0
ARC
  5
158
330
1F
100
AcDbEntity
  8
SLD-0
100
AcDbCircle
 10
29.9766912497
 20
2.3923532429
 30
0.0
 40
0.6250000000000036
100
AcDbArc
 50
270.0
 51
0.0
  0
ARC
  5
159
330
1F
100
AcDbEntity
  8
SLD-0
100
AcDbCircle
 10
2.7266912497
 20
2.3923532429
 30
0.0
 40
0.6250000000000011
100
AcDbArc
 50
180.0
 51
270.0
  0
ARC
  5
15A
330
1F
100
AcDbEntity
  8
SLD-0
100
AcDbCircle
 10
2.7266912497
 20
16.8923532429
 30
0.0
 40
0.625
100
AcDbArc
 50
90.0
 51
180.0
  0
ARC
  5
15B
330
1F
100
AcDbEntity
  8
SLD-0
  6
CENTERX2
100
AcDbCircle
 10
14.3144135896
 20
20.3923532429
 30
0.0
 40
2.750000000000001
100
AcDbArc
 50
270.0
 51
334.6230664748
  0
ARC
  5
15C
330
1F
100
AcDbEntity
  8
SLD-0
  6
CENTERX2
100
AcDbCircle
 10
2.7266912497
 20
16.8923532429
 30
0.0
 40
0.7500000000000007
100
AcDbArc
 50
90.0
 51
180.0
  0
ARC
  5
15D
330
1F
100
AcDbEntity
  8
SLD-0
  6
CENTERX2
100
AcDbCircle
 10
2.7266912497
 20
2.3923532429
 30
0.0
 40
0.7500000000000007
100
AcDbArc
 50
180.0
 51
270.0
  0
ARC
  5
15E
330
1F
100
AcDbEntity
  8
SLD-0
  6
CENTERX2
100
AcDbCircle
 10
29.9766912497
 20
2.3923532429
 30
0.0
 40
0.7500000000000004
100
AcDbArc
 50
270.0
 51
0.0
  0
ARC
  5
15F
330
1F
100
AcDbEntity
  8
SLD-0
  6
CENTERX2
100
AcDbCircle
 10
29.9766912497
 20
18.8923532429
 30
0.0
 40
0.75
100
AcDbArc
 50
0.0
 51
90.0
  0
ARC
  5
160
330
1F
100
AcDbEntity
  8
SLD-0
  6
CENTERX2
100
AcDbCircle
 10
17.4766912497
 20
18.8923532429
 30
0.0
 40
0.75
100
AcDbArc
 50
90.0
 51
154.6230664748
  0
INSERT
  5
161
330
1F
100
AcDbEntity
  8
BLOCKS
100
AcDbBlockReference
  2
REVEAL- .500
 10
3.5105196189
 20
-11.46636588
 30
0.0
  0
INSERT
  5
162
330
1F
100
AcDbEntity
  8
BLOCKS
100
AcDbBlockReference
  2
REVEAL - 0 (FLUSH)
 10
-15.8886103582
 20
-13.3021268303
 30
0.0
  0
INSERT
  5
163
330
1F
100
AcDbEntity
  8
BLOCKS
100
AcDbBlockReference
  2
OVERHANG - .125
 10
1.2565455072
 20
-23.0287234231
 30
0.0
  0
DIMENSION
  5
164
330
1F
100
AcDbEntity
  8
DIM
100
AcDbDimension
  2
_D
 10
27.4652621751
 20
1.1423532429
 30
0.0
 11
27.4652621751
 21
12.2059747891
 31
0.0
 70
   160
  1
<>
 71
     2
 42
-1.0
  3
SLDDIMSTYLE0
100
AcDbAlignedDimension
 13
29.9766912497
 23
20.1423532429
 33
0.0
 14
29.9766912497
 24
1.1423532429
 34
0.0
 50
90.0
100
AcDbRotatedDimension
  0
DIMENSION
  5
175
330
1F
100
AcDbEntity
  8
DIM
100
AcDbDimension
  2
_D_1
 10
26.4946271467
 20
19.6423532429
 30
0.0
 11
26.4946271467
 21
10.6364209607
 31
0.0
 70
   160
  1
<>
 71
     2
 42
-1.0
  3
SLDDIMSTYLE0
100
AcDbAlignedDimension
 13
29.9766912497
 23
1.6423532429
 33
0.0
 14
29.9766912497
 24
19.6423532429
 34
0.0
 50
90.0
100
AcDbRotatedDimension
  0
DIMENSION
  5
185
330
1F
100
AcDbEntity
  8
DIM
100
AcDbDimension
  2
_D_2
 10
25.5916543807
 20
1.7673532429
 30
0.0
 11
25.5916543807
 21
8.8052748276
 31
0.0
 70
   160
  1
<>
 71
     2
 42
-1.0
  3
SLDDIMSTYLE1
100
AcDbAlignedDimension
 13
29.9766912497
 23
19.5173532429
 33
0.0
 14
29.9766912497
 24
1.7673532429
 34
0.0
 50
90.0
100
AcDbRotatedDimension
  0
DIMENSION
  5
19A
330
1F
100
AcDbEntity
  8
DIM
100
AcDbDimension
  2
_D_3
 10
29.9766912497
 20
2.3923532429
 30
0.0
 11
28.9457050423
 21
2.8801295692
 31
0.0
 70
   164
  1
<>
 71
     1
 42
-1.0
  3
SLDDIMSTYLE2
100
AcDbRadialDimension
 15
30.418632988
 25
1.9504115047
 35
0.0
 40
0.0
  0
DIMENSION
  5
1AE
330
1F
100
AcDbEntity
  8
DIM
100
AcDbDimension
  2
_D_4
 10
29.9766912497
 20
18.8923532429
 30
0.0
 11
28.4713932986
 21
18.0000954279
 31
0.0
 70
   164
  1
<>
 71
     1
 42
-1.0
  3
SLDDIMSTYLE2
100
AcDbRadialDimension
 15
30.8605747262
 25
19.7762367194
 35
0.0
 40
0.0
  0
DIMENSION
  5
1C1
330
1F
100
AcDbEntity
  8
DIM
100
AcDbDimension
  2
_D_5
 10
9.8867487744
 20
1.1423532429
 30
0.0
 11
9.8867487744
 21
9.5900517418
 31
0.0
 70
   160
  1
<>
 71
     2
 42
-1.0
  3
SLDDIMSTYLE0
100
AcDbAlignedDimension
 13
14.3144135896
 23
18.1423532429
 33
0.0
 14
2.7266912497
 24
1.1423532429
 34
0.0
 50
90.0
100
AcDbRotatedDimension
  0
DIMENSION
  5
1D1
330
1F
100
AcDbEntity
  8
DIM
100
AcDbDimension
  2
_D_6
 10
9.1406588645
 20
1.6423532429
 30
0.0
 11
9.1406588645
 21
10.374828656
 31
0.0
 70
   160
  1
<>
 71
     2
 42
-1.0
  3
SLDDIMSTYLE0
100
AcDbAlignedDimension
 13
14.3144135896
 23
17.6423532429
 33
0.0
 14
2.7266912497
 24
1.6423532429
 34
0.0
 50
90.0
100
AcDbRotatedDimension
  0
DIMENSION
  5
1E1
330
1F
100
AcDbEntity
  8
DIM
100
AcDbDimension
  2
_D_7
 10
8.3944887927
 20
17.5173532429
 30
0.0
 11
8.3944887927
 21
11.5113881077
 31
0.0
 70
   160
  1
<>
 71
     2
 42
-1.0
  3
SLDDIMSTYLE1
100
AcDbAlignedDimension
 13
2.7266912497
 23
1.7673532429
 33
0.0
 14
2.7266912497
 24
17.5173532429
 34
0.0
 50
90.0
100
AcDbRotatedDimension
  0
DIMENSION
  5
1F5
330
1F
100
AcDbEntity
  8
DIM
100
AcDbDimension
  2
_D_8
 10
31.2266912497
 20
5.0359055081
 30
0.0
 11
18.1705682653
 21
5.0359055081
 31
0.0
 70
   160
  1
<>
 71
     2
 42
-1.0
  3
SLDDIMSTYLE1
100
AcDbAlignedDimension
 13
1.4766912497
 23
2.3923532429
 33
0.0
 14
31.2266912497
 24
2.3923532429
 34
0.0
 50
0.0
100
AcDbRotatedDimension
  0
DIMENSION
  5
209
330
1F
100
AcDbEntity
  8
DIM
100
AcDbDimension
  2
_D_9
 10
30.7266912497
 20
5.8315064853
 30
0.0
 11
16.0662644291
 21
5.8315064853
 31
0.0
 70
   160
  1
<>
 71
     2
 42
-1.0
  3
SLDDIMSTYLE1
100
AcDbAlignedDimension
 13
1.9766912497
 23
2.3923532429
 33
0.0
 14
30.7266912497
 24
2.3923532429
 34
0.0
 50
0.0
100
AcDbRotatedDimension
  0
DIMENSION
  5
21D
330
1F
100
AcDbEntity
  8
DIM
100
AcDbDimension
  2
_D_10
 10
2.1016912497
 20
6.639883056
 30
0.0
 11
19.8522710925
 21
6.639883056
 31
0.0
 70
   160
  1
<>
 71
     2
 42
-1.0
  3
SLDDIMSTYLE1
100
AcDbAlignedDimension
 13
30.6016912497
 23
2.3923532429
 33
0.0
 14
2.1016912497
 24
2.3923532429
 34
0.0
 50
0.0
100
AcDbRotatedDimension
  0
DIMENSION
  5
231
330
1F
100
AcDbEntity
  8
DIM
100
AcDbDimension
  2
_D_11
 10
2.7266912497
 20
16.8923532429
 30
0.0
 11
4.3149612098
 21
16.1266141656
 31
0.0
 70
   164
  1
<>
 71
     1
 42
-1.0
  3
SLDDIMSTYLE2
100
AcDbRadialDimension
 15
2.121711336
 25
17.335635663
 35
0.0
 40
0.0
  0
DIMENSION
  5
244
330
1F
100
AcDbEntity
  8
DIM
100
AcDbDimension
  2
_D_12
 10
17.4766912497
 20
18.8923532429
 30
0.0
 11
18.8486936854
 21
18.0635606884
 31
0.0
 70
   164
  1
<>
 71
     1
 42
-1.0
  3
SLDDIMSTYLE2
100
AcDbRadialDimension
 15
17.0347495115
 25
19.3342949812
 35
0.0
 40
0.0
  0
DIMENSION
  5
257
330
1F
100
AcDbEntity
  8
DIM
100
AcDbDimension
  2
_D_13
 10
17.4766912497
 20
18.8923532429
 30
0.0
 11
19.2288302381
 21
16.6635109651
 31
0.0
 70
   164
  1
<>
 71
     1
 42
-1.0
  3
SLDDIMSTYLE3
100
AcDbRadialDimension
 15
17.1191039995
 25
19.5516190151
 35
0.0
 40
0.0
  0
DIMENSION
  5
26C
330
1F
100
AcDbEntity
  8
DIM
100
AcDbDimension
  2
_D_14
 10
17.4766912497
 20
18.8923532429
 30
0.0
 11
18.9451208603
 21
15.4421526559
 31
0.0
 70
   164
  1
<>
 71
     1
 42
-1.0
  3
SLDDIMSTYLE2
100
AcDbRadialDimension
 15
17.1758922375
 25
20.1056215373
 35
0.0
 40
0.0
  0
DIMENSION
  5
27F
330
1F
100
AcDbEntity
  8
DIM
100
AcDbDimension
  2
_D_15
 10
14.3144135896
 20
20.3923532429
 30
0.0
 11
16.9535596027
 21
16.1487650845
 31
0.0
 70
   164
  1
<>
 71
     1
 42
-1.0
  3
SLDDIMSTYLE4
100
AcDbRadialDimension
 15
15.5531380793
 25
17.797900191
 35
0.0
 40
0.0
  0
DIMENSION
  5
293
330
1F
100
AcDbEntity
  8
DIM
100
AcDbDimension
  2
_D_16
 10
14.3144135896
 20
20.3923532429
 30
0.0
 11
15.1359105626
 21
19.3324835452
 31
0.0
 70
   164
  1
<>
 71
     1
 42
-1.0
  3
SLDDIMSTYLE4
100
AcDbRadialDimension
 15
15.999110277
 25
18.218808426
 35
0.0
 40
0.0
  0
DIMENSION
  5
2A6
330
1F
100
AcDbEntity
  8
DIM
100
AcDbDimension
  2
_D_17
 10
14.3144135896
 20
20.3923532429
 30
0.0
 11
13.6653716633
 21
16.3808473152
 31
0.0
 70
   164
  1
<>
 71
     1
 42
-1.0
  3
SLDDIMSTYLE4
100
AcDbRadialDimension
 15
14.7888838093
 25
18.1929492303
 35
0.0
 40
0.0
  0
DIMENSION
  5
2B9
330
1F
100
AcDbEntity
  8
DIM
100
AcDbDimension
  2
_D_18
 10
9.1440294717
 20
18.1423532429
 30
0.0
 11
9.1440294717
 21
18.8891260402
 31
0.0
 70
   160
  1
<>
 71
     2
 42
-1.0
  3
SLDDIMSTYLE5
100
AcDbAlignedDimension
 13
14.3144135896
 23
17.6423532429
 33
0.0
 14
14.3144135896
 24
18.1423532429
 34
0.0
 50
90.0
100
AcDbRotatedDimension
  0
DIMENSION
  5
2CE
330
1F
100
AcDbEntity
  8
DIM
100
AcDbDimension
  2
_D_19
 10
30.6016912497
 20
7.4289364493
 30
0.0
 11
29.5066283401
 21
7.4289364493
 31
0.0
 70
   160
  1
<>
 71
     2
 42
-1.0
  3
SLDDIMSTYLE5
100
AcDbAlignedDimension
 13
30.8516912497
 23
2.3923532429
 33
0.0
 14
30.6016912497
 24
2.3923532429
 34
0.0
100
AcDbRotatedDimension
  0
INSERT
  5
2E6
102
{ACAD_REACTORS
330
2E8
102
}
330
1F
100
AcDbEntity
  8
NOTES
 62
     7
100
AcDbBlockReference
  2
SW_NOTE_0
 10
20.3231168856
 20
4.5104448827
 30
0.0
  0
LEADER
  5
2E8
330
1F
100
AcDbEntity
  8
NOTES
 62
     7
100
AcDbLeader
  3
SLDDIMSTYLE6
 73
     2
 76
     3
 10
19.7396443459
 20
1.7673532429
 30
0.0
 10
20.0731168856
 20
4.5104448827
 30
0.0
 10
20.3231168856
 20
4.5104448827
 30
0.0
340
2E6
  0
INSERT
  5
2EE
102
{ACAD_REACTORS
330
2EF
102
}
330
1F
100
AcDbEntity
  8
NOTES
 62
     7
100
AcDbBlockReference
  2
SW_NOTE_1
 10
21.4999138929
 20
16.8189761827
 30
0.0
  0
LEADER
  5
2EF
330
1F
100
AcDbEntity
  8
NOTES
 62
     7
100
AcDbLeader
  3
SLDDIMSTYLE6
 73
     2
 76
     3
 10
20.2396301706
 20
20.1423532429
 30
0.0
 10
21.2499138929
 20
16.8189761827
 30
0.0
 10
21.4999138929
 20
16.8189761827
 30
0.0
340
2EE
  0
INSERT
  5
2F5
102
{ACAD_REACTORS
330
2F6
330
2F7
102
}
330
1F
100
AcDbEntity
  8
NOTES
 62
     7
100
AcDbBlockReference
  2
SW_NOTE_2
 10
3.571688511
 20
11.8821692252
 30
0.0
  0
LEADER
  5
2F6
330
1F
100
AcDbEntity
  8
NOTES
 62
     7
100
AcDbLeader
  3
SLDDIMSTYLE6
 73
     2
 76
     3
 10
1.9766912497
 20
11.3710601153
 30
0.0
 10
3.321688511
 20
11.8821692252
 30
0.0
 10
3.571688511
 20
11.8821692252
 30
0.0
340
2F5
  0
LEADER
  5
2F7
330
1F
100
AcDbEntity
  8
NOTES
 62
     7
100
AcDbLeader
  3
SLDDIMSTYLE6
 73
     2
 76
     3
 10
5.0771082668
 20
12.8548531234
 30
0.0
 10
5.9443919896
 20
11.8821692252
 30
0.0
 10
5.6943919896
 20
11.8821692252
 30
0.0
340
2F5
212
2.122703478561611
222
0.0
232
0.0
  0
MTEXT
  5
2F9
330
1F
100
AcDbEntity
  8
NOTES
 62
     7
100
AcDbMText
 10
11.7715578364
 20
2.5413741769
 30
0.0
 40
0.1666666667
 41
0.0
 71
     1
 72
     1
  1
REV: A   2/25/2020
  7
SLDTEXTSTYLE1
 73
     1
 44
1.0
  0
INSERT
  5
301
102
{ACAD_REACTORS
330
302
330
303
102
}
330
1F
100
AcDbEntity
  8
NOTES
100
AcDbBlockReference
  2
SW_NOTE_3
 10
11.1461920334
 20
8.2444034446
 30
0.0
  0
LEADER
  5
302
330
1F
100
AcDbEntity
  8
NOTES
100
AcDbLeader
  3
SLDDIMSTYLE6
 73
     2
 76
     3
 10
3.4932557864
 20
10.6423532429
 30
0.0
 10
10.8267475622
 20
8.2444034446
 30
0.0
 10
11.1461920334
 20
8.2444034446
 30
0.0
340
301
  0
LEADER
  5
303
330
1F
100
AcDbEntity
  8
NOTES
100
AcDbLeader
  3
SLDDIMSTYLE6
 73
     2
 76
     3
 10
16.3516912497
 20
2.2621263374
 30
0.0
 10
13.0559324201
 20
8.2444034446
 30
0.0
 10
12.8059324201
 20
8.2444034446
 30
0.0
340
301
212
1.659740386750757
222
0.0
232
0.0
  0
INSERT
  5
315
330
1F
100
AcDbEntity
  8
NOTES
 62
     7
100
AcDbBlockReference
  2
SW_NOTE_4
 10
16.9535596027
 20
12.6819371778
 30
0.0
  0
INSERT
  5
31B
330
1F
100
AcDbEntity
  8
NOTES
 62
     7
100
AcDbBlockReference
  2
SW_NOTE_5
 10
17.4084587584
 20
14.0333038652
 30
0.0
  0
ENDSEC
  0
SECTION
  2
OBJECTS
  0
DICTIONARY
  5
C
330
0
100
AcDbDictionary
281
     1
  3
ACAD_GROUP
350
D
  3
ACAD_LAYOUT
350
1A
  3
ACAD_MLINESTYLE
350
17
  3
ACAD_PLOTSETTINGS
350
19
  3
ACAD_PLOTSTYLENAME
350
E
  3
ACAD_SCALELIST
350
47
  0
DICTIONARY
  5
D
102
{ACAD_REACTORS
330
C
102
}
330
C
100
AcDbDictionary
281
     1
  0
DICTIONARY
  5
1A
102
{ACAD_REACTORS
330
C
102
}
330
C
100
AcDbDictionary
281
     1
  3
Layout1
350
1E
  3
Layout2
350
26
  3
Model
350
22
  0
DICTIONARY
  5
17
102
{ACAD_REACTORS
330
C
102
}
330
C
100
AcDbDictionary
281
     1
  3
Standard
350
18
  0
DICTIONARY
  5
19
102
{ACAD_REACTORS
330
C
102
}
330
C
100
AcDbDictionary
281
     1
  0
ACDBDICTIONARYWDFLT
  5
E
102
{ACAD_REACTORS
330
C
102
}
330
C
100
AcDbDictionary
281
     1
  3
Normal
350
F
100
AcDbDictionaryWithDefault
340
F
  0
DICTIONARY
  5
47
102
{ACAD_REACTORS
330
C
102
}
330
C
100
AcDbDictionary
281
     1
  3
A0
350
48
  3
A1
350
49
  3
A2
350
4A
  3
A3
350
4B
  3
A4
350
4C
  3
A5
350
4D
  3
A6
350
4E
  3
A7
350
4F
  3
A8
350
50
  3
A9
350
51
  3
B0
350
52
  3
B1
350
53
  3
B2
350
54
  3
B3
350
55
  3
B4
350
56
  3
B5
350
57
  3
B6
350
58
  3
B7
350
59
  3
B8
350
5A
  3
B9
350
5B
  3
C0
350
5C
  3
C1
350
5D
  3
C2
350
5E
  3
C3
350
5F
  3
C4
350
60
  3
C5
350
61
  3
C6
350
62
  3
C7
350
63
  3
C8
350
64
  3
C9
350
65
  3
D0
350
66
  3
D1
350
67
  3
D2
350
68
  0
LAYOUT
  5
1E
102
{ACAD_REACTORS
330
1A
102
}
330
1A
100
AcDbPlotSettings
  1

  2
none_device
  4

  6

 40
0.0
 41
0.0
 42
0.0
 43
0.0
 44
0.0
 45
0.0
 46
0.0
 47
0.0
 48
0.0
 49
0.0
140
0.0
141
0.0
142
1.0
143
1.0
 70
   688
 72
     0
 73
     0
 74
     5
  7

 75
    16
147
1.0
148
0.0
149
0.0
100
AcDbLayout
  1
Layout1
 70
     1
 71
     1
 10
0.0
 20
0.0
 11
12.0
 21
9.0
 12
0.0
 22
0.0
 32
0.0
 14
1.0000000000E+20
 24
1.0000000000E+20
 34
1.0000000000E+20
 15
-1.0000000000E+20
 25
-1.0000000000E+20
 35
-1.0000000000E+20
146
0.0
 13
0.0
 23
0.0
 33
0.0
 16
1.0
 26
0.0
 36
0.0
 17
0.0
 27
1.0
 37
0.0
 76
     0
330
1B
  0
LAYOUT
  5
26
102
{ACAD_REACTORS
330
1A
102
}
330
1A
100
AcDbPlotSettings
  1

  2
none_device
  4

  6

 40
0.0
 41
0.0
 42
0.0
 43
0.0
 44
0.0
 45
0.0
 46
0.0
 47
0.0
 48
0.0
 49
0.0
140
0.0
141
0.0
142
1.0
143
1.0
 70
   688
 72
     0
 73
     0
 74
     5
  7

 75
    16
147
1.0
148
0.0
149
0.0
100
AcDbLayout
  1
Layout2
 70
     1
 71
     2
 10
0.0
 20
0.0
 11
0.0
 21
0.0
 12
0.0
 22
0.0
 32
0.0
 14
0.0
 24
0.0
 34
0.0
 15
0.0
 25
0.0
 35
0.0
146
0.0
 13
0.0
 23
0.0
 33
0.0
 16
1.0
 26
0.0
 36
0.0
 17
0.0
 27
1.0
 37
0.0
 76
     0
330
23
  0
LAYOUT
  5
22
102
{ACAD_REACTORS
330
1A
102
}
330
1A
100
AcDbPlotSettings
  1

  2
none_device
  4
Letter_(8.50_x_11.00_Inches)
  6

 40
6.35
 41
6.35
 42
6.35000508
 43
6.35000508
 44
215.9
 45
279.4
 46
0.0
 47
0.0
 48
0.0
 49
0.0
140
0.0
141
0.0
142
1.0
143
1.0
 70
  1712
 72
     0
 73
     0
 74
     0
  7

 75
     0
147
1.0
148
0.0
149
0.0
100
AcDbLayout
  1
Model
 70
     1
 71
     0
 10
0.0
 20
0.0
 11
34.0
 21
22.0
 12
0.0
 22
0.0
 32
0.0
 14
0.0
 24
0.0
 34
0.0
 15
34.0
 25
22.0
 35
0.0
146
0.0
 13
0.0
 23
0.0
 33
0.0
 16
1.0
 26
0.0
 36
0.0
 17
0.0
 27
1.0
 37
0.0
 76
     0
330
1F
331
29
  0
MLINESTYLE
  5
18
102
{ACAD_REACTORS
330
17
102
}
330
17
100
AcDbMlineStyle
  2
Standard
 70
     0
  3

 62
   256
 51
90.0
 52
90.0
 71
     2
 49
0.5
 62
   256
  6
BYLAYER
 49
-0.5
 62
   256
  6
BYLAYER
  0
ACDBPLACEHOLDER
  5
F
102
{ACAD_REACTORS
330
E
102
}
330
E
  0
SCALE
  5
48
102
{ACAD_REACTORS
330
47
102
}
330
47
100
AcDbScale
 70
     0
300
1:1
140
1.0
141
1.0
290
     1
  0
SCALE
  5
49
102
{ACAD_REACTORS
330
47
102
}
330
47
100
AcDbScale
 70
     0
300
1:2
140
1.0
141
2.0
290
     0
  0
SCALE
  5
4A
102
{ACAD_REACTORS
330
47
102
}
330
47
100
AcDbScale
 70
     0
300
1:4
140
1.0
141
4.0
290
     0
  0
SCALE
  5
4B
102
{ACAD_REACTORS
330
47
102
}
330
47
100
AcDbScale
 70
     0
300
1:5
140
1.0
141
5.0
290
     0
  0
SCALE
  5
4C
102
{ACAD_REACTORS
330
47
102
}
330
47
100
AcDbScale
 70
     0
300
1:8
140
1.0
141
8.0
290
     0
  0
SCALE
  5
4D
102
{ACAD_REACTORS
330
47
102
}
330
47
100
AcDbScale
 70
     0
300
1:10
140
1.0
141
10.0
290
     0
  0
SCALE
  5
4E
102
{ACAD_REACTORS
330
47
102
}
330
47
100
AcDbScale
 70
     0
300
1:16
140
1.0
141
16.0
290
     0
  0
SCALE
  5
4F
102
{ACAD_REACTORS
330
47
102
}
330
47
100
AcDbScale
 70
     0
300
1:20
140
1.0
141
20.0
290
     0
  0
SCALE
  5
50
102
{ACAD_REACTORS
330
47
102
}
330
47
100
AcDbScale
 70
     0
300
1:30
140
1.0
141
30.0
290
     0
  0
SCALE
  5
51
102
{ACAD_REACTORS
330
47
102
}
330
47
100
AcDbScale
 70
     0
300
1:40
140
1.0
141
40.0
290
     0
  0
SCALE
  5
52
102
{ACAD_REACTORS
330
47
102
}
330
47
100
AcDbScale
 70
     0
300
1:50
140
1.0
141
50.0
290
     0
  0
SCALE
  5
53
102
{ACAD_REACTORS
330
47
102
}
330
47
100
AcDbScale
 70
     0
300
1:100
140
1.0
141
100.0
290
     0
  0
SCALE
  5
54
102
{ACAD_REACTORS
330
47
102
}
330
47
100
AcDbScale
 70
     0
300
2:1
140
2.0
141
1.0
290
     0
  0
SCALE
  5
55
102
{ACAD_REACTORS
330
47
102
}
330
47
100
AcDbScale
 70
     0
300
4:1
140
4.0
141
1.0
290
     0
  0
SCALE
  5
56
102
{ACAD_REACTORS
330
47
102
}
330
47
100
AcDbScale
 70
     0
300
8:1
140
8.0
141
1.0
290
     0
  0
SCALE
  5
57
102
{ACAD_REACTORS
330
47
102
}
330
47
100
AcDbScale
 70
     0
300
10:1
140
10.0
141
1.0
290
     0
  0
SCALE
  5
58
102
{ACAD_REACTORS
330
47
102
}
330
47
100
AcDbScale
 70
     0
300
100:1
140
100.0
141
1.0
290
     0
  0
SCALE
  5
59
102
{ACAD_REACTORS
330
47
102
}
330
47
100
AcDbScale
 70
     0
300
1/128" = 1'-0"
140
0.0078125
141
12.0
290
     0
  0
SCALE
  5
5A
102
{ACAD_REACTORS
330
47
102
}
330
47
100
AcDbScale
 70
     0
300
1/64" = 1'-0"
140
0.015625
141
12.0
290
     0
  0
SCALE
  5
5B
102
{ACAD_REACTORS
330
47
102
}
330
47
100
AcDbScale
 70
     0
300
1/32" = 1'-0"
140
0.03125
141
12.0
290
     0
  0
SCALE
  5
5C
102
{ACAD_REACTORS
330
47
102
}
330
47
100
AcDbScale
 70
     0
300
1/16" = 1'-0"
140
0.0625
141
12.0
290
     0
  0
SCALE
  5
5D
102
{ACAD_REACTORS
330
47
102
}
330
47
100
AcDbScale
 70
     0
300
3/32" = 1'-0"
140
0.09375
141
12.0
290
     0
  0
SCALE
  5
5E
102
{ACAD_REACTORS
330
47
102
}
330
47
100
AcDbScale
 70
     0
300
1/8" = 1'-0"
140
0.125
141
12.0
290
     0
  0
SCALE
  5
5F
102
{ACAD_REACTORS
330
47
102
}
330
47
100
AcDbScale
 70
     0
300
3/16" = 1'-0"
140
0.1875
141
12.0
290
     0
  0
SCALE
  5
60
102
{ACAD_REACTORS
330
47
102
}
330
47
100
AcDbScale
 70
     0
300
1/4" = 1'-0"
140
0.25
141
12.0
290
     0
  0
SCALE
  5
61
102
{ACAD_REACTORS
330
47
102
}
330
47
100
AcDbScale
 70
     0
300
3/8" = 1'-0"
140
0.375
141
12.0
290
     0
  0
SCALE
  5
62
102
{ACAD_REACTORS
330
47
102
}
330
47
100
AcDbScale
 70
     0
300
1/2" = 1'-0"
140
0.5
141
12.0
290
     0
  0
SCALE
  5
63
102
{ACAD_REACTORS
330
47
102
}
330
47
100
AcDbScale
 70
     0
300
3/4" = 1'-0"
140
0.75
141
12.0
290
     0
  0
SCALE
  5
64
102
{ACAD_REACTORS
330
47
102
}
330
47
100
AcDbScale
 70
     0
300
1" = 1'-0"
140
1.0
141
12.0
290
     0
  0
SCALE
  5
65
102
{ACAD_REACTORS
330
47
102
}
330
47
100
AcDbScale
 70
     0
300
1-1/2" = 1'-0"
140
1.5
141
12.0
290
     0
  0
SCALE
  5
66
102
{ACAD_REACTORS
330
47
102
}
330
47
100
AcDbScale
 70
     0
300
3" = 1'-0"
140
3.0
141
12.0
290
     0
  0
SCALE
  5
67
102
{ACAD_REACTORS
330
47
102
}
330
47
100
AcDbScale
 70
     0
300
6" = 1'-0"
140
6.0
141
12.0
290
     0
  0
SCALE
  5
68
102
{ACAD_REACTORS
330
47
102
}
330
47
100
AcDbScale
 70
     0
300
1'-0" = 1'-0"
140
12.0
141
12.0
290
     0
  0
ENDSEC
  0
EOF
