  0
SECTION
  2
HEADER
  9
$ACADVER
  1
AC1015
  9
$ACADMAINTVER
 70
     6
  9
$DWGCODEPAGE
  3
ANSI_1252
  9
$INSBASE
 10
0.0
 20
0.0
 30
0.0
  9
$EXTMIN
 10
0.0
 20
0.0
 30
0.0
  9
$EXTMAX
 10
34.0
 20
22.0
 30
0.0
  9
$LIMMIN
 10
0.0
 20
0.0
  9
$LIMMAX
 10
34.0
 20
22.0
  9
$ORTHOMODE
 70
     0
  9
$REGENMODE
 70
     1
  9
$FILLMODE
 70
     1
  9
$QTEXTMODE
 70
     0
  9
$MIRRTEXT
 70
     1
  9
$LTSCALE
 40
1.0
  9
$ATTMODE
 70
     1
  9
$TEXTSIZE
 40
0.2222222222
  9
$TRACEWID
 40
0.05
  9
$TEXTSTYLE
  7
STANDARD
  9
$CLAYER
  8
0
  9
$CELTYPE
  6
ByLayer
  9
$CECOLOR
 62
   256
  9
$CELTSCALE
 40
1.0
  9
$DISPSILH
 70
     0
  9
$DIMSCALE
 40
1.0
  9
$DIMASZ
 40
0.2022298177
  9
$DIMEXO
 40
0.05
  9
$DIMDLI
 40
0.38
  9
$DIMRND
 40
0.0
  9
$DIMDLE
 40
0.0
  9
$DIMEXE
 40
0.125
  9
$DIMTP
 40
0.0
  9
$DIMTM
 40
0.0
  9
$DIMTXT
 40
0.2777777778
  9
$DIMCEN
 40
0.09
  9
$DIMTSZ
 40
0.0
  9
$DIMTOL
 70
     0
  9
$DIMLIM
 70
     0
  9
$DIMTIH
 70
     1
  9
$DIMTOH
 70
     1
  9
$DIMSE1
 70
     0
  9
$DIMSE2
 70
     0
  9
$DIMTAD
 70
     0
  9
$DIMZIN
 70
     0
  9
$DIMBLK
  1

  9
$DIMASO
 70
     1
  9
$DIMSHO
 70
     1
  9
$DIMPOST
  1

  9
$DIMAPOST
  1

  9
$DIMALT
 70
     0
  9
$DIMALTD
 70
     2
  9
$DIMALTF
 40
25.4
  9
$DIMLFAC
 40
1.0
  9
$DIMTOFL
 70
     0
  9
$DIMTVP
 40
0.0
  9
$DIMTIX
 70
     0
  9
$DIMSOXD
 70
     0
  9
$DIMSAH
 70
     0
  9
$DIMBLK1
  1

  9
$DIMBLK2
  1

  9
$DIMSTYLE
  2
Standard
  9
$DIMCLRD
 70
     0
  9
$DIMCLRE
 70
     0
  9
$DIMCLRT
 70
     0
  9
$DIMTFAC
 40
1.0
  9
$DIMGAP
 40
0.06
  9
$DIMJUST
 70
     0
  9
$DIMSD1
 70
     0
  9
$DIMSD2
 70
     0
  9
$DIMTOLJ
 70
     1
  9
$DIMTZIN
 70
     0
  9
$DIMALTZ
 70
     0
  9
$DIMALTTZ
 70
     0
  9
$DIMUPT
 70
     0
  9
$DIMDEC
 70
     2
  9
$DIMTDEC
 70
     2
  9
$DIMALTU
 70
     2
  9
$DIMALTTD
 70
     2
  9
$DIMTXSTY
  7
STANDARD
  9
$DIMAUNIT
 70
     0
  9
$DIMADEC
 70
     0
  9
$DIMALTRND
 40
0.0
  9
$DIMAZIN
 70
     0
  9
$DIMDSEP
 70
    46
  9
$DIMATFIT
 70
     3
  9
$DIMFRAC
 70
     0
  9
$DIMLDRBLK
  1

  9
$DIMLUNIT
 70
     2
  9
$DIMLWD
 70
    -2
  9
$DIMLWE
 70
    -2
  9
$DIMTMOVE
 70
     0
  9
$LUNITS
 70
     2
  9
$LUPREC
 70
     2
  9
$SKETCHINC
 40
0.1
  9
$FILLETRAD
 40
0.5
  9
$AUNITS
 70
     0
  9
$AUPREC
 70
     0
  9
$MENU
  1
.
  9
$ELEVATION
 40
0.0
  9
$PELEVATION
 40
0.0
  9
$THICKNESS
 40
0.0
  9
$LIMCHECK
 70
     0
  9
$CHAMFERA
 40
0.0
  9
$CHAMFERB
 40
0.0
  9
$CHAMFERC
 40
0.0
  9
$CHAMFERD
 40
0.0
  9
$SKPOLY
 70
     0
  9
$TDCREATE
 40
2458914.676069028
  9
$TDUCREATE
 40
2458914.926069028
  9
$TDUPDATE
 40
2458914.676071655
  9
$TDUUPDATE
 40
2458914.926071655
  9
$TDINDWG
 40
0.0000000116
  9
$TDUSRTIMER
 40
0.0000000116
  9
$USRTIMER
 70
     1
  9
$ANGBASE
 50
0.0
  9
$ANGDIR
 70
     0
  9
$PDMODE
 70
     0
  9
$PDSIZE
 40
-1.0
  9
$PLINEWID
 40
0.0
  9
$SPLFRAME
 70
     0
  9
$SPLINETYPE
 70
     6
  9
$SPLINESEGS
 70
     8
  9
$HANDSEED
  5
31D
  9
$SURFTAB1
 70
     6
  9
$SURFTAB2
 70
     6
  9
$SURFTYPE
 70
     6
  9
$SURFU
 70
     6
  9
$SURFV
 70
     6
  9
$UCSBASE
  2

  9
$UCSNAME
  2

  9
$UCSORG
 10
0.0
 20
0.0
 30
0.0
  9
$UCSXDIR
 10
1.0
 20
0.0
 30
0.0
  9
$UCSYDIR
 10
0.0
 20
1.0
 30
0.0
  9
$UCSORTHOREF
  2

  9
$UCSORTHOVIEW
 70
     0
  9
$UCSORGTOP
 10
0.0
 20
0.0
 30
0.0
  9
$UCSORGBOTTOM
 10
0.0
 20
0.0
 30
0.0
  9
$UCSORGLEFT
 10
0.0
 20
0.0
 30
0.0
  9
$UCSORGRIGHT
 10
0.0
 20
0.0
 30
0.0
  9
$UCSORGFRONT
 10
0.0
 20
0.0
 30
0.0
  9
$UCSORGBACK
 10
0.0
 20
0.0
 30
0.0
  9
$PUCSBASE
  2

  9
$PUCSNAME
  2

  9
$PUCSORG
 10
0.0
 20
0.0
 30
0.0
  9
$PUCSXDIR
 10
1.0
 20
0.0
 30
0.0
  9
$PUCSYDIR
 10
0.0
 20
1.0
 30
0.0
  9
$PUCSORTHOREF
  2

  9
$PUCSORTHOVIEW
 70
     0
  9
$PUCSORGTOP
 10
0.0
 20
0.0
 30
0.0
  9
$PUCSORGBOTTOM
 10
0.0
 20
0.0
 30
0.0
  9
$PUCSORGLEFT
 10
0.0
 20
0.0
 30
0.0
  9
$PUCSORGRIGHT
 10
0.0
 20
0.0
 30
0.0
  9
$PUCSORGFRONT
 10
0.0
 20
0.0
 30
0.0
  9
$PUCSORGBACK
 10
0.0
 20
0.0
 30
0.0
  9
$USERI1
 70
     0
  9
$USERI2
 70
     0
  9
$USERI3
 70
     0
  9
$USERI4
 70
     0
  9
$USERI5
 70
     0
  9
$USERR1
 40
0.0
  9
$USERR2
 40
0.0
  9
$USERR3
 40
0.0
  9
$USERR4
 40
0.0
  9
$USERR5
 40
0.0
  9
$WORLDVIEW
 70
     1
  9
$SHADEDGE
 70
     3
  9
$SHADEDIF
 70
    70
  9
$TILEMODE
 70
     1
  9
$MAXACTVP
 70
    64
  9
$PINSBASE
 10
0.0
 20
0.0
 30
0.0
  9
$PLIMCHECK
 70
     0
  9
$PEXTMIN
 10
1.0000000000E+20
 20
1.0000000000E+20
 30
1.0000000000E+20
  9
$PEXTMAX
 10
-1.0000000000E+20
 20
-1.0000000000E+20
 30
-1.0000000000E+20
  9
$PLIMMIN
 10
0.0
 20
0.0
  9
$PLIMMAX
 10
12.0
 20
9.0
  9
$UNITMODE
 70
     0
  9
$VISRETAIN
 70
     1
  9
$PLINEGEN
 70
     0
  9
$PSLTSCALE
 70
     1
  9
$TREEDEPTH
 70
  3020
  9
$CMLSTYLE
  2
Standard
  9
$CMLJUST
 70
     0
  9
$CMLSCALE
 40
1.0
  9
$PROXYGRAPHICS
 70
     1
  9
$MEASUREMENT
 70
     0
  9
$CELWEIGHT
370
    -1
  9
$ENDCAPS
280
     0
  9
$JOINSTYLE
280
     0
  9
$LWDISPLAY
290
     1
  9
$INSUNITS
 70
     1
  9
$HYPERLINKBASE
  1

  9
$STYLESHEET
  1

  9
$XEDIT
290
     1
  9
$CEPSNTYPE
380
     0
  9
$PSTYLEMODE
290
     1
  9
$FINGERPRINTGUID
  2
{5B77FB44-A7FF-46FD-A6FD-60C9388620CC}
  9
$VERSIONGUID
  2
{FAEB1C32-E019-11D5-929B-00C0DF256EC4}
  9
$EXTNAMES
290
     1
  9
$PSVPSCALE
 40
0.0
  9
$OLESTARTUP
290
     0
  0
ENDSEC
  0
SECTION
  2
CLASSES
  0
CLASS
  1
ACDBDICTIONARYWDFLT
  2
AcDbDictionaryWithDefault
  3
ObjectDBX Classes
 90
        0
280
     0
281
     0
  0
CLASS
  1
VISUALSTYLE
  2
AcDbVisualStyle
  3
ObjectDBX Classes
 90
     4095
280
     0
281
     0
  0
CLASS
  1
MATERIAL
  2
AcDbMaterial
  3
ObjectDBX Classes
 90
     1153
280
     0
281
     0
  0
CLASS
  1
SCALE
  2
AcDbScale
  3
ObjectDBX Classes
 90
     1153
280
     0
281
     0
  0
CLASS
  1
TABLESTYLE
  2
AcDbTableStyle
  3
ObjectDBX Classes
 90
     4095
280
     0
281
     0
  0
CLASS
  1
MLEADERSTYLE
  2
AcDbMLeaderStyle
  3
ACDB_MLEADERSTYLE_CLASS
 90
     4095
280
     0
281
     0
  0
CLASS
  1
SUN
  2
AcDbSun
  3
SCENEOE
 90
     1153
280
     0
281
     0
  0
CLASS
  1
ACDBPLACEHOLDER
  2
AcDbPlaceHolder
  3
ObjectDBX Classes
 90
        0
280
     0
281
     0
  0
CLASS
  1
LAYOUT
  2
AcDbLayout
  3
ObjectDBX Classes
 90
        0
280
     0
281
     0
  0
ENDSEC
  0
SECTION
  2
TABLES
  0
TABLE
  2
VPORT
  5
8
330
0
100
AcDbSymbolTable
 70
     1
  0
VPORT
  5
29
330
8
100
AcDbSymbolTableRecord
100
AcDbViewportTableRecord
  2
*Active
 70
     0
 10
0.0
 20
0.0
 11
1.0
 21
1.0
 12
17.0
 22
11.0
 13
0.0
 23
0.0
 14
0.5
 24
0.5
 15
0.5
 25
0.5
 16
0.0
 26
0.0
 36
1.0
 17
0.0
 27
0.0
 37
0.0
 40
22.0
 41
1.5454545455
 42
50.0
 43
0.0
 44
0.0
 50
0.0
 51
0.0
 71
     0
 72
  2000
 73
     1
 74
     3
 75
     0
 76
     0
 77
     0
 78
     0
281
     0
 65
     1
110
0.0
120
0.0
130
0.0
111
1.0
121
0.0
131
0.0
112
0.0
122
1.0
132
0.0
 79
     0
146
0.0
  0
ENDTAB
  0
TABLE
  2
LTYPE
  5
5
330
0
100
AcDbSymbolTable
 70
     6
  0
LTYPE
  5
14
330
5
100
AcDbSymbolTableRecord
100
AcDbLinetypeTableRecord
  2
ByBlock
 70
     0
  3

 72
    65
 73
     0
 40
0.0
  0
LTYPE
  5
15
330
5
100
AcDbSymbolTableRecord
100
AcDbLinetypeTableRecord
  2
ByLayer
 70
     0
  3

 72
    65
 73
     0
 40
0.0
  0
LTYPE
  5
16
330
5
100
AcDbSymbolTableRecord
100
AcDbLinetypeTableRecord
  2
Continuous
 70
     0
  3
Solid line
 72
    65
 73
     0
 40
0.0
  0
LTYPE
  5
6E
330
5
100
AcDbSymbolTableRecord
100
AcDbLinetypeTableRecord
  2
HIDDEN
 70
     0
  3
Hidden __ __ __ __ __ __ __ __ __ __ __ __ __ __
 72
    65
 73
     2
 40
0.075
 49
0.05
 74
     0
 49
-0.025
 74
     0
  0
LTYPE
  5
6F
330
5
100
AcDbSymbolTableRecord
100
AcDbLinetypeTableRecord
  2
PHANTOM
 70
     0
  3
Phantom ______  __  __  ______  __  __  ______
 72
    65
 73
     6
 40
0.5
 49
0.25
 74
     0
 49
-0.05
 74
     0
 49
0.05
 74
     0
 49
-0.05
 74
     0
 49
0.05
 74
     0
 49
-0.05
 74
     0
  0
LTYPE
  5
70
330
5
100
AcDbSymbolTableRecord
100
AcDbLinetypeTableRecord
  2
CENTER
 70
     0
  3
Center ____ _ ____ _ ____ _ ____ _ ____ _ ____
 72
    65
 73
     4
 40
0.4
 49
0.25
 74
     0
 49
-0.05
 74
     0
 49
0.05
 74
     0
 49
-0.05
 74
     0
  0
LTYPE
  5
71
330
5
100
AcDbSymbolTableRecord
100
AcDbLinetypeTableRecord
  2
CENTERX2
 70
     0
  3
Center (2x) ________  __  ________  __  _____
 72
    65
 73
     4
 40
0.8
 49
0.5
 74
     0
 49
-0.1
 74
     0
 49
0.1
 74
     0
 49
-0.1
 74
     0
  0
LTYPE
  5
72
330
5
100
AcDbSymbolTableRecord
100
AcDbLinetypeTableRecord
  2
DOT2
 70
     0
  3
Dot (.5x) ........................................
 72
    65
 73
     2
 40
0.025
 49
0.0
 74
     0
 49
-0.025
 74
     0
  0
ENDTAB
  0
TABLE
  2
LAYER
  5
2
330
0
100
AcDbSymbolTable
 70
     7
  0
LAYER
  5
10
330
2
100
AcDbSymbolTableRecord
100
AcDbLayerTableRecord
  2
0
 70
     0
 62
     7
  6
Continuous
370
    -3
390
F
  0
LAYER
  5
73
330
2
100
AcDbSymbolTableRecord
100
AcDbLayerTableRecord
  2
DIM
 70
     0
 62
     1
  6
Continuous
370
    -3
390
F
  0
LAYER
  5
74
330
2
100
AcDbSymbolTableRecord
100
AcDbLayerTableRecord
  2
NOTES
 70
     0
 62
     7
  6
Continuous
370
    -3
390
F
  0
LAYER
  5
75
330
2
100
AcDbSymbolTableRecord
100
AcDbLayerTableRecord
  2
SLD-0
 70
     0
 62
     7
  6
Continuous
370
    -3
390
F
  0
LAYER
  5
76
330
2
100
AcDbSymbolTableRecord
100
AcDbLayerTableRecord
  2
BLOCKS
 70
     0
 62
    16
  6
Continuous
370
    -3
390
F
  0
LAYER
  5
77
330
2
100
AcDbSymbolTableRecord
100
AcDbLayerTableRecord
  2
CENTERLINES
 70
     0
 62
     7
  6
Continuous
370
    -3
390
F
  0
LAYER
  5
78
330
2
100
AcDbSymbolTableRecord
100
AcDbLayerTableRecord
  2
OBJECTS
 70
     0
 62
    56
  6
CENTER
370
    -3
390
F
  0
ENDTAB
  0
TABLE
  2
STYLE
  5
3
330
0
100
AcDbSymbolTable
 70
     3
  0
STYLE
  5
11
330
3
100
AcDbSymbolTableRecord
100
AcDbTextStyleTableRecord
  2
STANDARD
 70
     0
 40
0.0
 41
1.0
 50
0.0
 71
     0
 42
0.2222222222
  3
ARIAL.TTF
  4

1001
ACAD
1000
ARIAL
1071
       34
  0
STYLE
  5
BB
330
3
100
AcDbSymbolTableRecord
100
AcDbTextStyleTableRecord
  2
SLDTEXTSTYLE0
 70
     0
 40
0.0
 41
0.948
 50
0.0
 71
     0
 42
0.2222222222
  3
ARIAL.TTF
  4

1001
ACAD
1000
Arial
1071
      290
  0
STYLE
  5
2F9
330
3
100
AcDbSymbolTableRecord
100
AcDbTextStyleTableRecord
  2
SLDTEXTSTYLE1
 70
     0
 40
0.0
 41
0.948
 50
0.0
 71
     0
 42
0.2222222222
  3
ARIALBD.TTF
  4

1001
ACAD
1000
Arial
1071
 33554722
  0
ENDTAB
  0
TABLE
  2
VIEW
  5
6
330
0
100
AcDbSymbolTable
 70
     0
  0
ENDTAB
  0
TABLE
  2
UCS
  5
7
330
0
100
AcDbSymbolTable
 70
     0
  0
ENDTAB
  0
TABLE
  2
APPID
  5
9
330
0
100
AcDbSymbolTable
 70
     1
  0
APPID
  5
12
330
9
100
AcDbSymbolTableRecord
100
AcDbRegAppTableRecord
  2
ACAD
 70
     0
  0
ENDTAB
  0
TABLE
  2
DIMSTYLE
  5
A
330
0
100
AcDbSymbolTable
 70
     8
100
AcDbDimStyleTable
  0
DIMSTYLE
105
27
330
A
100
AcDbSymbolTableRecord
100
AcDbDimStyleTableRecord
  2
Standard
 70
     0
178
     0
340
11
  0
DIMSTYLE
105
165
102
{ACAD_REACTORS
330
164
330
18A
330
19A
330
2BF
102
}
330
A
100
AcDbSymbolTableRecord
100
AcDbDimStyleTableRecord
  2
SLDDIMSTYLE0
 70
     0
 41
0.2022298177
 44
0.0
 45
0.000000001
 78
    12
 79
     3
140
0.2022298177
147
0.0505574544
148
0.000000001
170
     1
171
     1
173
     1
178
     0
271
     2
272
     2
274
     1
276
     2
277
     5
284
    12
340
BB
  0
DIMSTYLE
105
176
102
{ACAD_REACTORS
330
175
330
1AA
330
1BE
330
1D2
330
1E6
102
}
330
A
100
AcDbSymbolTableRecord
100
AcDbDimStyleTableRecord
  2
SLDDIMSTYLE1
 70
     0
 41
0.2022298177
 44
0.0
 45
0.000000001
 78
    12
 79
     3
140
0.2022298177
147
0.0505574544
148
0.000000001
170
     1
171
     1
173
     1
178
     0
271
     6
272
     2
274
     1
276
     2
277
     5
284
    12
340
BB
  0
DIMSTYLE
105
1FB
102
{ACAD_REACTORS
330
1FA
330
20E
330
285
330
2AC
102
}
330
A
100
AcDbSymbolTableRecord
100
AcDbDimStyleTableRecord
  2
SLDDIMSTYLE2
 70
     0
 41
0.2022298177
 44
0.0
 45
0.000000001
 78
    12
 79
     3
140
0.2022298177
141
0.0
147
0.0505574544
148
0.000000001
170
     1
171
     1
173
     1
178
     0
271
     2
272
     2
274
     1
276
     2
277
     5
279
     1
284
    12
340
BB
  0
DIMSTYLE
105
222
102
{ACAD_REACTORS
330
221
330
298
102
}
330
A
100
AcDbSymbolTableRecord
100
AcDbDimStyleTableRecord
  2
SLDDIMSTYLE3
 70
     0
 41
0.2022298177
 44
0.0
 45
0.000000001
 78
    12
 79
     3
140
0.2022298177
141
0.0
147
0.0505574544
148
0.000000001
170
     1
171
     1
173
     1
178
     0
271
     2
272
     2
274
     1
276
     2
277
     5
279
     1
284
    12
340
BB
  0
DIMSTYLE
105
237
102
{ACAD_REACTORS
330
236
330
2CF
102
}
330
A
100
AcDbSymbolTableRecord
100
AcDbDimStyleTableRecord
  2
SLDDIMSTYLE4
 70
     0
 41
0.2022298177
 44
0.0
 45
0.000000001
 78
    12
 79
     3
140
0.2022298177
147
0.0505574544
148
0.000000001
170
     1
171
     1
172
     1
173
     1
178
     0
271
     6
272
     2
274
     1
276
     2
277
     5
284
    12
289
     0
340
BB
  0
DIMSTYLE
105
24C
102
{ACAD_REACTORS
330
24B
330
25F
330
272
102
}
330
A
100
AcDbSymbolTableRecord
100
AcDbDimStyleTableRecord
  2
SLDDIMSTYLE5
 70
     0
 41
0.2022298177
 44
0.0
 45
0.000000001
 78
    12
 79
     3
140
0.2022298177
141
0.0
147
0.0505574544
148
0.000000001
170
     1
171
     1
173
     1
178
     0
271
     2
272
     2
274
     1
276
     2
277
     5
284
    12
340
BB
  0
DIMSTYLE
105
2E8
330
A
100
AcDbSymbolTableRecord
100
AcDbDimStyleTableRecord
  2
SLDDIMSTYLE6
 70
     0
 41
0.2022298177
 44
0.0
 45
0.000000001
146
0.2022298177
147
0.0
173
     1
178
     0
271
     0
272
     0
276
     2
277
     5
340
11
  0
ENDTAB
  0
TABLE
  2
BLOCK_RECORD
  5
1
330
0
100
AcDbSymbolTable
 70
    32
  0
BLOCK_RECORD
  5
1F
330
1
100
AcDbSymbolTableRecord
100
AcDbBlockTableRecord
  2
*Model_Space
340
22
  0
BLOCK_RECORD
  5
1B
330
1
100
AcDbSymbolTableRecord
100
AcDbBlockTableRecord
  2
*Paper_Space
340
1E
  0
BLOCK_RECORD
  5
23
330
1
100
AcDbSymbolTableRecord
100
AcDbBlockTableRecord
  2
*Paper_Space0
340
26
  0
BLOCK_RECORD
  5
79
330
1
100
AcDbSymbolTableRecord
100
AcDbBlockTableRecord
  2
REVEAL- .500
340
0
102
{BLKREFS
331
163
102
}
  0
BLOCK_RECORD
  5
AB
330
1
100
AcDbSymbolTableRecord
100
AcDbBlockTableRecord
  2
SW_BLOCK_DIMENSION_0
340
0
102
{BLKREFS
331
C0
102
}
  0
BLOCK_RECORD
  5
C1
330
1
100
AcDbSymbolTableRecord
100
AcDbBlockTableRecord
  2
OVERHANG - .125
340
0
102
{BLKREFS
331
161
102
}
  0
BLOCK_RECORD
  5
F3
330
1
100
AcDbSymbolTableRecord
100
AcDbBlockTableRecord
  2
SW_BLOCK_DIMENSION_1
340
0
102
{BLKREFS
331
107
102
}
  0
BLOCK_RECORD
  5
108
330
1
100
AcDbSymbolTableRecord
100
AcDbBlockTableRecord
  2
REVEAL - 0 (FLUSH)
340
0
102
{BLKREFS
331
162
102
}
  0
BLOCK_RECORD
  5
166
330
1
100
AcDbSymbolTableRecord
100
AcDbBlockTableRecord
  2
_D
340
0
  0
BLOCK_RECORD
  5
177
330
1
100
AcDbSymbolTableRecord
100
AcDbBlockTableRecord
  2
_D_1
340
0
  0
BLOCK_RECORD
  5
18B
330
1
100
AcDbSymbolTableRecord
100
AcDbBlockTableRecord
  2
_D_2
340
0
  0
BLOCK_RECORD
  5
19B
330
1
100
AcDbSymbolTableRecord
100
AcDbBlockTableRecord
  2
_D_3
340
0
  0
BLOCK_RECORD
  5
1AB
330
1
100
AcDbSymbolTableRecord
100
AcDbBlockTableRecord
  2
_D_4
340
0
  0
BLOCK_RECORD
  5
1BF
330
1
100
AcDbSymbolTableRecord
100
AcDbBlockTableRecord
  2
_D_5
340
0
  0
BLOCK_RECORD
  5
1D3
330
1
100
AcDbSymbolTableRecord
100
AcDbBlockTableRecord
  2
_D_6
340
0
  0
BLOCK_RECORD
  5
1E7
330
1
100
AcDbSymbolTableRecord
100
AcDbBlockTableRecord
  2
_D_7
340
0
  0
BLOCK_RECORD
  5
1FC
330
1
100
AcDbSymbolTableRecord
100
AcDbBlockTableRecord
  2
_D_8
340
0
  0
BLOCK_RECORD
  5
20F
330
1
100
AcDbSymbolTableRecord
100
AcDbBlockTableRecord
  2
_D_9
340
0
  0
BLOCK_RECORD
  5
223
330
1
100
AcDbSymbolTableRecord
100
AcDbBlockTableRecord
  2
_D_10
340
0
  0
BLOCK_RECORD
  5
238
330
1
100
AcDbSymbolTableRecord
100
AcDbBlockTableRecord
  2
_D_11
340
0
  0
BLOCK_RECORD
  5
24D
330
1
100
AcDbSymbolTableRecord
100
AcDbBlockTableRecord
  2
_D_12
340
0
  0
BLOCK_RECORD
  5
260
330
1
100
AcDbSymbolTableRecord
100
AcDbBlockTableRecord
  2
_D_13
340
0
  0
BLOCK_RECORD
  5
273
330
1
100
AcDbSymbolTableRecord
100
AcDbBlockTableRecord
  2
_D_14
340
0
  0
BLOCK_RECORD
  5
286
330
1
100
AcDbSymbolTableRecord
100
AcDbBlockTableRecord
  2
_D_15
340
0
  0
BLOCK_RECORD
  5
299
330
1
100
AcDbSymbolTableRecord
100
AcDbBlockTableRecord
  2
_D_16
340
0
  0
BLOCK_RECORD
  5
2AD
330
1
100
AcDbSymbolTableRecord
100
AcDbBlockTableRecord
  2
_D_17
340
0
  0
BLOCK_RECORD
  5
2C0
330
1
100
AcDbSymbolTableRecord
100
AcDbBlockTableRecord
  2
_D_18
340
0
  0
BLOCK_RECORD
  5
2D0
330
1
100
AcDbSymbolTableRecord
100
AcDbBlockTableRecord
  2
_D_19
340
0
  0
BLOCK_RECORD
  5
2E2
330
1
100
AcDbSymbolTableRecord
100
AcDbBlockTableRecord
  2
SW_NOTE_0
340
0
102
{BLKREFS
331
2E7
102
}
  0
BLOCK_RECORD
  5
2EA
330
1
100
AcDbSymbolTableRecord
100
AcDbBlockTableRecord
  2
SW_NOTE_1
340
0
102
{BLKREFS
331
2EF
102
}
  0
BLOCK_RECORD
  5
2F1
330
1
100
AcDbSymbolTableRecord
100
AcDbBlockTableRecord
  2
SW_NOTE_2
340
0
102
{BLKREFS
331
2F6
102
}
  0
BLOCK_RECORD
  5
2FB
330
1
100
AcDbSymbolTableRecord
100
AcDbBlockTableRecord
  2
SW_NOTE_3
340
0
102
{BLKREFS
331
302
102
}
  0
BLOCK_RECORD
  5
305
330
1
100
AcDbSymbolTableRecord
100
AcDbBlockTableRecord
  2
SW_NOTE_4
340
0
102
{BLKREFS
331
316
102
}
  0
BLOCK_RECORD
  5
317
330
1
100
AcDbSymbolTableRecord
100
AcDbBlockTableRecord
  2
SW_NOTE_5
340
0
102
{BLKREFS
331
31C
102
}
  0
ENDTAB
  0
ENDSEC
  0
SECTION
  2
BLOCKS
  0
BLOCK
  5
20
330
1F
100
AcDbEntity
  8
0
100
AcDbBlockBegin
  2
*Model_Space
 70
     0
 10
0.0
 20
0.0
 30
0.0
  3
*Model_Space
  1

  0
ENDBLK
  5
21
330
1F
100
AcDbEntity
  8
0
100
AcDbBlockEnd
  0
BLOCK
  5
1C
330
1B
100
AcDbEntity
 67
     1
  8
0
100
AcDbBlockBegin
  2
*Paper_Space
 70
     0
 10
0.0
 20
0.0
 30
0.0
  3
*Paper_Space
  1

  0
ENDBLK
  5
1D
330
1B
100
AcDbEntity
 67
     1
  8
0
100
AcDbBlockEnd
  0
BLOCK
  5
24
330
23
100
AcDbEntity
  8
0
100
AcDbBlockBegin
  2
*Paper_Space0
 70
     0
 10
0.0
 20
0.0
 30
0.0
  3
*Paper_Space0
  1

  0
ENDBLK
  5
25
330
23
100
AcDbEntity
  8
0
100
AcDbBlockEnd
  0
BLOCK
  5
7A
330
79
100
AcDbEntity
  8
0
100
AcDbBlockBegin
  2
REVEAL- .500
 70
     0
 10
0.0
 20
0.0
 30
0.0
  3
REVEAL- .500
  1

  0
ARC
  5
7C
330
79
100
AcDbEntity
  8
BLOCKS
100
AcDbCircle
 10
20.1601934329
 20
28.8878838846
 30
0.0
 40
0.2338576391325233
100
AcDbArc
 50
0.0
 51
90.0
  0
ARC
  5
7D
330
79
100
AcDbEntity
  8
BLOCKS
100
AcDbCircle
 10
19.8280715192
 20
29.4726468145
 30
0.0
 40
0.0659795528056719
100
AcDbArc
 50
0.0
 51
90.0
  0
ARC
  5
7E
330
79
100
AcDbEntity
  8
BLOCKS
100
AcDbCircle
 10
19.0470381676
 20
28.990848696
 30
0.0
 40
0.0881257319589152
100
AcDbArc
 50
200.9822712638
 51
339.0177287362
  0
ARC
  5
7F
330
79
100
AcDbEntity
  8
BLOCKS
100
AcDbCircle
 10
20.1601934329
 20
28.8878838846
 30
0.0
 40
0.1878262552218324
100
AcDbArc
 50
0.0
 51
90.0
  0
LINE
  5
80
330
79
100
AcDbEntity
  8
BLOCKS
100
AcDbLine
 10
19.8280715192
 20
29.5386263673
 30
0.0
 11
18.2509355515
 21
29.5386263673
 31
0.0
  0
LINE
  5
81
330
79
100
AcDbEntity
  8
BLOCKS
100
AcDbLine
 10
18.2806192052
 20
29.1434426864
 30
0.0
 11
19.894051072
 21
29.1434426864
 31
0.0
  0
LINE
  5
82
330
79
100
AcDbEntity
  8
BLOCKS
100
AcDbLine
 10
19.3470309437
 20
29.1217415238
 30
0.0
 11
20.1601934329
 21
29.1217415238
 31
0.0
  0
LINE
  5
83
330
79
100
AcDbEntity
  8
BLOCKS
100
AcDbLine
 10
20.394051072
 20
28.8878838846
 30
0.0
 11
20.394051072
 21
28.4971795949
 31
0.0
  0
LINE
  5
84
330
79
100
AcDbEntity
  8
BLOCKS
100
AcDbLine
 10
20.394051072
 20
28.4971795949
 30
0.0
 11
20.3480196881
 21
28.4971795949
 31
0.0
  0
LINE
  5
85
330
79
100
AcDbEntity
  8
BLOCKS
100
AcDbLine
 10
20.3480196881
 20
28.4971795949
 30
0.0
 11
20.3480196881
 21
28.8878838846
 31
0.0
  0
LINE
  5
86
330
79
100
AcDbEntity
  8
BLOCKS
100
AcDbLine
 10
20.1601934329
 20
29.0757101398
 30
0.0
 11
19.3470309437
 21
29.0757101398
 31
0.0
  0
LINE
  5
87
330
79
100
AcDbEntity
  8
BLOCKS
100
AcDbLine
 10
19.3470309437
 20
29.0757101398
 30
0.0
 11
19.3470309437
 21
29.1217415238
 31
0.0
  0
LINE
  5
88
330
79
100
AcDbEntity
  8
BLOCKS
100
AcDbLine
 10
19.679261078
 20
29.0223488565
 30
0.0
 11
19.7319208682
 21
29.073015856
 31
0.0
  0
LINE
  5
89
330
79
100
AcDbEntity
  8
BLOCKS
100
AcDbLine
 10
19.7319208682
 20
29.073015856
 30
0.0
 11
19.7745573648
 21
29.0287024176
 31
0.0
  0
LINE
  5
8A
330
79
100
AcDbEntity
  8
BLOCKS
100
AcDbLine
 10
19.7745573648
 20
29.0287024176
 30
0.0
 11
19.705650009
 21
28.9624027047
 31
0.0
  0
LINE
  5
8B
330
79
100
AcDbEntity
  8
BLOCKS
100
AcDbLine
 10
18.4381035755
 20
29.0888229672
 30
0.0
 11
18.385550816
 21
29.1434426864
 31
0.0
  0
LINE
  5
8C
330
79
100
AcDbEntity
  8
BLOCKS
100
AcDbLine
 10
18.385550816
 20
29.1434426864
 30
0.0
 11
18.3431444562
 21
29.1026410993
 31
0.0
  0
LINE
  5
8D
330
79
100
AcDbEntity
  8
BLOCKS
100
AcDbLine
 10
18.3431444562
 20
29.1026410993
 30
0.0
 11
18.4052557657
 21
29.0380868815
 31
0.0
  0
LINE
  5
8E
330
79
100
AcDbEntity
  8
BLOCKS
100
AcDbLine
 10
18.4381035755
 20
29.0888229672
 30
0.0
 11
19.679261078
 21
29.0223488565
 31
0.0
  0
LINE
  5
8F
330
79
100
AcDbEntity
  8
BLOCKS
100
AcDbLine
 10
19.705650009
 20
28.9624027047
 30
0.0
 11
18.4052557657
 21
29.0380868815
 31
0.0
  0
LINE
  5
90
330
79
100
AcDbEntity
  8
BLOCKS
100
AcDbLine
 10
19.1283677378
 20
29.0518536895
 30
0.0
 11
19.1283677378
 21
28.9960010797
 31
0.0
  0
LINE
  5
91
330
79
100
AcDbEntity
  8
BLOCKS
100
AcDbLine
 10
18.9737480593
 20
29.0601348348
 30
0.0
 11
18.9737480593
 21
29.0050000915
 31
0.0
  0
LINE
  5
92
330
79
100
AcDbEntity
  8
BLOCKS
100
AcDbLine
 10
18.964755941
 20
28.9592927168
 30
0.0
 11
19.1293203942
 21
28.9592927168
 31
0.0
  0
LINE
  5
93
330
79
100
AcDbEntity
  8
BLOCKS
100
AcDbLine
 10
19.0095275609
 20
29.3495924534
 30
0.0
 11
19.0095275609
 21
28.9592927168
 31
0.0
  0
LINE
  5
94
330
79
100
AcDbEntity
  8
BLOCKS
100
AcDbLine
 10
19.0864194327
 20
29.3495924534
 30
0.0
 11
19.0864194327
 21
28.9592927168
 31
0.0
  0
LINE
  5
95
330
79
100
AcDbEntity
  8
BLOCKS
100
AcDbLine
 10
18.9467524826
 20
29.0033177842
 30
0.0
 11
19.1591684741
 21
28.9909549723
 31
0.0
  0
LINE
  5
96
330
79
100
AcDbEntity
  8
BLOCKS
100
AcDbLine
 10
19.0095275609
 20
29.3495924534
 30
0.0
 11
19.0474925407
 21
29.4047818344
 31
0.0
  0
LINE
  5
97
330
79
100
AcDbEntity
  8
BLOCKS
100
AcDbLine
 10
19.0474925407
 20
29.4047818344
 30
0.0
 11
19.0864194327
 21
29.3495924534
 31
0.0
  0
LINE
  5
98
330
79
100
AcDbEntity
  8
BLOCKS
100
AcDbLine
 10
19.1572986604
 20
28.9588281114
 30
0.0
 11
18.9448826689
 21
28.9711909233
 31
0.0
  0
LINE
  5
99
330
79
100
AcDbEntity
  8
BLOCKS
100
AcDbLine
 10
19.1591684741
 20
28.9909549723
 30
0.0
 11
19.1572986604
 21
28.9588281114
 31
0.0
  0
LINE
  5
9A
330
79
100
AcDbEntity
  8
BLOCKS
100
AcDbLine
 10
18.9467524826
 20
29.0033177842
 30
0.0
 11
18.9448826689
 21
28.9711909233
 31
0.0
  0
LINE
  5
9B
330
79
100
AcDbEntity
  8
BLOCKS
100
AcDbLine
 10
19.1142839592
 20
29.1434426864
 30
0.0
 11
19.1142839592
 21
29.4238049236
 31
0.0
  0
LINE
  5
9C
330
79
100
AcDbEntity
  8
BLOCKS
100
AcDbLine
 10
19.1142839592
 20
29.4238049236
 30
0.0
 11
18.9877469673
 21
29.4238049236
 31
0.0
  0
LINE
  5
9D
330
79
100
AcDbEntity
  8
BLOCKS
100
AcDbLine
 10
18.9877469673
 20
29.4238049236
 30
0.0
 11
18.9877469673
 21
29.1434426864
 31
0.0
  0
LINE
  5
9E
330
79
100
AcDbEntity
  8
BLOCKS
  6
Continuous
100
AcDbLine
 10
19.894051072
 20
29.1434426864
 30
0.0
 11
19.894051072
 21
29.4726468145
 31
0.0
  0
LINE
  5
9F
330
79
100
AcDbEntity
  8
BLOCKS
100
AcDbLine
 10
19.3020232313
 20
29.1434426864
 30
0.0
 11
19.3470309437
 21
29.0987258318
 31
0.0
  0
LINE
  5
A0
330
79
100
AcDbEntity
  8
BLOCKS
100
AcDbLine
 10
19.894051072
 20
29.1434426864
 30
0.0
 11
19.9068063572
 21
29.1217415238
 31
0.0
  0
SPLINE
  5
A1
330
79
100
AcDbEntity
  8
BLOCKS
100
AcDbSpline
210
0.0
220
0.0
230
1.0
 70
     8
 71
     3
 72
     9
 73
     5
 74
     0
 42
0.000000001
 43
0.00000001
 40
0.0
 40
0.0
 40
0.0
 40
0.0
 40
0.5928291688347104
 40
1.0
 40
1.0
 40
1.0
 40
1.0
 10
18.28061920517429
 20
29.14344268635683
 30
0.0
 10
18.23604355296101
 20
29.22927712752978
 30
0.0
 10
18.31552651528452
 20
29.34850064146643
 30
0.0
 10
18.29741369383499
 20
29.50274888669875
 30
0.0
 10
18.25093555152442
 20
29.53862636728042
 30
0.0
  0
HATCH
  5
A2
330
79
100
AcDbEntity
  8
BLOCKS
 62
    16
100
AcDbHatch
 10
0.0
 20
0.0
 30
0.0
210
0.0
220
0.0
230
1.0
  2
ANSI36
 70
     0
 71
     0
 91
        1
 92
        0
 93
       10
 72
     4
 94
        3
 73
     1
 74
     0
 95
        9
 96
        5
 40
0.0
 40
0.0
 40
0.0
 40
0.0
 40
0.4071708311652896
 40
1.0
 40
1.0
 40
1.0
 40
1.0
 10
18.25093555152442
 20
29.53862636728042
 42
1.0
 10
18.29741369383499
 20
29.50274888669875
 42
1.0
 10
18.31552651528452
 20
29.34850064146643
 42
1.0
 10
18.23604355296101
 20
29.22927712752978
 42
1.0
 10
18.28061920517429
 20
29.14344268635683
 42
1.0
 72
     1
 10
18.28061920517429
 20
29.14344268635683
 11
18.98774696730679
 21
29.14344268635683
 72
     1
 10
18.98774696730679
 20
29.14344268635683
 11
18.98774696730679
 21
29.42380492355081
 72
     1
 10
18.98774696730679
 20
29.42380492355081
 11
19.11428395924128
 21
29.42380492355081
 72
     1
 10
19.11428395924128
 20
29.42380492355081
 11
19.11428395924128
 21
29.14344268635683
 72
     1
 10
19.11428395924128
 20
29.14344268635683
 11
19.30202323130653
 21
29.14344268635683
 72
     1
 10
19.30202323130653
 20
29.14344268635683
 11
19.89405107202551
 21
29.14344268635683
 72
     1
 10
19.89405107202551
 20
29.14344268635683
 11
19.89405107202551
 21
29.47264681447475
 72
     2
 10
19.82807151921984
 20
29.47264681447475
 40
0.0659795528056717
 50
0.0
 51
90.0
 73
     1
 72
     1
 10
19.82807151921984
 20
29.53862636728042
 11
18.25093555152442
 21
29.53862636728042
 97
        0
 75
     0
 76
     1
 52
0.0
 41
0.5
 77
     0
 78
     1
 53
45.0
 43
0.0
 44
0.0
 45
0.0331456303681194
 46
0.1215339780164378
 79
     4
 49
0.15625
 49
-0.03125
 49
0.0
 49
-0.03125
 98
        1
 10
0.0
 20
0.0
  0
HATCH
  5
A3
330
79
100
AcDbEntity
  8
BLOCKS
 62
    16
100
AcDbHatch
 10
0.0
 20
0.0
 30
0.0
210
0.0
220
0.0
230
1.0
  2
ANSI32
 70
     0
 71
     0
 91
        1
 92
        0
 93
        5
 72
     1
 10
19.08641943273533
 20
29.34959245337754
 11
19.04749254074577
 21
29.40478183438993
 72
     1
 10
19.04749254074577
 20
29.40478183438993
 11
19.00952756093279
 21
29.34959245337754
 72
     1
 10
19.00952756093279
 20
29.34959245337754
 11
19.00952756093279
 21
29.14344268635683
 72
     1
 10
19.00952756093279
 20
29.14344268635683
 11
19.08641943273533
 21
29.14344268635683
 72
     1
 10
19.08641943273533
 20
29.14344268635683
 11
19.08641943273533
 21
29.34959245337754
 97
        0
 75
     0
 76
     1
 52
0.0
 41
0.1666666667
 77
     0
 78
     2
 53
45.0
 43
0.0
 44
0.0
 45
-0.0441941738241592
 46
0.0441941738241592
 79
     0
 53
45.0
 43
0.0294627825
 44
0.0
 45
-0.0441941738241592
 46
0.0441941738241592
 79
     0
 98
        1
 10
0.0
 20
0.0
  0
HATCH
  5
A4
330
79
100
AcDbEntity
  8
BLOCKS
 62
    16
100
AcDbHatch
 10
0.0
 20
0.0
 30
0.0
210
0.0
220
0.0
230
1.0
  2
ANSI32
 70
     0
 71
     0
 91
        1
 92
        0
 93
        4
 72
     1
 10
19.08641943273533
 20
29.05410036351303
 11
19.08641943273533
 21
29.14344268635683
 72
     1
 10
19.08641943273533
 20
29.14344268635683
 11
19.00952756093279
 21
29.14344268635683
 72
     1
 10
19.00952756093279
 20
29.14344268635683
 11
19.00952756093279
 21
29.05821855059726
 72
     1
 10
19.00952756093279
 20
29.05821855059726
 11
19.08641943273533
 21
29.05410036351303
 97
        0
 75
     0
 76
     1
 52
0.0
 41
0.1666666667
 77
     0
 78
     2
 53
45.0
 43
0.0
 44
0.0
 45
-0.0441941738241592
 46
0.0441941738241592
 79
     0
 53
45.0
 43
0.0294627825
 44
0.0
 45
-0.0441941738241592
 46
0.0441941738241592
 79
     0
 98
        1
 10
0.0
 20
0.0
  0
HATCH
  5
A5
330
79
100
AcDbEntity
  8
BLOCKS
 62
    16
100
AcDbHatch
 10
0.0
 20
0.0
 30
0.0
210
0.0
220
0.0
230
1.0
  2
ANSI32
 70
     0
 71
     0
 91
        1
 92
        0
 93
        4
 72
     1
 10
19.08641943273533
 20
28.99844251081363
 11
19.08641943273533
 21
29.05410036351303
 72
     1
 10
19.08641943273533
 20
29.05410036351303
 11
19.00952756093279
 21
29.05821855059726
 72
     1
 10
19.00952756093279
 20
29.05821855059726
 11
19.00952756093279
 21
29.00291769059305
 72
     1
 10
19.00952756093279
 20
29.00291769059305
 11
19.08641943273533
 21
28.99844251081363
 97
        0
 75
     0
 76
     1
 52
0.0
 41
0.1666666667
 77
     0
 78
     2
 53
45.0
 43
0.0
 44
0.0
 45
-0.0441941738241592
 46
0.0441941738241592
 79
     0
 53
45.0
 43
0.0294627825
 44
0.0
 45
-0.0441941738241592
 46
0.0441941738241592
 79
     0
 98
        1
 10
0.0
 20
0.0
  0
HATCH
  5
A6
330
79
100
AcDbEntity
  8
BLOCKS
 62
    16
100
AcDbHatch
 10
0.0
 20
0.0
 30
0.0
210
0.0
220
0.0
230
1.0
  2
ANSI32
 70
     0
 71
     0
 91
        1
 92
        0
 93
        4
 72
     1
 10
19.00952756093279
 20
28.96742852935006
 11
19.08641943273534
 21
28.96295334957064
 72
     1
 10
19.08641943273534
 20
28.96295334957064
 11
19.08641943273534
 21
28.99518903540131
 72
     1
 10
19.08641943273534
 20
28.99518903540131
 11
19.0095275609328
 21
28.99966421518074
 72
     1
 10
19.0095275609328
 20
28.99966421518074
 11
19.00952756093279
 21
28.96742852935006
 97
        0
 75
     0
 76
     1
 52
0.0
 41
0.1666666667
 77
     0
 78
     2
 53
45.0
 43
0.0
 44
0.0
 45
-0.0441941738241592
 46
0.0441941738241592
 79
     0
 53
45.0
 43
0.0294627825
 44
0.0
 45
-0.0441941738241592
 46
0.0441941738241592
 79
     0
 98
        1
 10
0.0
 20
0.0
  0
HATCH
  5
A7
330
79
100
AcDbEntity
  8
BLOCKS
 62
    16
100
AcDbHatch
 10
0.0
 20
0.0
 30
0.0
210
0.0
220
0.0
230
1.0
  2
ANSI32
 70
     0
 71
     0
 91
        1
 92
        0
 93
        4
 72
     1
 10
19.0095275609328
 20
28.99966421518074
 11
18.94675248259694
 21
29.00331778420741
 72
     1
 10
18.94675248259694
 20
29.00331778420741
 11
18.94488266885844
 21
28.97119092330762
 72
     1
 10
18.94488266885844
 20
28.97119092330762
 11
19.00952756093279
 21
28.96742852935006
 72
     1
 10
19.00952756093279
 20
28.96742852935006
 11
19.0095275609328
 21
28.99966421518074
 97
        0
 75
     0
 76
     1
 52
0.0
 41
0.1666666667
 77
     0
 78
     2
 53
45.0
 43
0.0
 44
0.0
 45
-0.0441941738241592
 46
0.0441941738241592
 79
     0
 53
45.0
 43
0.0294627825
 44
0.0
 45
-0.0441941738241592
 46
0.0441941738241592
 79
     0
 98
        1
 10
0.0
 20
0.0
  0
HATCH
  5
A8
330
79
100
AcDbEntity
  8
BLOCKS
 62
    16
100
AcDbHatch
 10
0.0
 20
0.0
 30
0.0
210
0.0
220
0.0
230
1.0
  2
ANSI32
 70
     0
 71
     0
 91
        1
 92
        0
 93
        4
 72
     1
 10
19.15729866039344
 20
28.95882811137627
 11
19.15916847413194
 21
28.99095497227606
 72
     1
 10
19.15916847413194
 20
28.99095497227606
 11
19.08641943273534
 21
28.99518903540131
 72
     1
 10
19.08641943273534
 20
28.99518903540131
 11
19.08641943273534
 21
28.96295334957064
 72
     1
 10
19.08641943273534
 20
28.96295334957064
 11
19.15729866039344
 21
28.95882811137627
 97
        0
 75
     0
 76
     1
 52
0.0
 41
0.1666666667
 77
     0
 78
     2
 53
45.0
 43
0.0
 44
0.0
 45
-0.0441941738241592
 46
0.0441941738241592
 79
     0
 53
45.0
 43
0.0294627825
 44
0.0
 45
-0.0441941738241592
 46
0.0441941738241592
 79
     0
 98
        1
 10
0.0
 20
0.0
  0
HATCH
  5
A9
330
79
100
AcDbEntity
  8
BLOCKS
 62
    16
100
AcDbHatch
 10
0.0
 20
0.0
 30
0.0
210
0.0
220
0.0
230
1.0
  2
ANSI32
 70
     0
 71
     0
 91
        1
 92
        0
 93
        4
 72
     1
 10
19.00952756093279
 20
28.95929271682988
 11
18.96475594104669
 21
28.95929271682988
 72
     2
 10
19.04703816761627
 20
28.99084869604216
 40
0.0881257319589163
 50
200.9822712637957
 51
339.0177287362059
 73
     1
 72
     1
 10
19.12932039418586
 20
28.95929271682988
 11
19.08641943273533
 21
28.95929271682988
 72
     1
 10
19.08641943273533
 20
28.95929271682988
 11
19.00952756093279
 21
28.95929271682988
 97
        0
 75
     0
 76
     1
 52
0.0
 41
0.1666666667
 77
     0
 78
     2
 53
45.0
 43
0.0
 44
0.0
 45
-0.0441941738241592
 46
0.0441941738241592
 79
     0
 53
45.0
 43
0.0294627825
 44
0.0
 45
-0.0441941738241592
 46
0.0441941738241592
 79
     0
 98
        1
 10
0.0
 20
0.0
  0
HATCH
  5
AA
330
79
100
AcDbEntity
  8
BLOCKS
 62
    16
100
AcDbHatch
 10
0.0
 20
0.0
 30
0.0
210
0.0
220
0.0
230
1.0
  2
SOLID
 70
     1
 71
     0
 91
        1
 92
        0
 93
        5
 72
     1
 10
19.90680635715495
 20
29.12174152375217
 11
19.89405107202551
 21
29.14344268635683
 72
     1
 10
19.89405107202551
 20
29.14344268635683
 11
19.30202323130653
 21
29.14344268635683
 72
     1
 10
19.30202323130653
 20
29.14344268635683
 11
19.34703094371573
 21
29.09872583179682
 72
     1
 10
19.34703094371573
 20
29.09872583179682
 11
19.34703094371572
 21
29.12174152375217
 72
     1
 10
19.34703094371572
 20
29.12174152375217
 11
19.90680635715495
 21
29.12174152375217
 97
        0
 75
     0
 76
     1
 98
        1
 10
0.0
 20
0.0
  0
INSERT
  5
C0
330
79
100
AcDbEntity
  8
BLOCKS
100
AcDbBlockReference
  2
SW_BLOCK_DIMENSION_0
 10
18.8801730188
 20
30.4268174472
 30
0.0
  0
ENDBLK
  5
7B
330
79
100
AcDbEntity
  8
0
100
AcDbBlockEnd
  0
BLOCK
  5
AC
330
AB
100
AcDbEntity
  8
0
100
AcDbBlockBegin
  2
SW_BLOCK_DIMENSION_0
 70
     0
 10
0.0
 20
0.0
 30
0.0
  3
SW_BLOCK_DIMENSION_0
  1

  0
SOLID
  5
AE
330
AB
100
AcDbEntity
  8
BLOCKS
 62
     0
100
AcDbTrace
 10
1.5138780532
 20
-0.2045332093
 30
0.0
 11
1.3116482355
 21
-0.1734209297
 31
0.0
 12
1.3116482355
 22
-0.2356454889
 32
0.0
 13
1.3116482355
 23
-0.2356454889
 33
0.0
  0
SOLID
  5
AF
330
AB
100
AcDbEntity
  8
BLOCKS
 62
     0
100
AcDbTrace
 10
1.0138780532
 20
-0.2045332093
 30
0.0
 11
1.2161078709
 21
-0.2356454889
 31
0.0
 12
1.2161078709
 22
-0.1734209297
 32
0.0
 13
1.2161078709
 23
-0.1734209297
 33
0.0
  0
LINE
  5
B0
330
AB
100
AcDbEntity
  8
BLOCKS
 62
     0
100
AcDbLine
 10
-0.0295138874
 20
0.0177083379
 30
0.0
 11
0.1838348813
 21
0.0177083379
 31
0.0
  0
LINE
  5
B1
330
AB
100
AcDbEntity
  8
BLOCKS
 62
     0
100
AcDbLine
 10
-0.0277777774
 20
-0.3299768602
 30
0.0
 11
-0.097222221
 21
-0.3299768602
 31
0.0
  0
LINE
  5
B2
330
AB
100
AcDbEntity
  8
BLOCKS
 62
     0
100
AcDbLine
 10
-0.097222221
 20
-0.3299768602
 30
0.0
 11
-0.097222221
 21
-0.6405478591
 31
0.0
  0
LINE
  5
B3
330
AB
100
AcDbEntity
  8
BLOCKS
 62
     0
100
AcDbLine
 10
-0.097222221
 20
-0.6405478591
 30
0.0
 11
-0.0277777774
 21
-0.6405478591
 31
0.0
  0
LINE
  5
B4
330
AB
100
AcDbEntity
  8
BLOCKS
 62
     0
100
AcDbLine
 10
0.2808642104
 20
-0.3299768602
 30
0.0
 11
0.350308654
 21
-0.3299768602
 31
0.0
  0
LINE
  5
B5
330
AB
100
AcDbEntity
  8
BLOCKS
 62
     0
100
AcDbLine
 10
0.350308654
 20
-0.3299768602
 30
0.0
 11
0.350308654
 21
-0.6405478591
 31
0.0
  0
LINE
  5
B6
330
AB
100
AcDbEntity
  8
BLOCKS
 62
     0
100
AcDbLine
 10
0.350308654
 20
-0.6405478591
 30
0.0
 11
0.2808642104
 21
-0.6405478591
 31
0.0
  0
LINE
  5
B7
330
AB
100
AcDbEntity
  8
BLOCKS
 62
     0
100
AcDbLine
 10
1.5138780532
 20
-1.4889335626
 30
0.0
 11
1.5138780532
 21
-0.0795332093
 31
0.0
  0
LINE
  5
B8
330
AB
100
AcDbEntity
  8
BLOCKS
 62
     0
100
AcDbLine
 10
1.0138780532
 20
-0.9041706328
 30
0.0
 11
1.0138780532
 21
-0.0795332093
 31
0.0
  0
LINE
  5
B9
330
AB
100
AcDbEntity
  8
BLOCKS
 62
     0
100
AcDbLine
 10
1.5138780532
 20
-0.2045332093
 30
0.0
 11
1.0138780532
 21
-0.2045332093
 31
0.0
  0
LINE
  5
BA
330
AB
100
AcDbEntity
  8
BLOCKS
 62
     0
100
AcDbLine
 10
1.0138780532
 20
-0.2045332093
 30
0.0
 11
0.420978045
 21
-0.2045332093
 31
0.0
  0
MTEXT
  5
BC
330
AB
100
AcDbEntity
  8
BLOCKS
 62
     0
100
AcDbMText
 10
0.0
 20
0.2685557791
 30
0.0
 40
0.2083333333
 41
0.0
 71
     1
 72
     1
  1
1
  7
SLDTEXTSTYLE0
 73
     1
 44
1.0
  0
MTEXT
  5
BD
330
AB
100
AcDbEntity
  8
BLOCKS
 62
     0
100
AcDbMText
 10
0.0
 20
-0.0151247729
 30
0.0
 40
0.2083333333
 41
0.0
 71
     1
 72
     1
  1
2
  7
SLDTEXTSTYLE0
 73
     1
 44
1.0
  0
MTEXT
  5
BE
330
AB
100
AcDbEntity
  8
BLOCKS
 62
     0
100
AcDbMText
 10
0.2133487687
 20
0.1266238321
 30
0.0
 40
0.2083333333
 41
0.0
 71
     1
 72
     1
  1
"
  7
SLDTEXTSTYLE0
 73
     1
 44
1.0
  0
MTEXT
  5
BF
330
AB
100
AcDbEntity
  8
BLOCKS
 62
     0
100
AcDbMText
 10
-0.0277777774
 20
-0.3719920662
 30
0.0
 40
0.2083333333
 41
0.0
 71
     1
 72
     1
  1
13
  7
SLDTEXTSTYLE0
 73
     1
 44
1.0
  0
ENDBLK
  5
AD
330
AB
100
AcDbEntity
  8
0
100
AcDbBlockEnd
  0
BLOCK
  5
C2
330
C1
100
AcDbEntity
  8
0
100
AcDbBlockBegin
  2
OVERHANG - .125
 70
     0
 10
0.0
 20
0.0
 30
0.0
  3
OVERHANG - .125
  1

  0
ARC
  5
C4
330
C1
100
AcDbEntity
  8
0
  6
Continuous
 62
    16
370
    18
100
AcDbCircle
 10
21.0247390722
 20
26.9140495115
 30
0.0
 40
0.0659795528056719
100
AcDbArc
 50
0.0
 51
90.0
  0
ARC
  5
C5
330
C1
100
AcDbEntity
  8
0
  6
Continuous
 62
    16
370
    18
100
AcDbCircle
 10
20.0403577083
 20
26.4212514943
 30
0.0
 40
0.0881257319589152
100
AcDbArc
 50
200.9822712638
 51
339.0177287362
  0
ARC
  5
C6
330
C1
100
AcDbEntity
  8
0
  6
Continuous
 62
    16
370
    18
100
AcDbCircle
 10
20.731618625
 20
26.3139893982
 30
0.0
 40
0.1880000000000024
100
AcDbArc
 50
0.0
 51
90.0
  0
ARC
  5
C7
330
C1
100
AcDbEntity
  8
0
  6
Continuous
 62
    16
370
    18
100
AcDbCircle
 10
20.731618625
 20
26.3139893982
 30
0.0
 40
0.2341000000000015
100
AcDbArc
 50
0.0
 51
90.0
  0
ARC
  5
C8
330
C1
100
AcDbEntity
  8
BLOCKS
100
AcDbCircle
 10
21.3249668066
 20
26.3001927866
 30
0.0
 40
0.3686452378780193
100
AcDbArc
 50
129.4518716023
 51
170.6861521435
  0
LINE
  5
C9
330
C1
100
AcDbEntity
  8
0
  6
Continuous
 62
    16
370
    18
100
AcDbLine
 10
19.4314231162
 20
26.5192257655
 30
0.0
 11
19.3788703567
 21
26.5738454846
 31
0.0
  0
LINE
  5
CA
330
C1
100
AcDbEntity
  8
0
  6
Continuous
 62
    16
370
    18
100
AcDbLine
 10
20.0408120814
 20
26.8351846327
 30
0.0
 11
20.0797389734
 21
26.7799952517
 31
0.0
  0
LINE
  5
CB
330
C1
100
AcDbEntity
  8
0
  6
Continuous
 62
    16
370
    18
100
AcDbLine
 10
19.3788703567
 20
26.5738454846
 30
0.0
 11
19.3364639969
 21
26.5330438976
 31
0.0
  0
LINE
  5
CC
330
C1
100
AcDbEntity
  8
0
  6
Continuous
 62
    16
370
    18
100
AcDbLine
 10
20.6725806187
 20
26.4527516548
 30
0.0
 11
20.7252404088
 21
26.5034186543
 31
0.0
  0
LINE
  5
CD
330
C1
100
AcDbEntity
  8
0
  6
Continuous
 62
    16
370
    18
100
AcDbLine
 10
20.0797389734
 20
26.7799952517
 30
0.0
 11
20.0797389734
 21
26.3896955151
 31
0.0
  0
LINE
  5
CE
330
C1
100
AcDbEntity
  8
0
  6
Continuous
 62
    16
370
    18
100
AcDbLine
 10
19.9814774532
 20
26.8652076206
 30
0.0
 11
19.9814774532
 21
26.5848453834
 31
0.0
  0
LINE
  5
CF
330
C1
100
AcDbEntity
  8
0
  6
Continuous
 62
    16
370
    18
100
AcDbLine
 10
20.7678769055
 20
26.4591052159
 30
0.0
 11
20.6989695496
 21
26.392805503
 31
0.0
  0
LINE
  5
D0
330
C1
100
AcDbEntity
  8
0
  6
Continuous
 62
    16
370
    18
100
AcDbLine
 10
21.0247390722
 20
26.9800290643
 30
0.0
 11
19.2446660374
 21
26.9800290643
 31
0.0
  0
LINE
  5
D1
330
C1
100
AcDbEntity
  8
0
  6
Continuous
 62
    16
370
    18
100
AcDbLine
 10
19.9670675999
 20
26.4905376331
 30
0.0
 11
19.9670675999
 21
26.4354028898
 31
0.0
  0
LINE
  5
D2
330
C1
100
AcDbEntity
  8
0
  6
Continuous
 62
    16
370
    18
100
AcDbLine
 10
20.1524880148
 20
26.4213577706
 30
0.0
 11
20.1506182011
 21
26.3892309097
 31
0.0
  0
LINE
  5
D3
330
C1
100
AcDbEntity
  8
0
  6
Continuous
 62
    16
370
    18
100
AcDbLine
 10
19.3364639969
 20
26.5330438976
 30
0.0
 11
19.3985753063
 21
26.4684896798
 31
0.0
  0
LINE
  5
D4
330
C1
100
AcDbEntity
  8
0
  6
Continuous
 62
    16
370
    18
100
AcDbLine
 10
20.2906117643
 20
26.5019893982
 30
0.0
 11
20.2906117643
 21
26.5480893982
 31
0.0
  0
LINE
  5
D5
330
C1
100
AcDbEntity
  8
0
  6
Continuous
 62
    16
370
    18
100
AcDbLine
 10
19.4314231162
 20
26.5192257655
 30
0.0
 11
20.6725806187
 21
26.4527516548
 31
0.0
  0
LINE
  5
D6
330
C1
100
AcDbEntity
  8
0
  6
Continuous
 62
    16
370
    18
100
AcDbLine
 10
19.9400720233
 20
26.4337205825
 30
0.0
 11
20.1524880148
 21
26.4213577706
 31
0.0
  0
LINE
  5
D7
330
C1
100
AcDbEntity
  8
0
  6
Continuous
 62
    16
370
    18
100
AcDbLine
 10
21.090718625
 20
26.5848453834
 30
0.0
 11
21.090718625
 21
26.9140495115
 31
0.0
  0
LINE
  5
D8
330
C1
100
AcDbEntity
  8
0
  6
Continuous
 62
    16
370
    18
100
AcDbLine
 10
20.731618625
 20
26.5019893982
 30
0.0
 11
20.2906117643
 21
26.5019893982
 31
0.0
  0
LINE
  5
D9
330
C1
100
AcDbEntity
  8
0
  6
Continuous
 62
    16
370
    18
100
AcDbLine
 10
20.919618625
 20
25.9230893982
 30
0.0
 11
20.919618625
 21
26.3139893982
 31
0.0
  0
LINE
  5
DA
330
C1
100
AcDbEntity
  8
0
  6
Continuous
 62
    16
370
    18
100
AcDbLine
 10
19.9580754817
 20
26.3896955151
 30
0.0
 11
20.1226399348
 21
26.3896955151
 31
0.0
  0
LINE
  5
DB
330
C1
100
AcDbEntity
  8
0
  6
Continuous
 62
    16
370
    18
100
AcDbLine
 10
20.1506182011
 20
26.3892309097
 30
0.0
 11
19.9382022095
 21
26.4015937216
 31
0.0
  0
LINE
  5
DC
330
C1
100
AcDbEntity
  8
0
  6
Continuous
 62
    16
370
    18
100
AcDbLine
 10
20.965718625
 20
25.9230893982
 30
0.0
 11
20.919618625
 21
25.9230893982
 31
0.0
  0
LINE
  5
DD
330
C1
100
AcDbEntity
  8
0
  6
Continuous
 62
    16
370
    18
100
AcDbLine
 10
20.965718625
 20
26.3139893982
 30
0.0
 11
20.965718625
 21
25.9230893982
 31
0.0
  0
LINE
  5
DE
330
C1
100
AcDbEntity
  8
0
  6
Continuous
 62
    16
370
    18
100
AcDbLine
 10
20.6989695496
 20
26.392805503
 30
0.0
 11
19.3985753063
 21
26.4684896798
 31
0.0
  0
LINE
  5
DF
330
C1
100
AcDbEntity
  8
0
  6
Continuous
 62
    16
370
    18
100
AcDbLine
 10
19.2743496911
 20
26.5848453834
 30
0.0
 11
21.090718625
 21
26.5848453834
 31
0.0
  0
LINE
  5
E0
330
C1
100
AcDbEntity
  8
0
  6
Continuous
 62
    16
370
    18
100
AcDbLine
 10
20.0028471016
 20
26.7799952517
 30
0.0
 11
20.0408120814
 21
26.8351846327
 31
0.0
  0
LINE
  5
E1
330
C1
100
AcDbEntity
  8
0
  6
Continuous
 62
    16
370
    18
100
AcDbLine
 10
20.2906117643
 20
26.5480893982
 30
0.0
 11
20.731618625
 21
26.5480893982
 31
0.0
  0
LINE
  5
E2
330
C1
100
AcDbEntity
  8
0
  6
Continuous
 62
    16
370
    18
100
AcDbLine
 10
20.0028471016
 20
26.7799952517
 30
0.0
 11
20.0028471016
 21
26.3896955151
 31
0.0
  0
LINE
  5
E3
330
C1
100
AcDbEntity
  8
0
  6
Continuous
 62
    16
370
    18
100
AcDbLine
 10
20.1080144451
 20
26.8652076206
 30
0.0
 11
19.9814774532
 21
26.8652076206
 31
0.0
  0
LINE
  5
E4
330
C1
100
AcDbEntity
  8
0
  6
Continuous
 62
    16
370
    18
100
AcDbLine
 10
20.7252404088
 20
26.5034186543
 30
0.0
 11
20.7678769055
 21
26.4591052159
 31
0.0
  0
LINE
  5
E5
330
C1
100
AcDbEntity
  8
0
  6
Continuous
 62
    16
370
    18
100
AcDbLine
 10
19.9400720233
 20
26.4337205825
 30
0.0
 11
19.9382022095
 21
26.4015937216
 31
0.0
  0
LINE
  5
E6
330
C1
100
AcDbEntity
  8
0
  6
Continuous
 62
    16
370
    18
100
AcDbLine
 10
20.1080144451
 20
26.5848453834
 30
0.0
 11
20.1080144451
 21
26.8652076206
 31
0.0
  0
LINE
  5
E7
330
C1
100
AcDbEntity
  8
0
  6
Continuous
 62
    16
370
    18
100
AcDbLine
 10
20.1216872784
 20
26.4822564878
 30
0.0
 11
20.1216872784
 21
26.426403878
 31
0.0
  0
LINE
  5
E8
330
C1
100
AcDbEntity
  8
BLOCKS
100
AcDbLine
 10
20.2906117643
 20
26.5480893982
 30
0.0
 11
20.2368944426
 21
26.5848453834
 31
0.0
  0
SPLINE
  5
E9
330
C1
100
AcDbEntity
  8
0
  6
Continuous
 62
    16
370
    18
100
AcDbSpline
210
0.0
220
0.0
230
1.0
 70
     8
 71
     3
 72
     9
 73
     5
 74
     0
 42
0.000000001
 43
0.00000001
 40
0.0
 40
0.0
 40
0.0
 40
0.0
 40
0.5928291688347104
 40
1.0
 40
1.0
 40
1.0
 40
1.0
 10
19.27434969107827
 20
26.58484538338648
 30
0.0
 10
19.22977403886498
 20
26.67067982455944
 30
0.0
 10
19.3092570011885
 20
26.78990333849608
 30
0.0
 10
19.29114417973896
 20
26.94415158372841
 30
0.0
 10
19.24466603742839
 20
26.98002906431008
 30
0.0
  0
HATCH
  5
EA
330
C1
100
AcDbEntity
  8
BLOCKS
 62
    16
100
AcDbHatch
 10
0.0
 20
0.0
 30
0.0
210
0.0
220
0.0
230
1.0
  2
ANSI36
 70
     0
 71
     0
 91
        1
 92
        0
 93
       10
 72
     4
 94
        3
 73
     1
 74
     0
 95
        9
 96
        5
 40
0.0
 40
0.0
 40
0.0
 40
0.0
 40
0.4071708311652896
 40
1.0
 40
1.0
 40
1.0
 40
1.0
 10
19.24466603742839
 20
26.98002906431008
 42
1.0
 10
19.29114417973896
 20
26.9441515837284
 42
1.0
 10
19.3092570011885
 20
26.78990333849607
 42
1.0
 10
19.22977403886498
 20
26.67067982455945
 42
1.0
 10
19.27434969107827
 20
26.58484538338648
 42
1.0
 72
     1
 10
19.27434969107827
 20
26.58484538338648
 11
19.98147745321076
 21
26.58484538338648
 72
     1
 10
19.98147745321076
 20
26.58484538338648
 11
19.98147745321076
 21
26.86520762058046
 72
     1
 10
19.98147745321076
 20
26.86520762058046
 11
20.10801444514525
 21
26.86520762058046
 72
     1
 10
20.10801444514525
 20
26.86520762058046
 11
20.10801444514525
 21
26.58484538338648
 72
     1
 10
20.10801444514525
 20
26.58484538338648
 11
20.23689444261453
 21
26.58484538338649
 72
     1
 10
20.23689444261453
 20
26.58484538338649
 11
21.0907186249667
 21
26.58484538338648
 72
     1
 10
21.0907186249667
 20
26.58484538338648
 11
21.0907186249667
 21
26.9140495115044
 72
     2
 10
21.02473907216103
 20
26.9140495115044
 40
0.0659795528056717
 50
0.0
 51
90.0
 73
     1
 72
     1
 10
21.02473907216103
 20
26.98002906431007
 11
19.24466603742839
 21
26.98002906431008
 97
        0
 75
     0
 76
     1
 52
0.0
 41
0.5
 77
     0
 78
     1
 53
45.0
 43
0.0
 44
0.0
 45
0.0331456303681194
 46
0.1215339780164378
 79
     4
 49
0.15625
 49
-0.03125
 49
0.0
 49
-0.03125
 98
        1
 10
0.0
 20
0.0
  0
HATCH
  5
EB
330
C1
100
AcDbEntity
  8
BLOCKS
 62
    16
100
AcDbHatch
 10
0.0
 20
0.0
 30
0.0
210
0.0
220
0.0
230
1.0
  2
ANSI32
 70
     0
 71
     0
 91
        1
 92
        0
 93
        4
 72
     1
 10
20.07973897339712
 20
26.58484538338648
 11
20.00284710159458
 21
26.58484538338648
 72
     1
 10
20.00284710159458
 20
26.58484538338648
 11
20.00284710159458
 21
26.48862134888004
 72
     1
 10
20.00284710159458
 20
26.48862134888004
 11
20.07973897339712
 21
26.4845031617958
 72
     1
 10
20.07973897339712
 20
26.4845031617958
 11
20.07973897339712
 21
26.58484538338648
 97
        0
 75
     0
 76
     1
 52
0.0
 41
0.2
 77
     0
 78
     2
 53
45.0
 43
0.0
 44
0.0
 45
-0.0530330085889911
 46
0.0530330085889911
 79
     0
 53
45.0
 43
0.035355339
 44
0.0
 45
-0.0530330085889911
 46
0.0530330085889911
 79
     0
 98
        1
 10
0.0
 20
0.0
  0
HATCH
  5
EC
330
C1
100
AcDbEntity
  8
BLOCKS
 62
    16
100
AcDbHatch
 10
0.0
 20
0.0
 30
0.0
210
0.0
220
0.0
230
1.0
  2
ANSI32
 70
     0
 71
     0
 91
        1
 92
        0
 93
        5
 72
     1
 10
20.04081208140756
 20
26.8351846326727
 11
20.00284710159458
 21
26.77999525166031
 72
     1
 10
20.00284710159458
 20
26.77999525166031
 11
20.00284710159458
 21
26.58484538338648
 72
     1
 10
20.00284710159458
 20
26.58484538338648
 11
20.07973897339712
 21
26.58484538338648
 72
     1
 10
20.07973897339712
 20
26.58484538338648
 11
20.07973897339712
 21
26.77999525166031
 72
     1
 10
20.07973897339712
 20
26.77999525166031
 11
20.04081208140756
 21
26.8351846326727
 97
        0
 75
     0
 76
     1
 52
0.0
 41
0.2
 77
     0
 78
     2
 53
45.0
 43
0.0
 44
0.0
 45
-0.0530330085889911
 46
0.0530330085889911
 79
     0
 53
45.0
 43
0.035355339
 44
0.0
 45
-0.0530330085889911
 46
0.0530330085889911
 79
     0
 98
        1
 10
0.0
 20
0.0
  0
HATCH
  5
ED
330
C1
100
AcDbEntity
  8
BLOCKS
 62
    16
100
AcDbHatch
 10
0.0
 20
0.0
 30
0.0
210
0.0
220
0.0
230
1.0
  2
ANSI32
 70
     0
 71
     0
 91
        1
 92
        0
 93
        4
 72
     1
 10
20.07973897339712
 20
26.4845031617958
 11
20.00284710159458
 21
26.48862134888004
 72
     1
 10
20.00284710159458
 20
26.48862134888004
 11
20.00284710159458
 21
26.43332048887584
 72
     1
 10
20.00284710159458
 20
26.43332048887584
 11
20.07973897339712
 21
26.42884530909641
 72
     1
 10
20.07973897339712
 20
26.42884530909641
 11
20.07973897339712
 21
26.4845031617958
 97
        0
 75
     0
 76
     1
 52
0.0
 41
0.2
 77
     0
 78
     2
 53
45.0
 43
0.0
 44
0.0
 45
-0.0530330085889911
 46
0.0530330085889911
 79
     0
 53
45.0
 43
0.035355339
 44
0.0
 45
-0.0530330085889911
 46
0.0530330085889911
 79
     0
 98
        1
 10
0.0
 20
0.0
  0
HATCH
  5
EE
330
C1
100
AcDbEntity
  8
BLOCKS
 62
    16
100
AcDbHatch
 10
0.0
 20
0.0
 30
0.0
210
0.0
220
0.0
230
1.0
  2
ANSI32
 70
     0
 71
     0
 91
        1
 92
        0
 93
        4
 72
     1
 10
20.00284710159458
 20
26.43006701346352
 11
19.94007202325873
 21
26.43372058249019
 72
     1
 10
19.94007202325873
 20
26.43372058249019
 11
19.93820220952023
 21
26.40159372159039
 72
     1
 10
19.93820220952023
 20
26.40159372159039
 11
20.00284710159458
 21
26.39783132763285
 72
     1
 10
20.00284710159458
 20
26.39783132763285
 11
20.00284710159458
 21
26.43006701346352
 97
        0
 75
     0
 76
     1
 52
0.0
 41
0.2
 77
     0
 78
     2
 53
45.0
 43
0.0
 44
0.0
 45
-0.0530330085889911
 46
0.0530330085889911
 79
     0
 53
45.0
 43
0.035355339
 44
0.0
 45
-0.0530330085889911
 46
0.0530330085889911
 79
     0
 98
        1
 10
0.0
 20
0.0
  0
HATCH
  5
EF
330
C1
100
AcDbEntity
  8
BLOCKS
 62
    16
100
AcDbHatch
 10
0.0
 20
0.0
 30
0.0
210
0.0
220
0.0
230
1.0
  2
ANSI32
 70
     0
 71
     0
 91
        1
 92
        0
 93
        4
 72
     1
 10
20.07973897339712
 20
26.42559183368408
 11
20.00284710159458
 21
26.43006701346352
 72
     1
 10
20.00284710159458
 20
26.43006701346352
 11
20.00284710159458
 21
26.39783132763285
 72
     1
 10
20.00284710159458
 20
26.39783132763285
 11
20.07973897339712
 21
26.39335614785342
 72
     1
 10
20.07973897339712
 20
26.39335614785342
 11
20.07973897339712
 21
26.42559183368408
 97
        0
 75
     0
 76
     1
 52
0.0
 41
0.2
 77
     0
 78
     2
 53
45.0
 43
0.0
 44
0.0
 45
-0.0530330085889911
 46
0.0530330085889911
 79
     0
 53
45.0
 43
0.035355339
 44
0.0
 45
-0.0530330085889911
 46
0.0530330085889911
 79
     0
 98
        1
 10
0.0
 20
0.0
  0
HATCH
  5
F0
330
C1
100
AcDbEntity
  8
BLOCKS
 62
    16
100
AcDbHatch
 10
0.0
 20
0.0
 30
0.0
210
0.0
220
0.0
230
1.0
  2
ANSI32
 70
     0
 71
     0
 91
        1
 92
        0
 93
        4
 72
     1
 10
20.07973897339712
 20
26.39335614785342
 11
20.15061820105523
 21
26.38923090965904
 72
     1
 10
20.15061820105523
 20
26.38923090965904
 11
20.15248801479373
 21
26.42135777055884
 72
     1
 10
20.15248801479373
 20
26.42135777055884
 11
20.07973897339712
 21
26.42559183368408
 72
     1
 10
20.07973897339712
 20
26.42559183368408
 11
20.07973897339712
 21
26.39335614785342
 97
        0
 75
     0
 76
     1
 52
0.0
 41
0.2
 77
     0
 78
     2
 53
45.0
 43
0.0
 44
0.0
 45
-0.0530330085889911
 46
0.0530330085889911
 79
     0
 53
45.0
 43
0.035355339
 44
0.0
 45
-0.0530330085889911
 46
0.0530330085889911
 79
     0
 98
        1
 10
0.0
 20
0.0
  0
HATCH
  5
F1
330
C1
100
AcDbEntity
  8
BLOCKS
 62
    16
100
AcDbHatch
 10
0.0
 20
0.0
 30
0.0
210
0.0
220
0.0
230
1.0
  2
ANSI32
 70
     0
 71
     0
 91
        1
 92
        0
 93
        4
 72
     1
 10
20.00284710159458
 20
26.38969551511265
 11
19.95807548170848
 21
26.38969551511265
 72
     2
 10
20.04035770827806
 20
26.42125149432493
 40
0.0881257319589163
 50
200.9822712637957
 51
339.0177287362059
 73
     1
 72
     1
 10
20.12263993484765
 20
26.38969551511265
 11
20.07973897339712
 21
26.38969551511265
 72
     1
 10
20.07973897339712
 20
26.38969551511265
 11
20.00284710159458
 21
26.38969551511265
 97
        0
 75
     0
 76
     1
 52
0.0
 41
0.2
 77
     0
 78
     2
 53
45.0
 43
0.0
 44
0.0
 45
-0.0530330085889911
 46
0.0530330085889911
 79
     0
 53
45.0
 43
0.035355339
 44
0.0
 45
-0.0530330085889911
 46
0.0530330085889911
 79
     0
 98
        1
 10
0.0
 20
0.0
  0
HATCH
  5
F2
330
C1
100
AcDbEntity
  8
BLOCKS
100
AcDbHatch
 10
0.0
 20
0.0
 30
0.0
210
0.0
220
0.0
230
1.0
  2
SOLID
 70
     1
 71
     0
 91
        1
 92
        0
 93
        5
 72
     2
 10
21.32496680656287
 20
26.30019278664964
 40
0.3686452378780171
 50
189.3138478564999
 51
230.5481283977412
 73
     0
 72
     1
 10
21.0907186249667
 20
26.58484538338648
 11
20.23689444261453
 21
26.58484538338649
 72
     1
 10
20.23689444261453
 20
26.58484538338649
 11
20.29061176430621
 21
26.54808939823214
 72
     1
 10
20.29061176430621
 20
26.54808939823214
 11
20.7316186249667
 21
26.54808939823214
 72
     2
 10
20.7316186249667
 20
26.31398939823214
 40
0.2341000000000018
 50
270.0000000000008
 51
348.7012977589557
 73
     0
 97
        0
 75
     0
 76
     1
 98
        1
 10
0.0
 20
0.0
  0
INSERT
  5
107
330
C1
100
AcDbEntity
  8
BLOCKS
100
AcDbBlockReference
  2
SW_BLOCK_DIMENSION_1
 10
20.016303788
 20
25.6451516457
 30
0.0
  0
ENDBLK
  5
C3
330
C1
100
AcDbEntity
  8
0
100
AcDbBlockEnd
  0
BLOCK
  5
F4
330
F3
100
AcDbEntity
  8
0
100
AcDbBlockBegin
  2
SW_BLOCK_DIMENSION_1
 70
     0
 10
0.0
 20
0.0
 30
0.0
  3
SW_BLOCK_DIMENSION_1
  1

  0
SOLID
  5
F6
330
F3
100
AcDbEntity
  8
BLOCKS
 62
     0
100
AcDbTrace
 10
0.9494148369
 20
-0.2045332093
 30
0.0
 11
0.7471850192
 21
-0.1734209297
 31
0.0
 12
0.7471850192
 22
-0.2356454889
 32
0.0
 13
0.7471850192
 23
-0.2356454889
 33
0.0
  0
SOLID
  5
F7
330
F3
100
AcDbEntity
  8
BLOCKS
 62
     0
100
AcDbTrace
 10
1.0744148369
 20
-0.2045332093
 30
0.0
 11
1.2766446546
 21
-0.2356454889
 31
0.0
 12
1.2766446546
 22
-0.1734209297
 32
0.0
 13
1.2766446546
 23
-0.1734209297
 33
0.0
  0
LINE
  5
F8
330
F3
100
AcDbEntity
  8
BLOCKS
 62
     0
100
AcDbLine
 10
-0.0295138874
 20
0.0177083379
 30
0.0
 11
0.1838348813
 21
0.0177083379
 31
0.0
  0
LINE
  5
F9
330
F3
100
AcDbEntity
  8
BLOCKS
 62
     0
100
AcDbLine
 10
0.0493827195
 20
-0.3299768602
 30
0.0
 11
-0.0200617241
 21
-0.3299768602
 31
0.0
  0
LINE
  5
FA
330
F3
100
AcDbEntity
  8
BLOCKS
 62
     0
100
AcDbLine
 10
-0.0200617241
 20
-0.3299768602
 30
0.0
 11
-0.0200617241
 21
-0.6405478591
 31
0.0
  0
LINE
  5
FB
330
F3
100
AcDbEntity
  8
BLOCKS
 62
     0
100
AcDbLine
 10
-0.0200617241
 20
-0.6405478591
 30
0.0
 11
0.0493827195
 21
-0.6405478591
 31
0.0
  0
LINE
  5
FC
330
F3
100
AcDbEntity
  8
BLOCKS
 62
     0
100
AcDbLine
 10
0.2037037135
 20
-0.3299768602
 30
0.0
 11
0.2731481571
 21
-0.3299768602
 31
0.0
  0
LINE
  5
FD
330
F3
100
AcDbEntity
  8
BLOCKS
 62
     0
100
AcDbLine
 10
0.2731481571
 20
-0.3299768602
 30
0.0
 11
0.2731481571
 21
-0.6405478591
 31
0.0
  0
LINE
  5
FE
330
F3
100
AcDbEntity
  8
BLOCKS
 62
     0
100
AcDbLine
 10
0.2731481571
 20
-0.6405478591
 30
0.0
 11
0.2037037135
 21
-0.6405478591
 31
0.0
  0
LINE
  5
FF
330
F3
100
AcDbEntity
  8
BLOCKS
 62
     0
100
AcDbLine
 10
0.9494148369
 20
0.2279377526
 30
0.0
 11
0.9494148369
 21
-0.3295332093
 31
0.0
  0
LINE
  5
100
330
F3
100
AcDbEntity
  8
BLOCKS
 62
     0
100
AcDbLine
 10
1.0744148369
 20
0.8896937377
 30
0.0
 11
1.0744148369
 21
-0.3295332093
 31
0.0
  0
LINE
  5
101
330
F3
100
AcDbEntity
  8
BLOCKS
 62
     0
100
AcDbLine
 10
0.9494148369
 20
-0.2045332093
 30
0.0
 11
0.343817548
 21
-0.2045332093
 31
0.0
  0
LINE
  5
102
330
F3
100
AcDbEntity
  8
BLOCKS
 62
     0
100
AcDbLine
 10
1.0744148369
 20
-0.2045332093
 30
0.0
 11
1.4633183325
 21
-0.2045332093
 31
0.0
  0
MTEXT
  5
103
330
F3
100
AcDbEntity
  8
BLOCKS
 62
     0
100
AcDbMText
 10
0.0
 20
0.2685557791
 30
0.0
 40
0.2083333333
 41
0.0
 71
     1
 72
     1
  1
1
  7
SLDTEXTSTYLE0
 73
     1
 44
1.0
  0
MTEXT
  5
104
330
F3
100
AcDbEntity
  8
BLOCKS
 62
     0
100
AcDbMText
 10
0.0
 20
-0.0151247729
 30
0.0
 40
0.2083333333
 41
0.0
 71
     1
 72
     1
  1
8
  7
SLDTEXTSTYLE0
 73
     1
 44
1.0
  0
MTEXT
  5
105
330
F3
100
AcDbEntity
  8
BLOCKS
 62
     0
100
AcDbMText
 10
0.2133487687
 20
0.1266238321
 30
0.0
 40
0.2083333333
 41
0.0
 71
     1
 72
     1
  1
"
  7
SLDTEXTSTYLE0
 73
     1
 44
1.0
  0
MTEXT
  5
106
330
F3
100
AcDbEntity
  8
BLOCKS
 62
     0
100
AcDbMText
 10
0.0493827195
 20
-0.3719920662
 30
0.0
 40
0.2083333333
 41
0.0
 71
     1
 72
     1
  1
3
  7
SLDTEXTSTYLE0
 73
     1
 44
1.0
  0
ENDBLK
  5
F5
330
F3
100
AcDbEntity
  8
0
100
AcDbBlockEnd
  0
BLOCK
  5
109
330
108
100
AcDbEntity
  8
0
100
AcDbBlockBegin
  2
REVEAL - 0 (FLUSH)
 70
     0
 10
0.0
 20
0.0
 30
0.0
  3
REVEAL - 0 (FLUSH)
  1

  0
ARC
  5
10B
330
108
100
AcDbEntity
  8
0
  6
Continuous
 62
    16
370
    18
100
AcDbCircle
 10
20.8997390722
 20
26.9140495115
 30
0.0
 40
0.0659795528056684
100
AcDbArc
 50
0.0
 51
90.0
  0
ARC
  5
10C
330
108
100
AcDbEntity
  8
0
  6
Continuous
 62
    16
370
    18
100
AcDbCircle
 10
20.0403577083
 20
26.4212514943
 30
0.0
 40
0.0881257319589152
100
AcDbArc
 50
200.9822712638
 51
339.0177287362
  0
ARC
  5
10D
330
108
100
AcDbEntity
  8
0
  6
Continuous
 62
    16
370
    18
100
AcDbCircle
 10
20.731618625
 20
26.3139893982
 30
0.0
 40
0.1880000000000024
100
AcDbArc
 50
0.0
 51
90.0
  0
ARC
  5
10E
330
108
100
AcDbEntity
  8
0
  6
Continuous
 62
    16
370
    18
100
AcDbCircle
 10
20.731618625
 20
26.3139893982
 30
0.0
 40
0.2341000000000015
100
AcDbArc
 50
0.0
 51
90.0
  0
LINE
  5
10F
330
108
100
AcDbEntity
  8
0
  6
Continuous
 62
    16
370
    18
100
AcDbLine
 10
19.4314231162
 20
26.5192257655
 30
0.0
 11
19.3788703567
 21
26.5738454846
 31
0.0
  0
LINE
  5
110
330
108
100
AcDbEntity
  8
0
  6
Continuous
 62
    16
370
    18
100
AcDbLine
 10
20.0408120814
 20
26.8351846327
 30
0.0
 11
20.0797389734
 21
26.7799952517
 31
0.0
  0
LINE
  5
111
330
108
100
AcDbEntity
  8
0
  6
Continuous
 62
    16
370
    18
100
AcDbLine
 10
19.3788703567
 20
26.5738454846
 30
0.0
 11
19.3364639969
 21
26.5330438976
 31
0.0
  0
LINE
  5
112
330
108
100
AcDbEntity
  8
0
  6
Continuous
 62
    16
370
    18
100
AcDbLine
 10
20.6725806187
 20
26.4527516548
 30
0.0
 11
20.7252404088
 21
26.5034186543
 31
0.0
  0
LINE
  5
113
330
108
100
AcDbEntity
  8
0
  6
Continuous
 62
    16
370
    18
100
AcDbLine
 10
20.0797389734
 20
26.7799952517
 30
0.0
 11
20.0797389734
 21
26.3896955151
 31
0.0
  0
LINE
  5
114
330
108
100
AcDbEntity
  8
0
  6
Continuous
 62
    16
370
    18
100
AcDbLine
 10
19.9814774532
 20
26.8652076206
 30
0.0
 11
19.9814774532
 21
26.5848453834
 31
0.0
  0
LINE
  5
115
330
108
100
AcDbEntity
  8
0
  6
Continuous
 62
    16
370
    18
100
AcDbLine
 10
20.7678769055
 20
26.4591052159
 30
0.0
 11
20.6989695496
 21
26.392805503
 31
0.0
  0
LINE
  5
116
330
108
100
AcDbEntity
  8
0
  6
Continuous
 62
    16
370
    18
100
AcDbLine
 10
20.8997390722
 20
26.9800290643
 30
0.0
 11
19.2446660374
 21
26.9800290643
 31
0.0
  0
LINE
  5
117
330
108
100
AcDbEntity
  8
0
  6
Continuous
 62
    16
370
    18
100
AcDbLine
 10
19.9670675999
 20
26.4905376331
 30
0.0
 11
19.9670675999
 21
26.4354028898
 31
0.0
  0
LINE
  5
118
330
108
100
AcDbEntity
  8
0
  6
Continuous
 62
    16
370
    18
100
AcDbLine
 10
20.1524880148
 20
26.4213577706
 30
0.0
 11
20.1506182011
 21
26.3892309097
 31
0.0
  0
LINE
  5
119
330
108
100
AcDbEntity
  8
0
  6
Continuous
 62
    16
370
    18
100
AcDbLine
 10
19.3364639969
 20
26.5330438976
 30
0.0
 11
19.3985753063
 21
26.4684896798
 31
0.0
  0
LINE
  5
11A
330
108
100
AcDbEntity
  8
0
  6
Continuous
 62
    16
370
    18
100
AcDbLine
 10
20.2906117643
 20
26.5019893982
 30
0.0
 11
20.2906117643
 21
26.5480893982
 31
0.0
  0
LINE
  5
11B
330
108
100
AcDbEntity
  8
0
  6
Continuous
 62
    16
370
    18
100
AcDbLine
 10
19.4314231162
 20
26.5192257655
 30
0.0
 11
20.6725806187
 21
26.4527516548
 31
0.0
  0
LINE
  5
11C
330
108
100
AcDbEntity
  8
0
  6
Continuous
 62
    16
370
    18
100
AcDbLine
 10
19.9400720233
 20
26.4337205825
 30
0.0
 11
20.1524880148
 21
26.4213577706
 31
0.0
  0
LINE
  5
11D
330
108
100
AcDbEntity
  8
0
  6
Continuous
 62
    16
370
    18
100
AcDbLine
 10
20.965718625
 20
26.5848453834
 30
0.0
 11
20.965718625
 21
26.9140495115
 31
0.0
  0
LINE
  5
11E
330
108
100
AcDbEntity
  8
0
  6
Continuous
 62
    16
370
    18
100
AcDbLine
 10
20.731618625
 20
26.5019893982
 30
0.0
 11
20.2906117643
 21
26.5019893982
 31
0.0
  0
LINE
  5
11F
330
108
100
AcDbEntity
  8
0
  6
Continuous
 62
    16
370
    18
100
AcDbLine
 10
20.919618625
 20
25.9230893982
 30
0.0
 11
20.919618625
 21
26.3139893982
 31
0.0
  0
LINE
  5
120
330
108
100
AcDbEntity
  8
0
  6
Continuous
 62
    16
370
    18
100
AcDbLine
 10
19.9580754817
 20
26.3896955151
 30
0.0
 11
20.1226399348
 21
26.3896955151
 31
0.0
  0
LINE
  5
121
330
108
100
AcDbEntity
  8
0
  6
Continuous
 62
    16
370
    18
100
AcDbLine
 10
20.1506182011
 20
26.3892309097
 30
0.0
 11
19.9382022095
 21
26.4015937216
 31
0.0
  0
LINE
  5
122
330
108
100
AcDbEntity
  8
0
  6
Continuous
 62
    16
370
    18
100
AcDbLine
 10
20.965718625
 20
25.9230893982
 30
0.0
 11
20.919618625
 21
25.9230893982
 31
0.0
  0
LINE
  5
123
330
108
100
AcDbEntity
  8
0
  6
Continuous
 62
    16
370
    18
100
AcDbLine
 10
20.965718625
 20
26.3139893982
 30
0.0
 11
20.965718625
 21
25.9230893982
 31
0.0
  0
LINE
  5
124
330
108
100
AcDbEntity
  8
0
  6
Continuous
 62
    16
370
    18
100
AcDbLine
 10
20.6989695496
 20
26.392805503
 30
0.0
 11
19.3985753063
 21
26.4684896798
 31
0.0
  0
LINE
  5
125
330
108
100
AcDbEntity
  8
0
  6
Continuous
 62
    16
370
    18
100
AcDbLine
 10
19.2743496911
 20
26.5848453834
 30
0.0
 11
20.0028471016
 21
26.5848453834
 31
0.0
  0
LINE
  5
126
330
108
100
AcDbEntity
  8
0
  6
Continuous
 62
    16
370
    18
100
AcDbLine
 10
20.0028471016
 20
26.7799952517
 30
0.0
 11
20.0408120814
 21
26.8351846327
 31
0.0
  0
LINE
  5
127
330
108
100
AcDbEntity
  8
0
  6
Continuous
 62
    16
370
    18
100
AcDbLine
 10
20.2906117643
 20
26.5480893982
 30
0.0
 11
20.731618625
 21
26.5480893982
 31
0.0
  0
LINE
  5
128
330
108
100
AcDbEntity
  8
0
  6
Continuous
 62
    16
370
    18
100
AcDbLine
 10
20.0028471016
 20
26.7799952517
 30
0.0
 11
20.0028471016
 21
26.3896955151
 31
0.0
  0
LINE
  5
129
330
108
100
AcDbEntity
  8
0
  6
Continuous
 62
    16
370
    18
100
AcDbLine
 10
20.1033429009
 20
26.8652076206
 30
0.0
 11
19.9814774532
 21
26.8652076206
 31
0.0
  0
LINE
  5
12A
330
108
100
AcDbEntity
  8
0
  6
Continuous
 62
    16
370
    18
100
AcDbLine
 10
20.7252404088
 20
26.5034186543
 30
0.0
 11
20.7678769055
 21
26.4591052159
 31
0.0
  0
LINE
  5
12B
330
108
100
AcDbEntity
  8
0
  6
Continuous
 62
    16
370
    18
100
AcDbLine
 10
19.9400720233
 20
26.4337205825
 30
0.0
 11
19.9382022095
 21
26.4015937216
 31
0.0
  0
LINE
  5
12C
330
108
100
AcDbEntity
  8
0
  6
Continuous
 62
    16
370
    18
100
AcDbLine
 10
20.1033429009
 20
26.5848453834
 30
0.0
 11
20.1033429009
 21
26.8652076206
 31
0.0
  0
LINE
  5
12D
330
108
100
AcDbEntity
  8
0
  6
Continuous
 62
    16
370
    18
100
AcDbLine
 10
20.1216872784
 20
26.4822564878
 30
0.0
 11
20.1216872784
 21
26.426403878
 31
0.0
  0
LINE
  5
12E
330
108
100
AcDbEntity
  8
BLOCKS
100
AcDbLine
 10
20.2906117643
 20
26.5480893982
 30
0.0
 11
20.2368944426
 21
26.5848453834
 31
0.0
  0
LINE
  5
12F
330
108
100
AcDbEntity
  8
0
  6
Continuous
 62
     7
370
    18
100
AcDbLine
 10
20.2368944426
 20
26.5848453834
 30
0.0
 11
20.965718625
 21
26.5848453834
 31
0.0
  0
LINE
  5
130
330
108
100
AcDbEntity
  8
BLOCKS
100
AcDbLine
 10
20.0797389734
 20
26.5848453834
 30
0.0
 11
20.965718625
 21
26.5848453834
 31
0.0
  0
LINE
  5
131
330
108
100
AcDbEntity
  8
0
  6
Continuous
 62
     7
370
    18
100
AcDbLine
 10
20.965718625
 20
26.3139893982
 30
0.0
 11
20.965718625
 21
26.5848453834
 31
0.0
  0
SPLINE
  5
132
330
108
100
AcDbEntity
  8
BLOCKS
100
AcDbSpline
210
0.0
220
0.0
230
1.0
 70
     8
 71
     3
 72
     8
 73
     4
 74
     0
 42
0.000000001
 43
0.00000001
 40
0.0
 40
0.0
 40
0.0
 40
0.0
 40
1.0
 40
1.0
 40
1.0
 40
1.0
 10
19.24466603742839
 20
26.98002906431008
 30
0.0
 10
19.40755868602182
 20
26.86177152370008
 30
0.0
 10
19.11947833134008
 20
26.72443452904972
 30
0.0
 10
19.27434969107827
 20
26.58484538338648
 30
0.0
  0
HATCH
  5
133
330
108
100
AcDbEntity
  8
0
  6
Continuous
 62
    16
100
AcDbHatch
 10
0.0
 20
0.0
 30
0.0
210
0.0
220
0.0
230
1.0
  2
SOLID
 70
     1
 71
     0
 91
        1
 92
        0
 93
        5
 72
     1
 10
20.29061176430621
 20
26.54808939823214
 11
20.7316186249667
 21
26.54808939823214
 72
     2
 10
20.7316186249667
 20
26.31398939823214
 40
0.2341000000000018
 50
270.0000000000008
 51
360.0000000000008
 73
     0
 72
     1
 10
20.9657186249667
 20
26.31398939823214
 11
20.9657186249667
 21
26.58484538338648
 72
     1
 10
20.9657186249667
 20
26.58484538338648
 11
20.23689444261454
 21
26.58484538338648
 72
     1
 10
20.23689444261454
 20
26.58484538338648
 11
20.29061176430621
 21
26.54808939823214
 97
        0
 75
     0
 76
     1
 98
        1
 10
0.0
 20
0.0
  0
HATCH
  5
134
330
108
100
AcDbEntity
  8
BLOCKS
 62
    16
100
AcDbHatch
 10
0.0
 20
0.0
 30
0.0
210
0.0
220
0.0
230
1.0
  2
ANSI32
 70
     0
 71
     0
 91
        1
 92
        0
 93
        4
 72
     1
 10
20.07973897339712
 20
26.58484538338648
 11
20.00284710159458
 21
26.58484538338648
 72
     1
 10
20.00284710159458
 20
26.58484538338648
 11
20.00284710159458
 21
26.48862134888004
 72
     1
 10
20.00284710159458
 20
26.48862134888004
 11
20.07973897339712
 21
26.4845031617958
 72
     1
 10
20.07973897339712
 20
26.4845031617958
 11
20.07973897339712
 21
26.58484538338648
 97
        0
 75
     0
 76
     1
 52
0.0
 41
0.2
 77
     0
 78
     2
 53
45.0
 43
0.0
 44
0.0
 45
-0.0530330085889911
 46
0.0530330085889911
 79
     0
 53
45.0
 43
0.035355339
 44
0.0
 45
-0.0530330085889911
 46
0.0530330085889911
 79
     0
 98
        1
 10
0.0
 20
0.0
  0
HATCH
  5
135
330
108
100
AcDbEntity
  8
BLOCKS
 62
    16
100
AcDbHatch
 10
0.0
 20
0.0
 30
0.0
210
0.0
220
0.0
230
1.0
  2
ANSI32
 70
     0
 71
     0
 91
        1
 92
        0
 93
        5
 72
     1
 10
20.04081208140756
 20
26.8351846326727
 11
20.00284710159458
 21
26.77999525166031
 72
     1
 10
20.00284710159458
 20
26.77999525166031
 11
20.00284710159458
 21
26.58484538338648
 72
     1
 10
20.00284710159458
 20
26.58484538338648
 11
20.07973897339712
 21
26.58484538338648
 72
     1
 10
20.07973897339712
 20
26.58484538338648
 11
20.07973897339712
 21
26.77999525166031
 72
     1
 10
20.07973897339712
 20
26.77999525166031
 11
20.04081208140756
 21
26.8351846326727
 97
        0
 75
     0
 76
     1
 52
0.0
 41
0.2
 77
     0
 78
     2
 53
45.0
 43
0.0
 44
0.0
 45
-0.0530330085889911
 46
0.0530330085889911
 79
     0
 53
45.0
 43
0.035355339
 44
0.0
 45
-0.0530330085889911
 46
0.0530330085889911
 79
     0
 98
        1
 10
0.0
 20
0.0
  0
HATCH
  5
136
330
108
100
AcDbEntity
  8
BLOCKS
 62
    16
100
AcDbHatch
 10
0.0
 20
0.0
 30
0.0
210
0.0
220
0.0
230
1.0
  2
ANSI32
 70
     0
 71
     0
 91
        1
 92
        0
 93
        4
 72
     1
 10
20.07973897339712
 20
26.4845031617958
 11
20.00284710159458
 21
26.48862134888004
 72
     1
 10
20.00284710159458
 20
26.48862134888004
 11
20.00284710159458
 21
26.43332048887584
 72
     1
 10
20.00284710159458
 20
26.43332048887584
 11
20.07973897339712
 21
26.42884530909641
 72
     1
 10
20.07973897339712
 20
26.42884530909641
 11
20.07973897339712
 21
26.4845031617958
 97
        0
 75
     0
 76
     1
 52
0.0
 41
0.2
 77
     0
 78
     2
 53
45.0
 43
0.0
 44
0.0
 45
-0.0530330085889911
 46
0.0530330085889911
 79
     0
 53
45.0
 43
0.035355339
 44
0.0
 45
-0.0530330085889911
 46
0.0530330085889911
 79
     0
 98
        1
 10
0.0
 20
0.0
  0
HATCH
  5
137
330
108
100
AcDbEntity
  8
BLOCKS
 62
    16
100
AcDbHatch
 10
0.0
 20
0.0
 30
0.0
210
0.0
220
0.0
230
1.0
  2
ANSI32
 70
     0
 71
     0
 91
        1
 92
        0
 93
        4
 72
     1
 10
20.00284710159458
 20
26.43006701346352
 11
19.94007202325873
 21
26.43372058249019
 72
     1
 10
19.94007202325873
 20
26.43372058249019
 11
19.93820220952023
 21
26.40159372159039
 72
     1
 10
19.93820220952023
 20
26.40159372159039
 11
20.00284710159458
 21
26.39783132763285
 72
     1
 10
20.00284710159458
 20
26.39783132763285
 11
20.00284710159458
 21
26.43006701346352
 97
        0
 75
     0
 76
     1
 52
0.0
 41
0.2
 77
     0
 78
     2
 53
45.0
 43
0.0
 44
0.0
 45
-0.0530330085889911
 46
0.0530330085889911
 79
     0
 53
45.0
 43
0.035355339
 44
0.0
 45
-0.0530330085889911
 46
0.0530330085889911
 79
     0
 98
        1
 10
0.0
 20
0.0
  0
HATCH
  5
138
330
108
100
AcDbEntity
  8
BLOCKS
 62
    16
100
AcDbHatch
 10
0.0
 20
0.0
 30
0.0
210
0.0
220
0.0
230
1.0
  2
ANSI32
 70
     0
 71
     0
 91
        1
 92
        0
 93
        4
 72
     1
 10
20.07973897339712
 20
26.42559183368408
 11
20.00284710159458
 21
26.43006701346352
 72
     1
 10
20.00284710159458
 20
26.43006701346352
 11
20.00284710159458
 21
26.39783132763285
 72
     1
 10
20.00284710159458
 20
26.39783132763285
 11
20.07973897339712
 21
26.39335614785342
 72
     1
 10
20.07973897339712
 20
26.39335614785342
 11
20.07973897339712
 21
26.42559183368408
 97
        0
 75
     0
 76
     1
 52
0.0
 41
0.2
 77
     0
 78
     2
 53
45.0
 43
0.0
 44
0.0
 45
-0.0530330085889911
 46
0.0530330085889911
 79
     0
 53
45.0
 43
0.035355339
 44
0.0
 45
-0.0530330085889911
 46
0.0530330085889911
 79
     0
 98
        1
 10
0.0
 20
0.0
  0
HATCH
  5
139
330
108
100
AcDbEntity
  8
BLOCKS
 62
    16
100
AcDbHatch
 10
0.0
 20
0.0
 30
0.0
210
0.0
220
0.0
230
1.0
  2
ANSI32
 70
     0
 71
     0
 91
        1
 92
        0
 93
        4
 72
     1
 10
20.07973897339712
 20
26.39335614785342
 11
20.15061820105523
 21
26.38923090965904
 72
     1
 10
20.15061820105523
 20
26.38923090965904
 11
20.15248801479373
 21
26.42135777055884
 72
     1
 10
20.15248801479373
 20
26.42135777055884
 11
20.07973897339712
 21
26.42559183368408
 72
     1
 10
20.07973897339712
 20
26.42559183368408
 11
20.07973897339712
 21
26.39335614785342
 97
        0
 75
     0
 76
     1
 52
0.0
 41
0.2
 77
     0
 78
     2
 53
45.0
 43
0.0
 44
0.0
 45
-0.0530330085889911
 46
0.0530330085889911
 79
     0
 53
45.0
 43
0.035355339
 44
0.0
 45
-0.0530330085889911
 46
0.0530330085889911
 79
     0
 98
        1
 10
0.0
 20
0.0
  0
HATCH
  5
13A
330
108
100
AcDbEntity
  8
BLOCKS
 62
    16
100
AcDbHatch
 10
0.0
 20
0.0
 30
0.0
210
0.0
220
0.0
230
1.0
  2
ANSI32
 70
     0
 71
     0
 91
        1
 92
        0
 93
        4
 72
     1
 10
20.00284710159458
 20
26.38969551511265
 11
19.95807548170848
 21
26.38969551511265
 72
     2
 10
20.04035770827806
 20
26.42125149432493
 40
0.0881257319589163
 50
200.9822712637957
 51
339.0177287362059
 73
     1
 72
     1
 10
20.12263993484765
 20
26.38969551511265
 11
20.07973897339712
 21
26.38969551511265
 72
     1
 10
20.07973897339712
 20
26.38969551511265
 11
20.00284710159458
 21
26.38969551511265
 97
        0
 75
     0
 76
     1
 52
0.0
 41
0.2
 77
     0
 78
     2
 53
45.0
 43
0.0
 44
0.0
 45
-0.0530330085889911
 46
0.0530330085889911
 79
     0
 53
45.0
 43
0.035355339
 44
0.0
 45
-0.0530330085889911
 46
0.0530330085889911
 79
     0
 98
        1
 10
0.0
 20
0.0
  0
HATCH
  5
13B
330
108
100
AcDbEntity
  8
0
  6
Continuous
 62
    16
100
AcDbHatch
 10
0.0
 20
0.0
 30
0.0
210
0.0
220
0.0
230
1.0
  2
ANSI36
 70
     0
 71
     0
 91
        1
 92
        0
 93
        9
 72
     2
 10
20.89973907216103
 20
26.9140495115044
 40
0.0659795528056695
 50
270.0000000000008
 51
360.0000000000008
 73
     0
 72
     1
 10
20.9657186249667
 20
26.9140495115044
 11
20.9657186249667
 21
26.58484538338648
 72
     1
 10
20.9657186249667
 20
26.58484538338648
 11
20.10334290092126
 21
26.58484538338648
 72
     1
 10
20.10334290092126
 20
26.58484538338648
 11
20.10334290092126
 21
26.86520762058046
 72
     1
 10
20.10334290092126
 20
26.86520762058046
 11
19.98147745321076
 21
26.86520762058046
 72
     1
 10
19.98147745321076
 20
26.86520762058046
 11
19.98147745321076
 21
26.58484538338648
 72
     1
 10
19.98147745321076
 20
26.58484538338648
 11
19.27434969107827
 21
26.58484538338648
 72
     4
 94
        3
 73
     1
 74
     0
 95
        8
 96
        4
 40
0.0
 40
0.0
 40
0.0
 40
0.0
 40
1.0
 40
1.0
 40
1.0
 40
1.0
 10
19.27434969107827
 20
26.58484538338648
 42
1.0
 10
19.11947833134008
 20
26.72443452904972
 42
1.0
 10
19.40755868602182
 20
26.86177152370009
 42
1.0
 10
19.24466603742839
 20
26.98002906431008
 42
1.0
 72
     1
 10
19.24466603742839
 20
26.98002906431008
 11
20.89973907216103
 21
26.98002906431007
 97
        0
 75
     0
 76
     1
 52
90.0
 41
0.5
 77
     0
 78
     1
 53
135.0000000000002
 43
0.0
 44
0.0
 45
-0.121533978016438
 46
0.033145630368119
 79
     4
 49
0.15625
 49
-0.03125
 49
0.0
 49
-0.03125
 98
        1
 10
0.0
 20
0.0
  0
ENDBLK
  5
10A
330
108
100
AcDbEntity
  8
0
100
AcDbBlockEnd
  0
BLOCK
  5
167
330
166
100
AcDbEntity
  8
0
100
AcDbBlockBegin
  2
_D
 70
     0
 10
0.0
 20
0.0
 30
0.0
  3
_D
  1

  0
SOLID
  5
169
330
166
100
AcDbEntity
  8
DIM
100
AcDbTrace
 10
6.3490445503
 20
20.3642016995
 30
0.0
 11
6.3179322707
 21
20.1619718818
 31
0.0
 12
6.38015683
 22
20.1619718818
 32
0.0
 13
6.38015683
 23
20.1619718818
 33
0.0
  0
SOLID
  5
16A
330
166
100
AcDbEntity
  8
DIM
100
AcDbTrace
 10
6.3490445503
 20
1.3642016995
 30
0.0
 11
6.38015683
 21
1.5664315172
 31
0.0
 12
6.3179322707
 22
1.5664315172
 32
0.0
 13
6.3179322707
 23
1.5664315172
 33
0.0
  0
LINE
  5
16B
330
166
100
AcDbEntity
  8
DIM
100
AcDbLine
 10
6.1175630594
 20
13.3819601987
 30
0.0
 11
6.0481186158
 21
13.3819601987
 31
0.0
  0
LINE
  5
16C
330
166
100
AcDbEntity
  8
DIM
100
AcDbLine
 10
6.0481186158
 20
13.3819601987
 30
0.0
 11
6.0481186158
 21
13.0713891997
 31
0.0
  0
LINE
  5
16D
330
166
100
AcDbEntity
  8
DIM
100
AcDbLine
 10
6.0481186158
 20
13.0713891997
 30
0.0
 11
6.1175630594
 21
13.0713891997
 31
0.0
  0
LINE
  5
16E
330
166
100
AcDbEntity
  8
DIM
100
AcDbLine
 10
6.5805260413
 20
13.3819601987
 30
0.0
 11
6.6499704849
 21
13.3819601987
 31
0.0
  0
LINE
  5
16F
330
166
100
AcDbEntity
  8
DIM
100
AcDbLine
 10
6.6499704849
 20
13.3819601987
 30
0.0
 11
6.6499704849
 21
13.0713891997
 31
0.0
  0
LINE
  5
170
330
166
100
AcDbEntity
  8
DIM
100
AcDbLine
 10
6.6499704849
 20
13.0713891997
 30
0.0
 11
6.5805260413
 21
13.0713891997
 31
0.0
  0
LINE
  5
171
330
166
100
AcDbEntity
  8
DIM
100
AcDbLine
 10
6.3490445503
 20
20.3642016995
 30
0.0
 11
6.3490445503
 21
13.7060342749
 31
0.0
  0
LINE
  5
172
330
166
100
AcDbEntity
  8
DIM
100
AcDbLine
 10
6.3490445503
 20
1.3642016995
 30
0.0
 11
6.3490445503
 21
13.0250928612
 31
0.0
  0
MTEXT
  5
173
330
166
100
AcDbEntity
  8
DIM
100
AcDbMText
 10
6.1453408369
 20
13.6968122751
 30
0.0
 40
0.2083333333
 41
0.0
 71
     1
 72
     1
  1
19"
  7
SLDTEXTSTYLE0
 73
     1
 44
1.0
  0
MTEXT
  5
174
330
166
100
AcDbEntity
  8
DIM
100
AcDbMText
 10
6.1175630594
 20
13.3399449926
 30
0.0
 40
0.2083333333
 41
0.0
 71
     1
 72
     1
  1
483
  7
SLDTEXTSTYLE0
 73
     1
 44
1.0
  0
ENDBLK
  5
168
330
166
100
AcDbEntity
  8
0
100
AcDbBlockEnd
  0
BLOCK
  5
178
330
177
100
AcDbEntity
  8
0
100
AcDbBlockBegin
  2
_D_1
 70
     0
 10
0.0
 20
0.0
 30
0.0
  3
_D_1
  1

  0
SOLID
  5
17A
330
177
100
AcDbEntity
  8
DIM
100
AcDbTrace
 10
8.5775143773
 20
1.9892016995
 30
0.0
 11
8.6086266569
 21
2.1914315172
 31
0.0
 12
8.5464020976
 22
2.1914315172
 32
0.0
 13
8.5464020976
 23
2.1914315172
 33
0.0
  0
SOLID
  5
17B
330
177
100
AcDbEntity
  8
DIM
100
AcDbTrace
 10
8.5775143773
 20
19.7392016995
 30
0.0
 11
8.5464020976
 21
19.5369718818
 31
0.0
 12
8.6086266569
 22
19.5369718818
 32
0.0
 13
8.6086266569
 23
19.5369718818
 33
0.0
  0
LINE
  5
17C
330
177
100
AcDbEntity
  8
DIM
100
AcDbLine
 10
8.5757782857
 20
14.3195478925
 30
0.0
 11
8.7891270544
 21
14.3195478925
 31
0.0
  0
LINE
  5
17D
330
177
100
AcDbEntity
  8
DIM
100
AcDbLine
 10
8.3460328864
 20
13.9718626944
 30
0.0
 11
8.2765884428
 21
13.9718626944
 31
0.0
  0
LINE
  5
17E
330
177
100
AcDbEntity
  8
DIM
100
AcDbLine
 10
8.2765884428
 20
13.9718626944
 30
0.0
 11
8.2765884428
 21
13.6612916955
 31
0.0
  0
LINE
  5
17F
330
177
100
AcDbEntity
  8
DIM
100
AcDbLine
 10
8.2765884428
 20
13.6612916955
 30
0.0
 11
8.3460328864
 21
13.6612916955
 31
0.0
  0
LINE
  5
180
330
177
100
AcDbEntity
  8
DIM
100
AcDbLine
 10
8.8089958682
 20
13.9718626944
 30
0.0
 11
8.8784403118
 21
13.9718626944
 31
0.0
  0
LINE
  5
181
330
177
100
AcDbEntity
  8
DIM
100
AcDbLine
 10
8.8784403118
 20
13.9718626944
 30
0.0
 11
8.8784403118
 21
13.6612916955
 31
0.0
  0
LINE
  5
182
330
177
100
AcDbEntity
  8
DIM
100
AcDbLine
 10
8.8784403118
 20
13.6612916955
 30
0.0
 11
8.8089958682
 21
13.6612916955
 31
0.0
  0
LINE
  5
183
330
177
100
AcDbEntity
  8
DIM
100
AcDbLine
 10
8.5775143773
 20
1.9892016995
 30
0.0
 11
8.5775143773
 21
13.614995357
 31
0.0
  0
LINE
  5
184
330
177
100
AcDbEntity
  8
DIM
100
AcDbLine
 10
8.5775143773
 20
19.7392016995
 30
0.0
 11
8.5775143773
 21
14.5796173336
 31
0.0
  0
MTEXT
  5
185
330
177
100
AcDbEntity
  8
DIM
100
AcDbMText
 10
8.2376224104
 20
14.4284633866
 30
0.0
 40
0.2083333333
 41
0.0
 71
     1
 72
     1
  1
17
  7
SLDTEXTSTYLE0
 73
     1
 44
1.0
  0
MTEXT
  5
186
330
177
100
AcDbEntity
  8
DIM
100
AcDbMText
 10
8.6052921731
 20
14.5703953337
 30
0.0
 40
0.2083333333
 41
0.0
 71
     1
 72
     1
  1
3
  7
SLDTEXTSTYLE0
 73
     1
 44
1.0
  0
MTEXT
  5
187
330
177
100
AcDbEntity
  8
DIM
100
AcDbMText
 10
8.6052921731
 20
14.2867147817
 30
0.0
 40
0.2083333333
 41
0.0
 71
     1
 72
     1
  1
4
  7
SLDTEXTSTYLE0
 73
     1
 44
1.0
  0
MTEXT
  5
188
330
177
100
AcDbEntity
  8
DIM
100
AcDbMText
 10
8.8186409418
 20
14.4284633866
 30
0.0
 40
0.2083333333
 41
0.0
 71
     1
 72
     1
  1
"
  7
SLDTEXTSTYLE0
 73
     1
 44
1.0
  0
MTEXT
  5
189
330
177
100
AcDbEntity
  8
DIM
100
AcDbMText
 10
8.3460328864
 20
13.9298474884
 30
0.0
 40
0.2083333333
 41
0.0
 71
     1
 72
     1
  1
451
  7
SLDTEXTSTYLE0
 73
     1
 44
1.0
  0
ENDBLK
  5
179
330
177
100
AcDbEntity
  8
0
100
AcDbBlockEnd
  0
BLOCK
  5
18C
330
18B
100
AcDbEntity
  8
0
100
AcDbBlockBegin
  2
_D_2
 70
     0
 10
0.0
 20
0.0
 30
0.0
  3
_D_2
  1

  0
SOLID
  5
18E
330
18B
100
AcDbEntity
  8
DIM
100
AcDbTrace
 10
27.1226873457
 20
18.3642016995
 30
0.0
 11
27.0915750661
 21
18.1619718818
 31
0.0
 12
27.1537996254
 22
18.1619718818
 32
0.0
 13
27.1537996254
 23
18.1619718818
 33
0.0
  0
SOLID
  5
18F
330
18B
100
AcDbEntity
  8
DIM
100
AcDbTrace
 10
27.1226873457
 20
1.3642016995
 30
0.0
 11
27.1537996254
 21
1.5664315172
 31
0.0
 12
27.0915750661
 22
1.5664315172
 32
0.0
 13
27.0915750661
 23
1.5664315172
 33
0.0
  0
LINE
  5
190
330
18B
100
AcDbEntity
  8
DIM
100
AcDbLine
 10
26.8912058548
 20
8.0390041676
 30
0.0
 11
26.8217614112
 21
8.0390041676
 31
0.0
  0
LINE
  5
191
330
18B
100
AcDbEntity
  8
DIM
100
AcDbLine
 10
26.8217614112
 20
8.0390041676
 30
0.0
 11
26.8217614112
 21
7.7284331687
 31
0.0
  0
LINE
  5
192
330
18B
100
AcDbEntity
  8
DIM
100
AcDbLine
 10
26.8217614112
 20
7.7284331687
 30
0.0
 11
26.8912058548
 21
7.7284331687
 31
0.0
  0
LINE
  5
193
330
18B
100
AcDbEntity
  8
DIM
100
AcDbLine
 10
27.3541688366
 20
8.0390041676
 30
0.0
 11
27.4236132802
 21
8.0390041676
 31
0.0
  0
LINE
  5
194
330
18B
100
AcDbEntity
  8
DIM
100
AcDbLine
 10
27.4236132802
 20
8.0390041676
 30
0.0
 11
27.4236132802
 21
7.7284331687
 31
0.0
  0
LINE
  5
195
330
18B
100
AcDbEntity
  8
DIM
100
AcDbLine
 10
27.4236132802
 20
7.7284331687
 30
0.0
 11
27.3541688366
 21
7.7284331687
 31
0.0
  0
LINE
  5
196
330
18B
100
AcDbEntity
  8
DIM
100
AcDbLine
 10
27.1226873457
 20
18.3642016995
 30
0.0
 11
27.1226873457
 21
8.3630782439
 31
0.0
  0
LINE
  5
197
330
18B
100
AcDbEntity
  8
DIM
100
AcDbLine
 10
27.1226873457
 20
1.3642016995
 30
0.0
 11
27.1226873457
 21
7.6821368302
 31
0.0
  0
MTEXT
  5
198
330
18B
100
AcDbEntity
  8
DIM
100
AcDbMText
 10
26.9189836323
 20
8.353856244
 30
0.0
 40
0.2083333333
 41
0.0
 71
     1
 72
     1
  1
17"
  7
SLDTEXTSTYLE0
 73
     1
 44
1.0
  0
MTEXT
  5
199
330
18B
100
AcDbEntity
  8
DIM
100
AcDbMText
 10
26.8912058548
 20
7.9969889616
 30
0.0
 40
0.2083333333
 41
0.0
 71
     1
 72
     1
  1
432
  7
SLDTEXTSTYLE0
 73
     1
 44
1.0
  0
ENDBLK
  5
18D
330
18B
100
AcDbEntity
  8
0
100
AcDbBlockEnd
  0
BLOCK
  5
19C
330
19B
100
AcDbEntity
  8
0
100
AcDbBlockBegin
  2
_D_3
 70
     0
 10
0.0
 20
0.0
 30
0.0
  3
_D_3
  1

  0
SOLID
  5
19E
330
19B
100
AcDbEntity
  8
DIM
100
AcDbTrace
 10
26.0224025893
 20
17.8642016995
 30
0.0
 11
25.9912903097
 21
17.6619718818
 31
0.0
 12
26.053514869
 22
17.6619718818
 32
0.0
 13
26.053514869
 23
17.6619718818
 33
0.0
  0
SOLID
  5
19F
330
19B
100
AcDbEntity
  8
DIM
100
AcDbTrace
 10
26.0224025893
 20
1.8642016995
 30
0.0
 11
26.053514869
 21
2.0664315172
 31
0.0
 12
25.9912903097
 22
2.0664315172
 32
0.0
 13
25.9912903097
 23
2.0664315172
 33
0.0
  0
LINE
  5
1A0
330
19B
100
AcDbEntity
  8
DIM
100
AcDbLine
 10
25.7909210984
 20
9.6082538381
 30
0.0
 11
25.7214766548
 21
9.6082538381
 31
0.0
  0
LINE
  5
1A1
330
19B
100
AcDbEntity
  8
DIM
100
AcDbLine
 10
25.7214766548
 20
9.6082538381
 30
0.0
 11
25.7214766548
 21
9.2976828391
 31
0.0
  0
LINE
  5
1A2
330
19B
100
AcDbEntity
  8
DIM
100
AcDbLine
 10
25.7214766548
 20
9.2976828391
 30
0.0
 11
25.7909210984
 21
9.2976828391
 31
0.0
  0
LINE
  5
1A3
330
19B
100
AcDbEntity
  8
DIM
100
AcDbLine
 10
26.2538840802
 20
9.6082538381
 30
0.0
 11
26.3233285238
 21
9.6082538381
 31
0.0
  0
LINE
  5
1A4
330
19B
100
AcDbEntity
  8
DIM
100
AcDbLine
 10
26.3233285238
 20
9.6082538381
 30
0.0
 11
26.3233285238
 21
9.2976828391
 31
0.0
  0
LINE
  5
1A5
330
19B
100
AcDbEntity
  8
DIM
100
AcDbLine
 10
26.3233285238
 20
9.2976828391
 30
0.0
 11
26.2538840802
 21
9.2976828391
 31
0.0
  0
LINE
  5
1A6
330
19B
100
AcDbEntity
  8
DIM
100
AcDbLine
 10
26.0224025893
 20
17.8642016995
 30
0.0
 11
26.0224025893
 21
9.9323279143
 31
0.0
  0
LINE
  5
1A7
330
19B
100
AcDbEntity
  8
DIM
100
AcDbLine
 10
26.0224025893
 20
1.8642016995
 30
0.0
 11
26.0224025893
 21
9.2513865006
 31
0.0
  0
MTEXT
  5
1A8
330
19B
100
AcDbEntity
  8
DIM
100
AcDbMText
 10
25.8186988759
 20
9.9231059144
 30
0.0
 40
0.2083333333
 41
0.0
 71
     1
 72
     1
  1
16"
  7
SLDTEXTSTYLE0
 73
     1
 44
1.0
  0
MTEXT
  5
1A9
330
19B
100
AcDbEntity
  8
DIM
100
AcDbMText
 10
25.7909210984
 20
9.566238632
 30
0.0
 40
0.2083333333
 41
0.0
 71
     1
 72
     1
  1
406
  7
SLDTEXTSTYLE0
 73
     1
 44
1.0
  0
ENDBLK
  5
19D
330
19B
100
AcDbEntity
  8
0
100
AcDbBlockEnd
  0
BLOCK
  5
1AC
330
1AB
100
AcDbEntity
  8
0
100
AcDbBlockBegin
  2
_D_4
 70
     0
 10
0.0
 20
0.0
 30
0.0
  3
_D_4
  1

  0
SOLID
  5
1AE
330
1AB
100
AcDbEntity
  8
DIM
100
AcDbTrace
 10
24.8917939094
 20
1.9892016995
 30
0.0
 11
24.9229061891
 21
2.1914315172
 31
0.0
 12
24.8606816298
 22
2.1914315172
 32
0.0
 13
24.8606816298
 23
2.1914315172
 33
0.0
  0
SOLID
  5
1AF
330
1AB
100
AcDbEntity
  8
DIM
100
AcDbTrace
 10
24.8917939094
 20
17.7392016995
 30
0.0
 11
24.8606816298
 21
17.5369718818
 31
0.0
 12
24.9229061891
 22
17.5369718818
 32
0.0
 13
24.9229061891
 23
17.5369718818
 33
0.0
  0
LINE
  5
1B0
330
1AB
100
AcDbEntity
  8
DIM
100
AcDbLine
 10
24.8900578178
 20
11.9071406905
 30
0.0
 11
25.1034065865
 21
11.9071406905
 31
0.0
  0
LINE
  5
1B1
330
1AB
100
AcDbEntity
  8
DIM
100
AcDbLine
 10
24.6603124185
 20
11.5594554924
 30
0.0
 11
24.5908679749
 21
11.5594554924
 31
0.0
  0
LINE
  5
1B2
330
1AB
100
AcDbEntity
  8
DIM
100
AcDbLine
 10
24.5908679749
 20
11.5594554924
 30
0.0
 11
24.5908679749
 21
11.2488844935
 31
0.0
  0
LINE
  5
1B3
330
1AB
100
AcDbEntity
  8
DIM
100
AcDbLine
 10
24.5908679749
 20
11.2488844935
 30
0.0
 11
24.6603124185
 21
11.2488844935
 31
0.0
  0
LINE
  5
1B4
330
1AB
100
AcDbEntity
  8
DIM
100
AcDbLine
 10
25.1232754003
 20
11.5594554924
 30
0.0
 11
25.192719844
 21
11.5594554924
 31
0.0
  0
LINE
  5
1B5
330
1AB
100
AcDbEntity
  8
DIM
100
AcDbLine
 10
25.192719844
 20
11.5594554924
 30
0.0
 11
25.192719844
 21
11.2488844935
 31
0.0
  0
LINE
  5
1B6
330
1AB
100
AcDbEntity
  8
DIM
100
AcDbLine
 10
25.192719844
 20
11.2488844935
 30
0.0
 11
25.1232754003
 21
11.2488844935
 31
0.0
  0
LINE
  5
1B7
330
1AB
100
AcDbEntity
  8
DIM
100
AcDbLine
 10
24.8917939094
 20
1.9892016995
 30
0.0
 11
24.8917939094
 21
11.202588155
 31
0.0
  0
LINE
  5
1B8
330
1AB
100
AcDbEntity
  8
DIM
100
AcDbLine
 10
24.8917939094
 20
17.7392016995
 30
0.0
 11
24.8917939094
 21
12.1672101316
 31
0.0
  0
MTEXT
  5
1B9
330
1AB
100
AcDbEntity
  8
DIM
100
AcDbMText
 10
24.5519019426
 20
12.0160561846
 30
0.0
 40
0.2083333333
 41
0.0
 71
     1
 72
     1
  1
15
  7
SLDTEXTSTYLE0
 73
     1
 44
1.0
  0
MTEXT
  5
1BA
330
1AB
100
AcDbEntity
  8
DIM
100
AcDbMText
 10
24.9195717052
 20
12.1579881317
 30
0.0
 40
0.2083333333
 41
0.0
 71
     1
 72
     1
  1
3
  7
SLDTEXTSTYLE0
 73
     1
 44
1.0
  0
MTEXT
  5
1BB
330
1AB
100
AcDbEntity
  8
DIM
100
AcDbMText
 10
24.9195717052
 20
11.8743075797
 30
0.0
 40
0.2083333333
 41
0.0
 71
     1
 72
     1
  1
4
  7
SLDTEXTSTYLE0
 73
     1
 44
1.0
  0
MTEXT
  5
1BC
330
1AB
100
AcDbEntity
  8
DIM
100
AcDbMText
 10
25.1329204739
 20
12.0160561846
 30
0.0
 40
0.2083333333
 41
0.0
 71
     1
 72
     1
  1
"
  7
SLDTEXTSTYLE0
 73
     1
 44
1.0
  0
MTEXT
  5
1BD
330
1AB
100
AcDbEntity
  8
DIM
100
AcDbMText
 10
24.6603124185
 20
11.5174402863
 30
0.0
 40
0.2083333333
 41
0.0
 71
     1
 72
     1
  1
400
  7
SLDTEXTSTYLE0
 73
     1
 44
1.0
  0
ENDBLK
  5
1AD
330
1AB
100
AcDbEntity
  8
0
100
AcDbBlockEnd
  0
BLOCK
  5
1C0
330
1BF
100
AcDbEntity
  8
0
100
AcDbBlockBegin
  2
_D_5
 70
     0
 10
0.0
 20
0.0
 30
0.0
  3
_D_5
  1

  0
SOLID
  5
1C2
330
1BF
100
AcDbEntity
  8
DIM
100
AcDbTrace
 10
2.0631538881
 20
5.3912351676
 30
0.0
 11
2.2653837058
 21
5.3601228879
 31
0.0
 12
2.2653837058
 22
5.4223474472
 32
0.0
 13
2.2653837058
 23
5.4223474472
 33
0.0
  0
SOLID
  5
1C3
330
1BF
100
AcDbEntity
  8
DIM
100
AcDbTrace
 10
31.8131538881
 20
5.3912351676
 30
0.0
 11
31.6109240704
 21
5.4223474472
 31
0.0
 12
31.6109240704
 22
5.3601228879
 32
0.0
 13
31.6109240704
 23
5.3601228879
 33
0.0
  0
LINE
  5
1C4
330
1BF
100
AcDbEntity
  8
DIM
100
AcDbLine
 10
12.7198078601
 20
5.6134767148
 30
0.0
 11
12.9331566288
 21
5.6134767148
 31
0.0
  0
LINE
  5
1C5
330
1BF
100
AcDbEntity
  8
DIM
100
AcDbLine
 10
12.4900624608
 20
5.2657915167
 30
0.0
 11
12.4206180172
 21
5.2657915167
 31
0.0
  0
LINE
  5
1C6
330
1BF
100
AcDbEntity
  8
DIM
100
AcDbLine
 10
12.4206180172
 20
5.2657915167
 30
0.0
 11
12.4206180172
 21
4.9552205178
 31
0.0
  0
LINE
  5
1C7
330
1BF
100
AcDbEntity
  8
DIM
100
AcDbLine
 10
12.4206180172
 20
4.9552205178
 30
0.0
 11
12.4900624608
 21
4.9552205178
 31
0.0
  0
LINE
  5
1C8
330
1BF
100
AcDbEntity
  8
DIM
100
AcDbLine
 10
12.9530254426
 20
5.2657915167
 30
0.0
 11
13.0224698862
 21
5.2657915167
 31
0.0
  0
LINE
  5
1C9
330
1BF
100
AcDbEntity
  8
DIM
100
AcDbLine
 10
13.0224698862
 20
5.2657915167
 30
0.0
 11
13.0224698862
 21
4.9552205178
 31
0.0
  0
LINE
  5
1CA
330
1BF
100
AcDbEntity
  8
DIM
100
AcDbLine
 10
13.0224698862
 20
4.9552205178
 30
0.0
 11
12.9530254426
 21
4.9552205178
 31
0.0
  0
LINE
  5
1CB
330
1BF
100
AcDbEntity
  8
DIM
100
AcDbLine
 10
2.0631538881
 20
5.3912351676
 30
0.0
 11
12.3049137973
 21
5.3912351676
 31
0.0
  0
LINE
  5
1CC
330
1BF
100
AcDbEntity
  8
DIM
100
AcDbLine
 10
31.8131538881
 20
5.3912351676
 30
0.0
 11
13.1381741062
 21
5.3912351676
 31
0.0
  0
MTEXT
  5
1CD
330
1BF
100
AcDbEntity
  8
DIM
100
AcDbMText
 10
12.3816519848
 20
5.722392209
 30
0.0
 40
0.2083333333
 41
0.0
 71
     1
 72
     1
  1
29
  7
SLDTEXTSTYLE0
 73
     1
 44
1.0
  0
MTEXT
  5
1CE
330
1BF
100
AcDbEntity
  8
DIM
100
AcDbMText
 10
12.7493217475
 20
5.864324156
 30
0.0
 40
0.2083333333
 41
0.0
 71
     1
 72
     1
  1
3
  7
SLDTEXTSTYLE0
 73
     1
 44
1.0
  0
MTEXT
  5
1CF
330
1BF
100
AcDbEntity
  8
DIM
100
AcDbMText
 10
12.7493217475
 20
5.580643604
 30
0.0
 40
0.2083333333
 41
0.0
 71
     1
 72
     1
  1
4
  7
SLDTEXTSTYLE0
 73
     1
 44
1.0
  0
MTEXT
  5
1D0
330
1BF
100
AcDbEntity
  8
DIM
100
AcDbMText
 10
12.9626705162
 20
5.722392209
 30
0.0
 40
0.2083333333
 41
0.0
 71
     1
 72
     1
  1
"
  7
SLDTEXTSTYLE0
 73
     1
 44
1.0
  0
MTEXT
  5
1D1
330
1BF
100
AcDbEntity
  8
DIM
100
AcDbMText
 10
12.4900624608
 20
5.2237763107
 30
0.0
 40
0.2083333333
 41
0.0
 71
     1
 72
     1
  1
756
  7
SLDTEXTSTYLE0
 73
     1
 44
1.0
  0
ENDBLK
  5
1C1
330
1BF
100
AcDbEntity
  8
0
100
AcDbBlockEnd
  0
BLOCK
  5
1D4
330
1D3
100
AcDbEntity
  8
0
100
AcDbBlockBegin
  2
_D_6
 70
     0
 10
0.0
 20
0.0
 30
0.0
  3
_D_6
  1

  0
SOLID
  5
1D6
330
1D3
100
AcDbEntity
  8
DIM
100
AcDbTrace
 10
31.3131538881
 20
6.3256139657
 30
0.0
 11
31.1109240704
 21
6.3567262453
 31
0.0
 12
31.1109240704
 22
6.294501686
 32
0.0
 13
31.1109240704
 23
6.294501686
 33
0.0
  0
SOLID
  5
1D7
330
1D3
100
AcDbEntity
  8
DIM
100
AcDbTrace
 10
2.5631538881
 20
6.3256139657
 30
0.0
 11
2.7653837058
 21
6.294501686
 31
0.0
 12
2.7653837058
 22
6.3567262453
 32
0.0
 13
2.7653837058
 23
6.3567262453
 33
0.0
  0
LINE
  5
1D8
330
1D3
100
AcDbEntity
  8
DIM
100
AcDbLine
 10
18.0912416953
 20
6.5478555129
 30
0.0
 11
18.304590464
 21
6.5478555129
 31
0.0
  0
LINE
  5
1D9
330
1D3
100
AcDbEntity
  8
DIM
100
AcDbLine
 10
17.861496296
 20
6.2001703148
 30
0.0
 11
17.7920518524
 21
6.2001703148
 31
0.0
  0
LINE
  5
1DA
330
1D3
100
AcDbEntity
  8
DIM
100
AcDbLine
 10
17.7920518524
 20
6.2001703148
 30
0.0
 11
17.7920518524
 21
5.8895993159
 31
0.0
  0
LINE
  5
1DB
330
1D3
100
AcDbEntity
  8
DIM
100
AcDbLine
 10
17.7920518524
 20
5.8895993159
 30
0.0
 11
17.861496296
 21
5.8895993159
 31
0.0
  0
LINE
  5
1DC
330
1D3
100
AcDbEntity
  8
DIM
100
AcDbLine
 10
18.3244592778
 20
6.2001703148
 30
0.0
 11
18.3939037214
 21
6.2001703148
 31
0.0
  0
LINE
  5
1DD
330
1D3
100
AcDbEntity
  8
DIM
100
AcDbLine
 10
18.3939037214
 20
6.2001703148
 30
0.0
 11
18.3939037214
 21
5.8895993159
 31
0.0
  0
LINE
  5
1DE
330
1D3
100
AcDbEntity
  8
DIM
100
AcDbLine
 10
18.3939037214
 20
5.8895993159
 30
0.0
 11
18.3244592778
 21
5.8895993159
 31
0.0
  0
LINE
  5
1DF
330
1D3
100
AcDbEntity
  8
DIM
100
AcDbLine
 10
31.3131538881
 20
6.3256139657
 30
0.0
 11
18.5096079413
 21
6.3256139657
 31
0.0
  0
LINE
  5
1E0
330
1D3
100
AcDbEntity
  8
DIM
100
AcDbLine
 10
2.5631538881
 20
6.3256139657
 30
0.0
 11
17.6763476324
 21
6.3256139657
 31
0.0
  0
MTEXT
  5
1E1
330
1D3
100
AcDbEntity
  8
DIM
100
AcDbMText
 10
17.75308582
 20
6.6567710071
 30
0.0
 40
0.2083333333
 41
0.0
 71
     1
 72
     1
  1
28
  7
SLDTEXTSTYLE0
 73
     1
 44
1.0
  0
MTEXT
  5
1E2
330
1D3
100
AcDbEntity
  8
DIM
100
AcDbMText
 10
18.1207555826
 20
6.7987029541
 30
0.0
 40
0.2083333333
 41
0.0
 71
     1
 72
     1
  1
3
  7
SLDTEXTSTYLE0
 73
     1
 44
1.0
  0
MTEXT
  5
1E3
330
1D3
100
AcDbEntity
  8
DIM
100
AcDbMText
 10
18.1207555826
 20
6.5150224021
 30
0.0
 40
0.2083333333
 41
0.0
 71
     1
 72
     1
  1
4
  7
SLDTEXTSTYLE0
 73
     1
 44
1.0
  0
MTEXT
  5
1E4
330
1D3
100
AcDbEntity
  8
DIM
100
AcDbMText
 10
18.3341043514
 20
6.6567710071
 30
0.0
 40
0.2083333333
 41
0.0
 71
     1
 72
     1
  1
"
  7
SLDTEXTSTYLE0
 73
     1
 44
1.0
  0
MTEXT
  5
1E5
330
1D3
100
AcDbEntity
  8
DIM
100
AcDbMText
 10
17.861496296
 20
6.1581551088
 30
0.0
 40
0.2083333333
 41
0.0
 71
     1
 72
     1
  1
730
  7
SLDTEXTSTYLE0
 73
     1
 44
1.0
  0
ENDBLK
  5
1D5
330
1D3
100
AcDbEntity
  8
0
100
AcDbBlockEnd
  0
BLOCK
  5
1E8
330
1E7
100
AcDbEntity
  8
0
100
AcDbBlockBegin
  2
_D_7
 70
     0
 10
0.0
 20
0.0
 30
0.0
  3
_D_7
  1

  0
SOLID
  5
1EA
330
1E7
100
AcDbEntity
  8
DIM
100
AcDbTrace
 10
31.1881538881
 20
7.2157087348
 30
0.0
 11
30.9859240704
 21
7.2468210144
 31
0.0
 12
30.9859240704
 22
7.1845964551
 32
0.0
 13
30.9859240704
 23
7.1845964551
 33
0.0
  0
SOLID
  5
1EB
330
1E7
100
AcDbEntity
  8
DIM
100
AcDbTrace
 10
2.6881538881
 20
7.2157087348
 30
0.0
 11
2.8903837058
 21
7.1845964551
 31
0.0
 12
2.8903837058
 22
7.2468210144
 32
0.0
 13
2.8903837058
 23
7.2468210144
 33
0.0
  0
LINE
  5
1EC
330
1E7
100
AcDbEntity
  8
DIM
100
AcDbLine
 10
21.0796585366
 20
7.437950282
 30
0.0
 11
21.2930073053
 21
7.437950282
 31
0.0
  0
LINE
  5
1ED
330
1E7
100
AcDbEntity
  8
DIM
100
AcDbLine
 10
20.8499131373
 20
7.0902650839
 30
0.0
 11
20.7804686937
 21
7.0902650839
 31
0.0
  0
LINE
  5
1EE
330
1E7
100
AcDbEntity
  8
DIM
100
AcDbLine
 10
20.7804686937
 20
7.0902650839
 30
0.0
 11
20.7804686937
 21
6.779694085
 31
0.0
  0
LINE
  5
1EF
330
1E7
100
AcDbEntity
  8
DIM
100
AcDbLine
 10
20.7804686937
 20
6.779694085
 30
0.0
 11
20.8499131373
 21
6.779694085
 31
0.0
  0
LINE
  5
1F0
330
1E7
100
AcDbEntity
  8
DIM
100
AcDbLine
 10
21.3128761191
 20
7.0902650839
 30
0.0
 11
21.3823205627
 21
7.0902650839
 31
0.0
  0
LINE
  5
1F1
330
1E7
100
AcDbEntity
  8
DIM
100
AcDbLine
 10
21.3823205627
 20
7.0902650839
 30
0.0
 11
21.3823205627
 21
6.779694085
 31
0.0
  0
LINE
  5
1F2
330
1E7
100
AcDbEntity
  8
DIM
100
AcDbLine
 10
21.3823205627
 20
6.779694085
 30
0.0
 11
21.3128761191
 21
6.779694085
 31
0.0
  0
LINE
  5
1F3
330
1E7
100
AcDbEntity
  8
DIM
100
AcDbLine
 10
31.1881538881
 20
7.2157087348
 30
0.0
 11
21.4980247826
 21
7.2157087348
 31
0.0
  0
LINE
  5
1F4
330
1E7
100
AcDbEntity
  8
DIM
100
AcDbLine
 10
2.6881538881
 20
7.2157087348
 30
0.0
 11
20.6647644738
 21
7.2157087348
 31
0.0
  0
MTEXT
  5
1F5
330
1E7
100
AcDbEntity
  8
DIM
100
AcDbMText
 10
20.7415026613
 20
7.5468657761
 30
0.0
 40
0.2083333333
 41
0.0
 71
     1
 72
     1
  1
28
  7
SLDTEXTSTYLE0
 73
     1
 44
1.0
  0
MTEXT
  5
1F6
330
1E7
100
AcDbEntity
  8
DIM
100
AcDbMText
 10
21.109172424
 20
7.6887977232
 30
0.0
 40
0.2083333333
 41
0.0
 71
     1
 72
     1
  1
1
  7
SLDTEXTSTYLE0
 73
     1
 44
1.0
  0
MTEXT
  5
1F7
330
1E7
100
AcDbEntity
  8
DIM
100
AcDbMText
 10
21.109172424
 20
7.4051171712
 30
0.0
 40
0.2083333333
 41
0.0
 71
     1
 72
     1
  1
2
  7
SLDTEXTSTYLE0
 73
     1
 44
1.0
  0
MTEXT
  5
1F8
330
1E7
100
AcDbEntity
  8
DIM
100
AcDbMText
 10
21.3225211927
 20
7.5468657761
 30
0.0
 40
0.2083333333
 41
0.0
 71
     1
 72
     1
  1
"
  7
SLDTEXTSTYLE0
 73
     1
 44
1.0
  0
MTEXT
  5
1F9
330
1E7
100
AcDbEntity
  8
DIM
100
AcDbMText
 10
20.8499131373
 20
7.0482498779
 30
0.0
 40
0.2083333333
 41
0.0
 71
     1
 72
     1
  1
724
  7
SLDTEXTSTYLE0
 73
     1
 44
1.0
  0
ENDBLK
  5
1E9
330
1E7
100
AcDbEntity
  8
0
100
AcDbBlockEnd
  0
BLOCK
  5
1FD
330
1FC
100
AcDbEntity
  8
0
100
AcDbBlockBegin
  2
_D_8
 70
     0
 10
0.0
 20
0.0
 30
0.0
  3
_D_8
  1

  0
SOLID
  5
1FF
330
1FC
100
AcDbEntity
  8
DIM
100
AcDbTrace
 10
2.4292704116
 20
19.998085176
 30
0.0
 11
2.5502687832
 21
19.8330873966
 31
0.0
 12
2.594268191
 22
19.8770868044
 32
0.0
 13
2.594268191
 23
19.8770868044
 33
0.0
  0
LINE
  5
200
330
1FC
100
AcDbEntity
  8
DIM
100
AcDbLine
 10
5.0079537084
 20
18.2760955669
 30
0.0
 11
5.2213024771
 21
18.2760955669
 31
0.0
  0
LINE
  5
201
330
1FC
100
AcDbEntity
  8
DIM
100
AcDbLine
 10
4.8322207102
 20
17.9284103688
 30
0.0
 11
4.7627762666
 21
17.9284103688
 31
0.0
  0
LINE
  5
202
330
1FC
100
AcDbEntity
  8
DIM
100
AcDbLine
 10
4.7627762666
 20
17.9284103688
 30
0.0
 11
4.7627762666
 21
17.6178393698
 31
0.0
  0
LINE
  5
203
330
1FC
100
AcDbEntity
  8
DIM
100
AcDbLine
 10
4.7627762666
 20
17.6178393698
 30
0.0
 11
4.8322207102
 21
17.6178393698
 31
0.0
  0
LINE
  5
204
330
1FC
100
AcDbEntity
  8
DIM
100
AcDbLine
 10
5.140862698
 20
17.9284103688
 30
0.0
 11
5.2103071416
 21
17.9284103688
 31
0.0
  0
LINE
  5
205
330
1FC
100
AcDbEntity
  8
DIM
100
AcDbLine
 10
5.2103071416
 20
17.9284103688
 30
0.0
 11
5.2103071416
 21
17.6178393698
 31
0.0
  0
LINE
  5
206
330
1FC
100
AcDbEntity
  8
DIM
100
AcDbLine
 10
5.2103071416
 20
17.6178393698
 30
0.0
 11
5.140862698
 21
17.6178393698
 31
0.0
  0
LINE
  5
207
330
1FC
100
AcDbEntity
  8
DIM
100
AcDbLine
 10
2.4292704116
 20
19.998085176
 30
0.0
 11
4.373501568
 21
18.0538540196
 31
0.0
  0
LINE
  5
208
330
1FC
100
AcDbEntity
  8
DIM
100
AcDbLine
 10
4.373501568
 20
18.0538540196
 30
0.0
 11
4.623501568
 21
18.0538540196
 31
0.0
  0
MTEXT
  5
209
330
1FC
100
AcDbEntity
  8
DIM
100
AcDbMText
 10
4.623501568
 20
18.385011061
 30
0.0
 40
0.2083333333
 41
0.0
 71
     1
 72
     1
  1
R1
  7
SLDTEXTSTYLE0
 73
     1
 44
1.0
  0
MTEXT
  5
20A
330
1FC
100
AcDbEntity
  8
DIM
100
AcDbMText
 10
5.0374675958
 20
18.526943008
 30
0.0
 40
0.2083333333
 41
0.0
 71
     1
 72
     1
  1
1
  7
SLDTEXTSTYLE0
 73
     1
 44
1.0
  0
MTEXT
  5
20B
330
1FC
100
AcDbEntity
  8
DIM
100
AcDbMText
 10
5.0374675958
 20
18.243262456
 30
0.0
 40
0.2083333333
 41
0.0
 71
     1
 72
     1
  1
4
  7
SLDTEXTSTYLE0
 73
     1
 44
1.0
  0
MTEXT
  5
20C
330
1FC
100
AcDbEntity
  8
DIM
100
AcDbMText
 10
5.2508164012
 20
18.385011061
 30
0.0
 40
0.2083333333
 41
0.0
 71
     1
 72
     1
  1
"
  7
SLDTEXTSTYLE0
 73
     1
 44
1.0
  0
MTEXT
  5
20D
330
1FC
100
AcDbEntity
  8
DIM
100
AcDbMText
 10
4.8322207102
 20
17.8863951627
 30
0.0
 40
0.2083333333
 41
0.0
 71
     1
 72
     1
  1
32
  7
SLDTEXTSTYLE0
 73
     1
 44
1.0
  0
ENDBLK
  5
1FE
330
1FC
100
AcDbEntity
  8
0
100
AcDbBlockEnd
  0
BLOCK
  5
210
330
20F
100
AcDbEntity
  8
0
100
AcDbBlockBegin
  2
_D_9
 70
     0
 10
0.0
 20
0.0
 30
0.0
  3
_D_9
  1

  0
SOLID
  5
212
330
20F
100
AcDbEntity
  8
DIM
100
AcDbTrace
 10
2.8712121499
 20
2.1722599612
 30
0.0
 11
3.0362099292
 21
2.2932583328
 31
0.0
 12
2.9922105214
 22
2.3372577406
 32
0.0
 13
2.9922105214
 23
2.3372577406
 33
0.0
  0
LINE
  5
213
330
20F
100
AcDbEntity
  8
DIM
100
AcDbLine
 10
4.3790655263
 20
3.4148934597
 30
0.0
 11
4.592414295
 21
3.4148934597
 31
0.0
  0
LINE
  5
214
330
20F
100
AcDbEntity
  8
DIM
100
AcDbLine
 10
4.2804929884
 20
3.0672082616
 30
0.0
 11
4.2110485447
 21
3.0672082616
 31
0.0
  0
LINE
  5
215
330
20F
100
AcDbEntity
  8
DIM
100
AcDbLine
 10
4.2110485447
 20
3.0672082616
 30
0.0
 11
4.2110485447
 21
2.7566372627
 31
0.0
  0
LINE
  5
216
330
20F
100
AcDbEntity
  8
DIM
100
AcDbLine
 10
4.2110485447
 20
2.7566372627
 30
0.0
 11
4.2804929884
 21
2.7566372627
 31
0.0
  0
LINE
  5
217
330
20F
100
AcDbEntity
  8
DIM
100
AcDbLine
 10
4.5891349762
 20
3.0672082616
 30
0.0
 11
4.6585794198
 21
3.0672082616
 31
0.0
  0
LINE
  5
218
330
20F
100
AcDbEntity
  8
DIM
100
AcDbLine
 10
4.6585794198
 20
3.0672082616
 30
0.0
 11
4.6585794198
 21
2.7566372627
 31
0.0
  0
LINE
  5
219
330
20F
100
AcDbEntity
  8
DIM
100
AcDbLine
 10
4.6585794198
 20
2.7566372627
 30
0.0
 11
4.5891349762
 21
2.7566372627
 31
0.0
  0
LINE
  5
21A
330
20F
100
AcDbEntity
  8
DIM
100
AcDbLine
 10
2.8712121499
 20
2.1722599612
 30
0.0
 11
3.8916041011
 21
3.1926519125
 31
0.0
  0
LINE
  5
21B
330
20F
100
AcDbEntity
  8
DIM
100
AcDbLine
 10
3.8916041011
 20
3.1926519125
 30
0.0
 11
4.1416041011
 21
3.1926519125
 31
0.0
  0
MTEXT
  5
21C
330
20F
100
AcDbEntity
  8
DIM
100
AcDbMText
 10
4.1489343615
 20
3.5238089539
 30
0.0
 40
0.2083333333
 41
0.0
 71
     1
 72
     1
  1
R
  7
SLDTEXTSTYLE0
 73
     1
 44
1.0
  0
MTEXT
  5
21D
330
20F
100
AcDbEntity
  8
DIM
100
AcDbMText
 10
4.4085794137
 20
3.6657409009
 30
0.0
 40
0.2083333333
 41
0.0
 71
     1
 72
     1
  1
5
  7
SLDTEXTSTYLE0
 73
     1
 44
1.0
  0
MTEXT
  5
21E
330
20F
100
AcDbEntity
  8
DIM
100
AcDbMText
 10
4.4085794137
 20
3.3820603489
 30
0.0
 40
0.2083333333
 41
0.0
 71
     1
 72
     1
  1
8
  7
SLDTEXTSTYLE0
 73
     1
 44
1.0
  0
MTEXT
  5
21F
330
20F
100
AcDbEntity
  8
DIM
100
AcDbMText
 10
4.6219281641
 20
3.5238089539
 30
0.0
 40
0.2083333333
 41
0.0
 71
     1
 72
     1
  1
"
  7
SLDTEXTSTYLE0
 73
     1
 44
1.0
  0
MTEXT
  5
220
330
20F
100
AcDbEntity
  8
DIM
100
AcDbMText
 10
4.2804929884
 20
3.0251930556
 30
0.0
 40
0.2083333333
 41
0.0
 71
     1
 72
     1
  1
16
  7
SLDTEXTSTYLE0
 73
     1
 44
1.0
  0
ENDBLK
  5
211
330
20F
100
AcDbEntity
  8
0
100
AcDbBlockEnd
  0
BLOCK
  5
224
330
223
100
AcDbEntity
  8
0
100
AcDbBlockBegin
  2
_D_10
 70
     0
 10
0.0
 20
0.0
 30
0.0
  3
_D_10
  1

  0
SOLID
  5
226
330
223
100
AcDbEntity
  8
DIM
100
AcDbTrace
 10
31.093483974
 20
17.6445317854
 30
0.0
 11
31.2584817534
 21
17.7655301569
 31
0.0
 12
31.2144823455
 22
17.8095295647
 32
0.0
 13
31.2144823455
 23
17.8095295647
 33
0.0
  0
LINE
  5
227
330
223
100
AcDbEntity
  8
DIM
100
AcDbLine
 10
29.2228427471
 20
16.5950904428
 30
0.0
 11
29.4361915158
 21
16.5950904428
 31
0.0
  0
LINE
  5
228
330
223
100
AcDbEntity
  8
DIM
100
AcDbLine
 10
29.1242702091
 20
16.2474052447
 30
0.0
 11
29.0548257655
 21
16.2474052447
 31
0.0
  0
LINE
  5
229
330
223
100
AcDbEntity
  8
DIM
100
AcDbLine
 10
29.0548257655
 20
16.2474052447
 30
0.0
 11
29.0548257655
 21
15.9368342458
 31
0.0
  0
LINE
  5
22A
330
223
100
AcDbEntity
  8
DIM
100
AcDbLine
 10
29.0548257655
 20
15.9368342458
 30
0.0
 11
29.1242702091
 21
15.9368342458
 31
0.0
  0
LINE
  5
22B
330
223
100
AcDbEntity
  8
DIM
100
AcDbLine
 10
29.432912197
 20
16.2474052447
 30
0.0
 11
29.5023566406
 21
16.2474052447
 31
0.0
  0
LINE
  5
22C
330
223
100
AcDbEntity
  8
DIM
100
AcDbLine
 10
29.5023566406
 20
16.2474052447
 30
0.0
 11
29.5023566406
 21
15.9368342458
 31
0.0
  0
LINE
  5
22D
330
223
100
AcDbEntity
  8
DIM
100
AcDbLine
 10
29.5023566406
 20
15.9368342458
 30
0.0
 11
29.432912197
 21
15.9368342458
 31
0.0
  0
LINE
  5
22E
330
223
100
AcDbEntity
  8
DIM
100
AcDbLine
 10
31.093483974
 20
17.6445317854
 30
0.0
 11
29.8218010842
 21
16.3728488956
 31
0.0
  0
LINE
  5
22F
330
223
100
AcDbEntity
  8
DIM
100
AcDbLine
 10
31.093483974
 20
17.6445317854
 30
0.0
 11
31.368480273
 21
17.9195280843
 31
0.0
  0
LINE
  5
230
330
223
100
AcDbEntity
  8
DIM
100
AcDbLine
 10
29.8218010842
 20
16.3728488956
 30
0.0
 11
29.5718010842
 21
16.3728488956
 31
0.0
  0
MTEXT
  5
231
330
223
100
AcDbEntity
  8
DIM
100
AcDbMText
 10
28.9927115822
 20
16.7040059369
 30
0.0
 40
0.2083333333
 41
0.0
 71
     1
 72
     1
  1
R
  7
SLDTEXTSTYLE0
 73
     1
 44
1.0
  0
MTEXT
  5
232
330
223
100
AcDbEntity
  8
DIM
100
AcDbMText
 10
29.2523566345
 20
16.845937884
 30
0.0
 40
0.2083333333
 41
0.0
 71
     1
 72
     1
  1
3
  7
SLDTEXTSTYLE0
 73
     1
 44
1.0
  0
MTEXT
  5
233
330
223
100
AcDbEntity
  8
DIM
100
AcDbMText
 10
29.2523566345
 20
16.562257332
 30
0.0
 40
0.2083333333
 41
0.0
 71
     1
 72
     1
  1
4
  7
SLDTEXTSTYLE0
 73
     1
 44
1.0
  0
MTEXT
  5
234
330
223
100
AcDbEntity
  8
DIM
100
AcDbMText
 10
29.4657053848
 20
16.7040059369
 30
0.0
 40
0.2083333333
 41
0.0
 71
     1
 72
     1
  1
"
  7
SLDTEXTSTYLE0
 73
     1
 44
1.0
  0
MTEXT
  5
235
330
223
100
AcDbEntity
  8
DIM
100
AcDbMText
 10
29.1242702091
 20
16.2053900387
 30
0.0
 40
0.2083333333
 41
0.0
 71
     1
 72
     1
  1
19
  7
SLDTEXTSTYLE0
 73
     1
 44
1.0
  0
ENDBLK
  5
225
330
223
100
AcDbEntity
  8
0
100
AcDbBlockEnd
  0
BLOCK
  5
239
330
238
100
AcDbEntity
  8
0
100
AcDbBlockBegin
  2
_D_11
 70
     0
 10
0.0
 20
0.0
 30
0.0
  3
_D_11
  1

  0
SOLID
  5
23B
330
238
100
AcDbEntity
  8
DIM
100
AcDbTrace
 10
26.0224645525
 20
17.8642016995
 30
0.0
 11
25.9913522729
 21
17.6619718818
 31
0.0
 12
26.0535768322
 22
17.6619718818
 32
0.0
 13
26.0535768322
 23
17.6619718818
 33
0.0
  0
SOLID
  5
23C
330
238
100
AcDbEntity
  8
DIM
100
AcDbTrace
 10
26.0224645525
 20
18.3642016995
 30
0.0
 11
26.0535768322
 21
18.5664315172
 31
0.0
 12
25.9913522729
 22
18.5664315172
 32
0.0
 13
25.9913522729
 23
18.5664315172
 33
0.0
  0
LINE
  5
23D
330
238
100
AcDbEntity
  8
DIM
100
AcDbLine
 10
25.1844182385
 20
19.4672572299
 30
0.0
 11
25.3977670072
 21
19.4672572299
 31
0.0
  0
LINE
  5
23E
330
238
100
AcDbEntity
  8
DIM
100
AcDbLine
 10
25.1861543485
 20
19.1195720318
 30
0.0
 11
25.1167099049
 21
19.1195720318
 31
0.0
  0
LINE
  5
23F
330
238
100
AcDbEntity
  8
DIM
100
AcDbLine
 10
25.1167099049
 20
19.1195720318
 30
0.0
 11
25.1167099049
 21
18.8090010328
 31
0.0
  0
LINE
  5
240
330
238
100
AcDbEntity
  8
DIM
100
AcDbLine
 10
25.1167099049
 20
18.8090010328
 30
0.0
 11
25.1861543485
 21
18.8090010328
 31
0.0
  0
LINE
  5
241
330
238
100
AcDbEntity
  8
DIM
100
AcDbLine
 10
25.4947963364
 20
19.1195720318
 30
0.0
 11
25.56424078
 21
19.1195720318
 31
0.0
  0
LINE
  5
242
330
238
100
AcDbEntity
  8
DIM
100
AcDbLine
 10
25.56424078
 20
19.1195720318
 30
0.0
 11
25.56424078
 21
18.8090010328
 31
0.0
  0
LINE
  5
243
330
238
100
AcDbEntity
  8
DIM
100
AcDbLine
 10
25.56424078
 20
18.8090010328
 30
0.0
 11
25.4947963364
 21
18.8090010328
 31
0.0
  0
LINE
  5
244
330
238
100
AcDbEntity
  8
DIM
100
AcDbLine
 10
25.7724645525
 20
19.2450156826
 30
0.0
 11
26.0224645525
 21
19.2450156826
 31
0.0
  0
LINE
  5
245
330
238
100
AcDbEntity
  8
DIM
100
AcDbLine
 10
26.0224645525
 20
19.2450156826
 30
0.0
 11
26.0224645525
 21
18.3642016995
 31
0.0
  0
LINE
  5
246
330
238
100
AcDbEntity
  8
DIM
100
AcDbLine
 10
26.0224645525
 20
17.8642016995
 30
0.0
 11
26.0224645525
 21
17.4752982039
 31
0.0
  0
MTEXT
  5
247
330
238
100
AcDbEntity
  8
DIM
100
AcDbMText
 10
25.2139321259
 20
19.718104671
 30
0.0
 40
0.2083333333
 41
0.0
 71
     1
 72
     1
  1
1
  7
SLDTEXTSTYLE0
 73
     1
 44
1.0
  0
MTEXT
  5
248
330
238
100
AcDbEntity
  8
DIM
100
AcDbMText
 10
25.2139321259
 20
19.434424119
 30
0.0
 40
0.2083333333
 41
0.0
 71
     1
 72
     1
  1
2
  7
SLDTEXTSTYLE0
 73
     1
 44
1.0
  0
MTEXT
  5
249
330
238
100
AcDbEntity
  8
DIM
100
AcDbMText
 10
25.4272808946
 20
19.576172724
 30
0.0
 40
0.2083333333
 41
0.0
 71
     1
 72
     1
  1
"
  7
SLDTEXTSTYLE0
 73
     1
 44
1.0
  0
MTEXT
  5
24A
330
238
100
AcDbEntity
  8
DIM
100
AcDbMText
 10
25.1861543485
 20
19.0775568257
 30
0.0
 40
0.2083333333
 41
0.0
 71
     1
 72
     1
  1
13
  7
SLDTEXTSTYLE0
 73
     1
 44
1.0
  0
ENDBLK
  5
23A
330
238
100
AcDbEntity
  8
0
100
AcDbBlockEnd
  0
BLOCK
  5
24E
330
24D
100
AcDbEntity
  8
0
100
AcDbBlockBegin
  2
_D_12
 70
     0
 10
0.0
 20
0.0
 30
0.0
  3
_D_12
  1

  0
SOLID
  5
250
330
24D
100
AcDbEntity
  8
DIM
100
AcDbTrace
 10
17.828427245
 20
17.9779152719
 30
0.0
 11
17.7192170357
 21
17.8048892528
 31
0.0
 12
17.7762750396
 22
17.7800642659
 32
0.0
 13
17.7762750396
 23
17.7800642659
 33
0.0
  0
LINE
  5
251
330
24D
100
AcDbEntity
  8
DIM
100
AcDbLine
 10
16.6505420288
 20
16.8526975373
 30
0.0
 11
16.8638907975
 21
16.8526975373
 31
0.0
  0
LINE
  5
252
330
24D
100
AcDbEntity
  8
DIM
100
AcDbLine
 10
16.4748090305
 20
16.5050123392
 30
0.0
 11
16.4053645869
 21
16.5050123392
 31
0.0
  0
LINE
  5
253
330
24D
100
AcDbEntity
  8
DIM
100
AcDbLine
 10
16.4053645869
 20
16.5050123392
 30
0.0
 11
16.4053645869
 21
16.1944413403
 31
0.0
  0
LINE
  5
254
330
24D
100
AcDbEntity
  8
DIM
100
AcDbLine
 10
16.4053645869
 20
16.1944413403
 30
0.0
 11
16.4748090305
 21
16.1944413403
 31
0.0
  0
LINE
  5
255
330
24D
100
AcDbEntity
  8
DIM
100
AcDbLine
 10
16.7834510184
 20
16.5050123392
 30
0.0
 11
16.852895462
 21
16.5050123392
 31
0.0
  0
LINE
  5
256
330
24D
100
AcDbEntity
  8
DIM
100
AcDbLine
 10
16.852895462
 20
16.5050123392
 30
0.0
 11
16.852895462
 21
16.1944413403
 31
0.0
  0
LINE
  5
257
330
24D
100
AcDbEntity
  8
DIM
100
AcDbLine
 10
16.852895462
 20
16.1944413403
 30
0.0
 11
16.7834510184
 21
16.1944413403
 31
0.0
  0
LINE
  5
258
330
24D
100
AcDbEntity
  8
DIM
100
AcDbLine
 10
17.828427245
 20
17.9779152719
 30
0.0
 11
17.2421701606
 21
16.6304559901
 31
0.0
  0
LINE
  5
259
330
24D
100
AcDbEntity
  8
DIM
100
AcDbLine
 10
17.2421701606
 20
16.6304559901
 30
0.0
 11
16.9921701606
 21
16.6304559901
 31
0.0
  0
MTEXT
  5
25A
330
24D
100
AcDbEntity
  8
DIM
100
AcDbMText
 10
16.2660898883
 20
16.9616130314
 30
0.0
 40
0.2083333333
 41
0.0
 71
     1
 72
     1
  1
R2
  7
SLDTEXTSTYLE0
 73
     1
 44
1.0
  0
MTEXT
  5
25B
330
24D
100
AcDbEntity
  8
DIM
100
AcDbMText
 10
16.6800559161
 20
17.1035449785
 30
0.0
 40
0.2083333333
 41
0.0
 71
     1
 72
     1
  1
7
  7
SLDTEXTSTYLE0
 73
     1
 44
1.0
  0
MTEXT
  5
25C
330
24D
100
AcDbEntity
  8
DIM
100
AcDbMText
 10
16.6800559161
 20
16.8198644265
 30
0.0
 40
0.2083333333
 41
0.0
 71
     1
 72
     1
  1
8
  7
SLDTEXTSTYLE0
 73
     1
 44
1.0
  0
MTEXT
  5
25D
330
24D
100
AcDbEntity
  8
DIM
100
AcDbMText
 10
16.8934047215
 20
16.9616130314
 30
0.0
 40
0.2083333333
 41
0.0
 71
     1
 72
     1
  1
"
  7
SLDTEXTSTYLE0
 73
     1
 44
1.0
  0
MTEXT
  5
25E
330
24D
100
AcDbEntity
  8
DIM
100
AcDbMText
 10
16.4748090305
 20
16.4629971331
 30
0.0
 40
0.2083333333
 41
0.0
 71
     1
 72
     1
  1
73
  7
SLDTEXTSTYLE0
 73
     1
 44
1.0
  0
ENDBLK
  5
24F
330
24D
100
AcDbEntity
  8
0
100
AcDbBlockEnd
  0
BLOCK
  5
261
330
260
100
AcDbEntity
  8
0
100
AcDbBlockBegin
  2
_D_13
 70
     0
 10
0.0
 20
0.0
 30
0.0
  3
_D_13
  1

  0
SOLID
  5
263
330
260
100
AcDbEntity
  8
DIM
100
AcDbTrace
 10
17.2850969812
 20
18.4450384849
 30
0.0
 11
17.4339419499
 21
18.5854309648
 31
0.0
 12
17.3848600499
 22
18.6236783552
 32
0.0
 13
17.3848600499
 23
18.6236783552
 33
0.0
  0
LINE
  5
264
330
260
100
AcDbEntity
  8
DIM
100
AcDbLine
 10
18.3020930485
 20
19.944887654
 30
0.0
 11
18.5154418172
 21
19.944887654
 31
0.0
  0
LINE
  5
265
330
260
100
AcDbEntity
  8
DIM
100
AcDbLine
 10
18.1263600503
 20
19.5972024559
 30
0.0
 11
18.0569156067
 21
19.5972024559
 31
0.0
  0
LINE
  5
266
330
260
100
AcDbEntity
  8
DIM
100
AcDbLine
 10
18.0569156067
 20
19.5972024559
 30
0.0
 11
18.0569156067
 21
19.286631457
 31
0.0
  0
LINE
  5
267
330
260
100
AcDbEntity
  8
DIM
100
AcDbLine
 10
18.0569156067
 20
19.286631457
 30
0.0
 11
18.1263600503
 21
19.286631457
 31
0.0
  0
LINE
  5
268
330
260
100
AcDbEntity
  8
DIM
100
AcDbLine
 10
18.4350020381
 20
19.5972024559
 30
0.0
 11
18.5044464817
 21
19.5972024559
 31
0.0
  0
LINE
  5
269
330
260
100
AcDbEntity
  8
DIM
100
AcDbLine
 10
18.5044464817
 20
19.5972024559
 30
0.0
 11
18.5044464817
 21
19.286631457
 31
0.0
  0
LINE
  5
26A
330
260
100
AcDbEntity
  8
DIM
100
AcDbLine
 10
18.5044464817
 20
19.286631457
 30
0.0
 11
18.4350020381
 21
19.286631457
 31
0.0
  0
LINE
  5
26B
330
260
100
AcDbEntity
  8
DIM
100
AcDbLine
 10
18.9754315483
 20
20.6142016995
 30
0.0
 11
18.6565250241
 21
20.2049570951
 31
0.0
  0
LINE
  5
26C
330
260
100
AcDbEntity
  8
DIM
100
AcDbLine
 10
17.2850969812
 20
18.4450384849
 30
0.0
 11
17.9048370643
 21
19.2403351185
 31
0.0
  0
MTEXT
  5
26D
330
260
100
AcDbEntity
  8
DIM
100
AcDbMText
 10
17.9176409081
 20
20.0538031482
 30
0.0
 40
0.2083333333
 41
0.0
 71
     1
 72
     1
  1
R2
  7
SLDTEXTSTYLE0
 73
     1
 44
1.0
  0
MTEXT
  5
26E
330
260
100
AcDbEntity
  8
DIM
100
AcDbMText
 10
18.3316069359
 20
20.1957350952
 30
0.0
 40
0.2083333333
 41
0.0
 71
     1
 72
     1
  1
3
  7
SLDTEXTSTYLE0
 73
     1
 44
1.0
  0
MTEXT
  5
26F
330
260
100
AcDbEntity
  8
DIM
100
AcDbMText
 10
18.3316069359
 20
19.9120545432
 30
0.0
 40
0.2083333333
 41
0.0
 71
     1
 72
     1
  1
4
  7
SLDTEXTSTYLE0
 73
     1
 44
1.0
  0
MTEXT
  5
270
330
260
100
AcDbEntity
  8
DIM
100
AcDbMText
 10
18.5449557413
 20
20.0538031482
 30
0.0
 40
0.2083333333
 41
0.0
 71
     1
 72
     1
  1
"
  7
SLDTEXTSTYLE0
 73
     1
 44
1.0
  0
MTEXT
  5
271
330
260
100
AcDbEntity
  8
DIM
100
AcDbMText
 10
18.1263600503
 20
19.5551872499
 30
0.0
 40
0.2083333333
 41
0.0
 71
     1
 72
     1
  1
70
  7
SLDTEXTSTYLE0
 73
     1
 44
1.0
  0
ENDBLK
  5
262
330
260
100
AcDbEntity
  8
0
100
AcDbBlockEnd
  0
BLOCK
  5
274
330
273
100
AcDbEntity
  8
0
100
AcDbBlockBegin
  2
_D_14
 70
     0
 10
0.0
 20
0.0
 30
0.0
  3
_D_14
  1

  0
SOLID
  5
276
330
273
100
AcDbEntity
  8
DIM
100
AcDbTrace
 10
18.4633801094
 20
18.4232422466
 30
0.0
 11
18.3870610817
 21
18.2333994719
 31
0.0
 12
18.4476528535
 22
18.2192385052
 32
0.0
 13
18.4476528535
 23
18.2192385052
 33
0.0
  0
LINE
  5
277
330
273
100
AcDbEntity
  8
DIM
100
AcDbLine
 10
19.4229301501
 20
16.5950904428
 30
0.0
 11
19.6362789188
 21
16.5950904428
 31
0.0
  0
LINE
  5
278
330
273
100
AcDbEntity
  8
DIM
100
AcDbLine
 10
19.2471971518
 20
16.2474052447
 30
0.0
 11
19.1777527082
 21
16.2474052447
 31
0.0
  0
LINE
  5
279
330
273
100
AcDbEntity
  8
DIM
100
AcDbLine
 10
19.1777527082
 20
16.2474052447
 30
0.0
 11
19.1777527082
 21
15.9368342458
 31
0.0
  0
LINE
  5
27A
330
273
100
AcDbEntity
  8
DIM
100
AcDbLine
 10
19.1777527082
 20
15.9368342458
 30
0.0
 11
19.2471971518
 21
15.9368342458
 31
0.0
  0
LINE
  5
27B
330
273
100
AcDbEntity
  8
DIM
100
AcDbLine
 10
19.5558391397
 20
16.2474052447
 30
0.0
 11
19.6252835833
 21
16.2474052447
 31
0.0
  0
LINE
  5
27C
330
273
100
AcDbEntity
  8
DIM
100
AcDbLine
 10
19.6252835833
 20
16.2474052447
 30
0.0
 11
19.6252835833
 21
15.9368342458
 31
0.0
  0
LINE
  5
27D
330
273
100
AcDbEntity
  8
DIM
100
AcDbLine
 10
19.6252835833
 20
15.9368342458
 30
0.0
 11
19.5558391397
 21
15.9368342458
 31
0.0
  0
LINE
  5
27E
330
273
100
AcDbEntity
  8
DIM
100
AcDbLine
 10
18.4633801094
 20
18.4232422466
 30
0.0
 11
17.9841805221
 21
16.3728488956
 31
0.0
  0
LINE
  5
27F
330
273
100
AcDbEntity
  8
DIM
100
AcDbLine
 10
17.9841805221
 20
16.3728488956
 30
0.0
 11
19.0384780097
 21
16.3728488956
 31
0.0
  0
MTEXT
  5
280
330
273
100
AcDbEntity
  8
DIM
100
AcDbMText
 10
19.0384780097
 20
16.7040059369
 30
0.0
 40
0.2083333333
 41
0.0
 71
     1
 72
     1
  1
R2
  7
SLDTEXTSTYLE0
 73
     1
 44
1.0
  0
MTEXT
  5
281
330
273
100
AcDbEntity
  8
DIM
100
AcDbMText
 10
19.4524440375
 20
16.845937884
 30
0.0
 40
0.2083333333
 41
0.0
 71
     1
 72
     1
  1
1
  7
SLDTEXTSTYLE0
 73
     1
 44
1.0
  0
MTEXT
  5
282
330
273
100
AcDbEntity
  8
DIM
100
AcDbMText
 10
19.4524440375
 20
16.562257332
 30
0.0
 40
0.2083333333
 41
0.0
 71
     1
 72
     1
  1
4
  7
SLDTEXTSTYLE0
 73
     1
 44
1.0
  0
MTEXT
  5
283
330
273
100
AcDbEntity
  8
DIM
100
AcDbMText
 10
19.6657928429
 20
16.7040059369
 30
0.0
 40
0.2083333333
 41
0.0
 71
     1
 72
     1
  1
"
  7
SLDTEXTSTYLE0
 73
     1
 44
1.0
  0
MTEXT
  5
284
330
273
100
AcDbEntity
  8
DIM
100
AcDbMText
 10
19.2471971518
 20
16.2053900387
 30
0.0
 40
0.2083333333
 41
0.0
 71
     1
 72
     1
  1
57
  7
SLDTEXTSTYLE0
 73
     1
 44
1.0
  0
ENDBLK
  5
275
330
273
100
AcDbEntity
  8
0
100
AcDbBlockEnd
  0
BLOCK
  5
287
330
286
100
AcDbEntity
  8
0
100
AcDbBlockBegin
  2
_D_15
 70
     0
 10
0.0
 20
0.0
 30
0.0
  3
_D_15
  1

  0
SOLID
  5
289
330
286
100
AcDbEntity
  8
DIM
100
AcDbTrace
 10
16.050683553
 20
20.3414260711
 30
0.0
 11
15.9817096901
 21
20.1487930538
 31
0.0
 12
16.0428004866
 22
20.1369689108
 32
0.0
 13
16.0428004866
 23
20.1369689108
 33
0.0
  0
LINE
  5
28A
330
286
100
AcDbEntity
  8
DIM
100
AcDbLine
 10
14.5637144971
 20
15.9377856119
 30
0.0
 11
14.7770632658
 21
15.9377856119
 31
0.0
  0
LINE
  5
28B
330
286
100
AcDbEntity
  8
DIM
100
AcDbLine
 10
14.3879814989
 20
15.5901004138
 30
0.0
 11
14.3185370553
 21
15.5901004138
 31
0.0
  0
LINE
  5
28C
330
286
100
AcDbEntity
  8
DIM
100
AcDbLine
 10
14.3185370553
 20
15.5901004138
 30
0.0
 11
14.3185370553
 21
15.2795294149
 31
0.0
  0
LINE
  5
28D
330
286
100
AcDbEntity
  8
DIM
100
AcDbLine
 10
14.3185370553
 20
15.2795294149
 30
0.0
 11
14.3879814989
 21
15.2795294149
 31
0.0
  0
LINE
  5
28E
330
286
100
AcDbEntity
  8
DIM
100
AcDbLine
 10
14.6966234867
 20
15.5901004138
 30
0.0
 11
14.7660679303
 21
15.5901004138
 31
0.0
  0
LINE
  5
28F
330
286
100
AcDbEntity
  8
DIM
100
AcDbLine
 10
14.7660679303
 20
15.5901004138
 30
0.0
 11
14.7660679303
 21
15.2795294149
 31
0.0
  0
LINE
  5
290
330
286
100
AcDbEntity
  8
DIM
100
AcDbLine
 10
14.7660679303
 20
15.2795294149
 30
0.0
 11
14.6966234867
 21
15.2795294149
 31
0.0
  0
LINE
  5
291
330
286
100
AcDbEntity
  8
DIM
100
AcDbLine
 10
16.050683553
 20
20.3414260711
 30
0.0
 11
15.1553426289
 21
15.7155440647
 31
0.0
  0
LINE
  5
292
330
286
100
AcDbEntity
  8
DIM
100
AcDbLine
 10
15.1553426289
 20
15.7155440647
 30
0.0
 11
14.9053426289
 21
15.7155440647
 31
0.0
  0
MTEXT
  5
293
330
286
100
AcDbEntity
  8
DIM
100
AcDbMText
 10
14.1792623567
 20
16.046701106
 30
0.0
 40
0.2083333333
 41
0.0
 71
     1
 72
     1
  1
R1
  7
SLDTEXTSTYLE0
 73
     1
 44
1.0
  0
MTEXT
  5
294
330
286
100
AcDbEntity
  8
DIM
100
AcDbMText
 10
14.5932283845
 20
16.1886330531
 30
0.0
 40
0.2083333333
 41
0.0
 71
     1
 72
     1
  1
1
  7
SLDTEXTSTYLE0
 73
     1
 44
1.0
  0
MTEXT
  5
295
330
286
100
AcDbEntity
  8
DIM
100
AcDbMText
 10
14.5932283845
 20
15.9049525011
 30
0.0
 40
0.2083333333
 41
0.0
 71
     1
 72
     1
  1
4
  7
SLDTEXTSTYLE0
 73
     1
 44
1.0
  0
MTEXT
  5
296
330
286
100
AcDbEntity
  8
DIM
100
AcDbMText
 10
14.8065771899
 20
16.046701106
 30
0.0
 40
0.2083333333
 41
0.0
 71
     1
 72
     1
  1
"
  7
SLDTEXTSTYLE0
 73
     1
 44
1.0
  0
MTEXT
  5
297
330
286
100
AcDbEntity
  8
DIM
100
AcDbMText
 10
14.3879814989
 20
15.5480852078
 30
0.0
 40
0.2083333333
 41
0.0
 71
     1
 72
     1
  1
32
  7
SLDTEXTSTYLE0
 73
     1
 44
1.0
  0
ENDBLK
  5
288
330
286
100
AcDbEntity
  8
0
100
AcDbBlockEnd
  0
BLOCK
  5
29A
330
299
100
AcDbEntity
  8
0
100
AcDbBlockBegin
  2
_D_16
 70
     0
 10
0.0
 20
0.0
 30
0.0
  3
_D_16
  1

  0
SOLID
  5
29C
330
299
100
AcDbEntity
  8
DIM
100
AcDbTrace
 10
16.343483974
 20
19.6445317854
 30
0.0
 11
16.5084817534
 21
19.7655301569
 31
0.0
 12
16.4644823455
 22
19.8095295647
 32
0.0
 13
16.4644823455
 23
19.8095295647
 33
0.0
  0
LINE
  5
29D
330
299
100
AcDbEntity
  8
DIM
100
AcDbLine
 10
14.1538478711
 20
18.2760955669
 30
0.0
 11
14.3671966398
 21
18.2760955669
 31
0.0
  0
LINE
  5
29E
330
299
100
AcDbEntity
  8
DIM
100
AcDbLine
 10
14.0552753332
 20
17.9284103688
 30
0.0
 11
13.9858308896
 21
17.9284103688
 31
0.0
  0
LINE
  5
29F
330
299
100
AcDbEntity
  8
DIM
100
AcDbLine
 10
13.9858308896
 20
17.9284103688
 30
0.0
 11
13.9858308896
 21
17.6178393698
 31
0.0
  0
LINE
  5
2A0
330
299
100
AcDbEntity
  8
DIM
100
AcDbLine
 10
13.9858308896
 20
17.6178393698
 30
0.0
 11
14.0552753332
 21
17.6178393698
 31
0.0
  0
LINE
  5
2A1
330
299
100
AcDbEntity
  8
DIM
100
AcDbLine
 10
14.363917321
 20
17.9284103688
 30
0.0
 11
14.4333617646
 21
17.9284103688
 31
0.0
  0
LINE
  5
2A2
330
299
100
AcDbEntity
  8
DIM
100
AcDbLine
 10
14.4333617646
 20
17.9284103688
 30
0.0
 11
14.4333617646
 21
17.6178393698
 31
0.0
  0
LINE
  5
2A3
330
299
100
AcDbEntity
  8
DIM
100
AcDbLine
 10
14.4333617646
 20
17.6178393698
 30
0.0
 11
14.363917321
 21
17.6178393698
 31
0.0
  0
LINE
  5
2A4
330
299
100
AcDbEntity
  8
DIM
100
AcDbLine
 10
16.343483974
 20
19.6445317854
 30
0.0
 11
14.7528062083
 21
18.0538540196
 31
0.0
  0
LINE
  5
2A5
330
299
100
AcDbEntity
  8
DIM
100
AcDbLine
 10
16.343483974
 20
19.6445317854
 30
0.0
 11
16.618480273
 21
19.9195280843
 31
0.0
  0
LINE
  5
2A6
330
299
100
AcDbEntity
  8
DIM
100
AcDbLine
 10
14.7528062083
 20
18.0538540196
 30
0.0
 11
14.5028062083
 21
18.0538540196
 31
0.0
  0
MTEXT
  5
2A7
330
299
100
AcDbEntity
  8
DIM
100
AcDbMText
 10
13.9237167063
 20
18.385011061
 30
0.0
 40
0.2083333333
 41
0.0
 71
     1
 72
     1
  1
R
  7
SLDTEXTSTYLE0
 73
     1
 44
1.0
  0
MTEXT
  5
2A8
330
299
100
AcDbEntity
  8
DIM
100
AcDbMText
 10
14.1833617585
 20
18.526943008
 30
0.0
 40
0.2083333333
 41
0.0
 71
     1
 72
     1
  1
3
  7
SLDTEXTSTYLE0
 73
     1
 44
1.0
  0
MTEXT
  5
2A9
330
299
100
AcDbEntity
  8
DIM
100
AcDbMText
 10
14.1833617585
 20
18.243262456
 30
0.0
 40
0.2083333333
 41
0.0
 71
     1
 72
     1
  1
4
  7
SLDTEXTSTYLE0
 73
     1
 44
1.0
  0
MTEXT
  5
2AA
330
299
100
AcDbEntity
  8
DIM
100
AcDbMText
 10
14.3967105089
 20
18.385011061
 30
0.0
 40
0.2083333333
 41
0.0
 71
     1
 72
     1
  1
"
  7
SLDTEXTSTYLE0
 73
     1
 44
1.0
  0
MTEXT
  5
2AB
330
299
100
AcDbEntity
  8
DIM
100
AcDbMText
 10
14.0552753332
 20
17.8863951627
 30
0.0
 40
0.2083333333
 41
0.0
 71
     1
 72
     1
  1
19
  7
SLDTEXTSTYLE0
 73
     1
 44
1.0
  0
ENDBLK
  5
29B
330
299
100
AcDbEntity
  8
0
100
AcDbBlockEnd
  0
BLOCK
  5
2AE
330
2AD
100
AcDbEntity
  8
0
100
AcDbBlockBegin
  2
_D_17
 70
     0
 10
0.0
 20
0.0
 30
0.0
  3
_D_17
  1

  0
SOLID
  5
2B0
330
2AD
100
AcDbEntity
  8
DIM
100
AcDbTrace
 10
16.0823132499
 20
19.6782746008
 30
0.0
 11
15.9671426219
 21
19.5091574829
 31
0.0
 12
16.0233013222
 22
19.4823601666
 32
0.0
 13
16.0233013222
 23
19.4823601666
 33
0.0
  0
LINE
  5
2B1
330
2AD
100
AcDbEntity
  8
DIM
100
AcDbLine
 10
14.1538478711
 20
17.114289842
 30
0.0
 11
14.3671966398
 21
17.114289842
 31
0.0
  0
LINE
  5
2B2
330
2AD
100
AcDbEntity
  8
DIM
100
AcDbLine
 10
14.0552753332
 20
16.7666046439
 30
0.0
 11
13.9858308896
 21
16.7666046439
 31
0.0
  0
LINE
  5
2B3
330
2AD
100
AcDbEntity
  8
DIM
100
AcDbLine
 10
13.9858308896
 20
16.7666046439
 30
0.0
 11
13.9858308896
 21
16.456033645
 31
0.0
  0
LINE
  5
2B4
330
2AD
100
AcDbEntity
  8
DIM
100
AcDbLine
 10
13.9858308896
 20
16.456033645
 30
0.0
 11
14.0552753332
 21
16.456033645
 31
0.0
  0
LINE
  5
2B5
330
2AD
100
AcDbEntity
  8
DIM
100
AcDbLine
 10
14.363917321
 20
16.7666046439
 30
0.0
 11
14.4333617646
 21
16.7666046439
 31
0.0
  0
LINE
  5
2B6
330
2AD
100
AcDbEntity
  8
DIM
100
AcDbLine
 10
14.4333617646
 20
16.7666046439
 30
0.0
 11
14.4333617646
 21
16.456033645
 31
0.0
  0
LINE
  5
2B7
330
2AD
100
AcDbEntity
  8
DIM
100
AcDbLine
 10
14.4333617646
 20
16.456033645
 30
0.0
 11
14.363917321
 21
16.456033645
 31
0.0
  0
LINE
  5
2B8
330
2AD
100
AcDbEntity
  8
DIM
100
AcDbLine
 10
16.0823132499
 20
19.6782746008
 30
0.0
 11
14.7528062083
 21
16.8920482948
 31
0.0
  0
LINE
  5
2B9
330
2AD
100
AcDbEntity
  8
DIM
100
AcDbLine
 10
14.7528062083
 20
16.8920482948
 30
0.0
 11
14.5028062083
 21
16.8920482948
 31
0.0
  0
MTEXT
  5
2BA
330
2AD
100
AcDbEntity
  8
DIM
100
AcDbMText
 10
13.9237167063
 20
17.2232053362
 30
0.0
 40
0.2083333333
 41
0.0
 71
     1
 72
     1
  1
R
  7
SLDTEXTSTYLE0
 73
     1
 44
1.0
  0
MTEXT
  5
2BB
330
2AD
100
AcDbEntity
  8
DIM
100
AcDbMText
 10
14.1833617585
 20
17.3651372832
 30
0.0
 40
0.2083333333
 41
0.0
 71
     1
 72
     1
  1
5
  7
SLDTEXTSTYLE0
 73
     1
 44
1.0
  0
MTEXT
  5
2BC
330
2AD
100
AcDbEntity
  8
DIM
100
AcDbMText
 10
14.1833617585
 20
17.0814567312
 30
0.0
 40
0.2083333333
 41
0.0
 71
     1
 72
     1
  1
8
  7
SLDTEXTSTYLE0
 73
     1
 44
1.0
  0
MTEXT
  5
2BD
330
2AD
100
AcDbEntity
  8
DIM
100
AcDbMText
 10
14.3967105089
 20
17.2232053362
 30
0.0
 40
0.2083333333
 41
0.0
 71
     1
 72
     1
  1
"
  7
SLDTEXTSTYLE0
 73
     1
 44
1.0
  0
MTEXT
  5
2BE
330
2AD
100
AcDbEntity
  8
DIM
100
AcDbMText
 10
14.0552753332
 20
16.7245894379
 30
0.0
 40
0.2083333333
 41
0.0
 71
     1
 72
     1
  1
16
  7
SLDTEXTSTYLE0
 73
     1
 44
1.0
  0
ENDBLK
  5
2AF
330
2AD
100
AcDbEntity
  8
0
100
AcDbBlockEnd
  0
BLOCK
  5
2C1
330
2C0
100
AcDbEntity
  8
0
100
AcDbBlockBegin
  2
_D_18
 70
     0
 10
0.0
 20
0.0
 30
0.0
  3
_D_18
  1

  0
SOLID
  5
2C3
330
2C0
100
AcDbEntity
  8
DIM
100
AcDbTrace
 10
7.4588401428
 20
19.8642016995
 30
0.0
 11
7.4277278632
 21
19.6619718818
 31
0.0
 12
7.4899524225
 22
19.6619718818
 32
0.0
 13
7.4899524225
 23
19.6619718818
 33
0.0
  0
SOLID
  5
2C4
330
2C0
100
AcDbEntity
  8
DIM
100
AcDbTrace
 10
7.4588401428
 20
1.8642016995
 30
0.0
 11
7.4899524225
 21
2.0664315172
 31
0.0
 12
7.4277278632
 22
2.0664315172
 32
0.0
 13
7.4277278632
 23
2.0664315172
 33
0.0
  0
LINE
  5
2C5
330
2C0
100
AcDbEntity
  8
DIM
100
AcDbLine
 10
7.2273586519
 20
11.8435788028
 30
0.0
 11
7.1579142083
 21
11.8435788028
 31
0.0
  0
LINE
  5
2C6
330
2C0
100
AcDbEntity
  8
DIM
100
AcDbLine
 10
7.1579142083
 20
11.8435788028
 30
0.0
 11
7.1579142083
 21
11.5330078039
 31
0.0
  0
LINE
  5
2C7
330
2C0
100
AcDbEntity
  8
DIM
100
AcDbLine
 10
7.1579142083
 20
11.5330078039
 30
0.0
 11
7.2273586519
 21
11.5330078039
 31
0.0
  0
LINE
  5
2C8
330
2C0
100
AcDbEntity
  8
DIM
100
AcDbLine
 10
7.6903216338
 20
11.8435788028
 30
0.0
 11
7.7597660774
 21
11.8435788028
 31
0.0
  0
LINE
  5
2C9
330
2C0
100
AcDbEntity
  8
DIM
100
AcDbLine
 10
7.7597660774
 20
11.8435788028
 30
0.0
 11
7.7597660774
 21
11.5330078039
 31
0.0
  0
LINE
  5
2CA
330
2C0
100
AcDbEntity
  8
DIM
100
AcDbLine
 10
7.7597660774
 20
11.5330078039
 30
0.0
 11
7.6903216338
 21
11.5330078039
 31
0.0
  0
LINE
  5
2CB
330
2C0
100
AcDbEntity
  8
DIM
100
AcDbLine
 10
7.4588401428
 20
19.8642016995
 30
0.0
 11
7.4588401428
 21
12.1676528791
 31
0.0
  0
LINE
  5
2CC
330
2C0
100
AcDbEntity
  8
DIM
100
AcDbLine
 10
7.4588401428
 20
1.8642016995
 30
0.0
 11
7.4588401428
 21
11.4867114654
 31
0.0
  0
MTEXT
  5
2CD
330
2C0
100
AcDbEntity
  8
DIM
100
AcDbMText
 10
7.2551364294
 20
12.1584308792
 30
0.0
 40
0.2083333333
 41
0.0
 71
     1
 72
     1
  1
18"
  7
SLDTEXTSTYLE0
 73
     1
 44
1.0
  0
MTEXT
  5
2CE
330
2C0
100
AcDbEntity
  8
DIM
100
AcDbMText
 10
7.2273586519
 20
11.8015635968
 30
0.0
 40
0.2083333333
 41
0.0
 71
     1
 72
     1
  1
457
  7
SLDTEXTSTYLE0
 73
     1
 44
1.0
  0
ENDBLK
  5
2C2
330
2C0
100
AcDbEntity
  8
0
100
AcDbBlockEnd
  0
BLOCK
  5
2D1
330
2D0
100
AcDbEntity
  8
0
100
AcDbBlockBegin
  2
_D_19
 70
     0
 10
0.0
 20
0.0
 30
0.0
  3
_D_19
  1

  0
SOLID
  5
2D3
330
2D0
100
AcDbEntity
  8
DIM
100
AcDbTrace
 10
31.3131538881
 20
4.5316553773
 30
0.0
 11
31.5153837058
 21
4.5005430976
 31
0.0
 12
31.5153837058
 22
4.5627676569
 32
0.0
 13
31.5153837058
 23
4.5627676569
 33
0.0
  0
SOLID
  5
2D4
330
2D0
100
AcDbEntity
  8
DIM
100
AcDbTrace
 10
31.1881538881
 20
4.5316553773
 30
0.0
 11
30.9859240704
 21
4.5627676569
 31
0.0
 12
30.9859240704
 22
4.5005430976
 32
0.0
 13
30.9859240704
 23
4.5005430976
 33
0.0
  0
LINE
  5
2D5
330
2D0
100
AcDbEntity
  8
DIM
100
AcDbLine
 10
30.1092458761
 20
4.7538969245
 30
0.0
 11
30.3225946448
 21
4.7538969245
 31
0.0
  0
LINE
  5
2D6
330
2D0
100
AcDbEntity
  8
DIM
100
AcDbLine
 10
30.188142483
 20
4.4062117264
 30
0.0
 11
30.1186980394
 21
4.4062117264
 31
0.0
  0
LINE
  5
2D7
330
2D0
100
AcDbEntity
  8
DIM
100
AcDbLine
 10
30.1186980394
 20
4.4062117264
 30
0.0
 11
30.1186980394
 21
4.0956407275
 31
0.0
  0
LINE
  5
2D8
330
2D0
100
AcDbEntity
  8
DIM
100
AcDbLine
 10
30.1186980394
 20
4.0956407275
 30
0.0
 11
30.188142483
 21
4.0956407275
 31
0.0
  0
LINE
  5
2D9
330
2D0
100
AcDbEntity
  8
DIM
100
AcDbLine
 10
30.342463477
 20
4.4062117264
 30
0.0
 11
30.4119079206
 21
4.4062117264
 31
0.0
  0
LINE
  5
2DA
330
2D0
100
AcDbEntity
  8
DIM
100
AcDbLine
 10
30.4119079206
 20
4.4062117264
 30
0.0
 11
30.4119079206
 21
4.0956407275
 31
0.0
  0
LINE
  5
2DB
330
2D0
100
AcDbEntity
  8
DIM
100
AcDbLine
 10
30.4119079206
 20
4.0956407275
 30
0.0
 11
30.342463477
 21
4.0956407275
 31
0.0
  0
LINE
  5
2DC
330
2D0
100
AcDbEntity
  8
DIM
100
AcDbLine
 10
31.3131538881
 20
4.5316553773
 30
0.0
 11
31.7020573837
 21
4.5316553773
 31
0.0
  0
LINE
  5
2DD
330
2D0
100
AcDbEntity
  8
DIM
100
AcDbLine
 10
31.1881538881
 20
4.5316553773
 30
0.0
 11
30.5276121405
 21
4.5316553773
 31
0.0
  0
MTEXT
  5
2DE
330
2D0
100
AcDbEntity
  8
DIM
100
AcDbMText
 10
30.1387597635
 20
5.0047443657
 30
0.0
 40
0.2083333333
 41
0.0
 71
     1
 72
     1
  1
1
  7
SLDTEXTSTYLE0
 73
     1
 44
1.0
  0
MTEXT
  5
2DF
330
2D0
100
AcDbEntity
  8
DIM
100
AcDbMText
 10
30.1387597635
 20
4.7210638137
 30
0.0
 40
0.2083333333
 41
0.0
 71
     1
 72
     1
  1
8
  7
SLDTEXTSTYLE0
 73
     1
 44
1.0
  0
MTEXT
  5
2E0
330
2D0
100
AcDbEntity
  8
DIM
100
AcDbMText
 10
30.3521085322
 20
4.8628124186
 30
0.0
 40
0.2083333333
 41
0.0
 71
     1
 72
     1
  1
"
  7
SLDTEXTSTYLE0
 73
     1
 44
1.0
  0
MTEXT
  5
2E1
330
2D0
100
AcDbEntity
  8
DIM
100
AcDbMText
 10
30.188142483
 20
4.3641965204
 30
0.0
 40
0.2083333333
 41
0.0
 71
     1
 72
     1
  1
3
  7
SLDTEXTSTYLE0
 73
     1
 44
1.0
  0
ENDBLK
  5
2D2
330
2D0
100
AcDbEntity
  8
0
100
AcDbBlockEnd
  0
BLOCK
  5
2E3
330
2E2
100
AcDbEntity
  8
0
100
AcDbBlockBegin
  2
SW_NOTE_0
 70
     0
 10
0.0
 20
0.0
 30
0.0
  3
SW_NOTE_0
  1

  0
MTEXT
  5
2E5
330
2E2
100
AcDbEntity
  8
NOTES
 62
     0
100
AcDbMText
 10
-0.0014839941
 20
0.2417277829
 30
0.0
 40
0.2083333333
 41
0.0
 71
     3
 72
     1
  1
1/8" OVERHANG
  7
SLDTEXTSTYLE0
 73
     1
 44
1.0
  0
MTEXT
  5
2E6
330
2E2
100
AcDbEntity
  8
NOTES
 62
     0
100
AcDbMText
 10
0.0184334365
 20
-0.0754200767
 30
0.0
 40
0.2083333333
 41
0.0
 71
     3
 72
     1
  1
[3.2 SOBRESALIENTE]
  7
SLDTEXTSTYLE0
 73
     1
 44
1.0
  0
ENDBLK
  5
2E4
330
2E2
100
AcDbEntity
  8
0
100
AcDbBlockEnd
  0
BLOCK
  5
2EB
330
2EA
100
AcDbEntity
  8
0
100
AcDbBlockBegin
  2
SW_NOTE_1
 70
     0
 10
0.0
 20
0.0
 30
0.0
  3
SW_NOTE_1
  1

  0
MTEXT
  5
2ED
330
2EA
100
AcDbEntity
  8
NOTES
 62
     0
100
AcDbMText
 10
0.0049199287
 20
0.243633825
 30
0.0
 40
0.2083333333
 41
0.0
 71
     3
 72
     1
  1
1/2" REVEAL
  7
SLDTEXTSTYLE0
 73
     1
 44
1.0
  0
MTEXT
  5
2EE
330
2EA
100
AcDbEntity
  8
NOTES
 62
     0
100
AcDbMText
 10
0.0098872632
 20
-0.0735140346
 30
0.0
 40
0.2083333333
 41
0.0
 71
     3
 72
     1
  1
[12.7 REVELADO]
  7
SLDTEXTSTYLE0
 73
     1
 44
1.0
  0
ENDBLK
  5
2EC
330
2EA
100
AcDbEntity
  8
0
100
AcDbBlockEnd
  0
BLOCK
  5
2F2
330
2F1
100
AcDbEntity
  8
0
100
AcDbBlockBegin
  2
SW_NOTE_2
 70
     0
 10
0.0
 20
0.0
 30
0.0
  3
SW_NOTE_2
  1

  0
MTEXT
  5
2F4
330
2F1
100
AcDbEntity
  8
NOTES
 62
     0
100
AcDbMText
 10
-1.0471955989
 20
0.2393543399
 30
0.0
 40
0.2083333333
 41
0.0
 71
     2
 72
     1
  1
ZERO REVEAL
  7
SLDTEXTSTYLE0
 73
     1
 44
1.0
  0
MTEXT
  5
2F5
330
2F1
100
AcDbEntity
  8
NOTES
 62
     0
100
AcDbMText
 10
-1.0450254133
 20
-0.0777935197
 30
0.0
 40
0.2083333333
 41
0.0
 71
     2
 72
     1
  1
[0 REVEALADO]
  7
SLDTEXTSTYLE0
 73
     1
 44
1.0
  0
ENDBLK
  5
2F3
330
2F1
100
AcDbEntity
  8
0
100
AcDbBlockEnd
  0
BLOCK
  5
2FC
330
2FB
100
AcDbEntity
  8
0
100
AcDbBlockBegin
  2
SW_NOTE_3
 70
     0
 10
0.0
 20
0.0
 30
0.0
  3
SW_NOTE_3
  1

  0
MTEXT
  5
2FE
330
2FB
100
AcDbEntity
  8
NOTES
 62
     0
100
AcDbMText
 10
0.8377087792
 20
0.7150172209
 30
0.0
 40
0.2083333333
 41
0.0
 71
     2
 72
     1
  1
TEMPLATE
  7
SLDTEXTSTYLE0
 73
     1
 44
1.0
  0
MTEXT
  5
2FF
330
2FB
100
AcDbEntity
  8
NOTES
 62
     0
100
AcDbMText
 10
0.8408434495
 20
0.3978693612
 30
0.0
 40
0.2083333333
 41
0.0
 71
     2
 72
     1
  1
CENTERLINE
  7
SLDTEXTSTYLE0
 73
     1
 44
1.0
  0
MTEXT
  5
300
330
2FB
100
AcDbEntity
  8
NOTES
 62
     0
100
AcDbMText
 10
0.8409639875
 20
-0.236426358
 30
0.0
 40
0.2083333333
 41
0.0
 71
     2
 72
     1
  1
PLANTILLA
  7
SLDTEXTSTYLE0
 73
     1
 44
1.0
  0
MTEXT
  5
301
330
2FB
100
AcDbEntity
  8
NOTES
 62
     0
100
AcDbMText
 10
0.837949922
 20
-0.5535742176
 30
0.0
 40
0.2083333333
 41
0.0
 71
     2
 72
     1
  1
CENTRAL
  7
SLDTEXTSTYLE0
 73
     1
 44
1.0
  0
ENDBLK
  5
2FD
330
2FB
100
AcDbEntity
  8
0
100
AcDbBlockEnd
  0
BLOCK
  5
306
330
305
100
AcDbEntity
  8
0
100
AcDbBlockBegin
  2
SW_NOTE_4
 70
     0
 10
0.0
 20
0.0
 30
0.0
  3
SW_NOTE_4
  1

  0
MTEXT
  5
308
330
305
100
AcDbEntity
  8
NOTES
 62
     0
100
AcDbMText
 10
0.0
 20
0.2148446233
 30
0.0
 40
0.1666666667
 41
0.0
 71
     1
 72
     1
  1
NOTES:
  7
SLDTEXTSTYLE0
 73
     1
 44
1.0
  0
MTEXT
  5
309
330
305
100
AcDbEntity
  8
NOTES
 62
     0
100
AcDbMText
 10
0.3937007786
 20
-0.3083399678
 30
0.0
 40
0.1666666667
 41
0.0
 71
     1
 72
     1
  1
THOROUGHLY READ ALL INSTALLATION INSTRUCTIONS
  7
SLDTEXTSTYLE0
 73
     1
 44
1.0
  0
MTEXT
  5
30A
330
305
100
AcDbEntity
  8
NOTES
 62
     0
100
AcDbMText
 10
0.0
 20
-0.3083399678
 30
0.0
 40
0.1666666667
 41
0.0
 71
     1
 72
     1
  1
1.
  7
SLDTEXTSTYLE0
 73
     1
 44
1.0
  0
MTEXT
  5
30B
330
305
100
AcDbEntity
  8
NOTES
 62
     0
100
AcDbMText
 10
0.3937007874
 20
-0.5699322726
 30
0.0
 40
0.1666666667
 41
0.0
 71
     1
 72
     1
  1
BEFORE CUTTING COUNTERTOP.
  7
SLDTEXTSTYLE0
 73
     1
 44
1.0
  0
MTEXT
  5
30C
330
305
100
AcDbEntity
  8
NOTES
 62
     0
100
AcDbMText
 10
0.3937007786
 20
-1.093116882
 30
0.0
 40
0.1666666667
 41
0.0
 71
     1
 72
     1
  1
DIMENSIONS ARE IN INCHES [MM].
  7
SLDTEXTSTYLE0
 73
     1
 44
1.0
  0
MTEXT
  5
30D
330
305
100
AcDbEntity
  8
NOTES
 62
     0
100
AcDbMText
 10
0.0
 20
-1.093116882
 30
0.0
 40
0.1666666667
 41
0.0
 71
     1
 72
     1
  1
2.
  7
SLDTEXTSTYLE0
 73
     1
 44
1.0
  0
MTEXT
  5
30E
330
305
100
AcDbEntity
  8
NOTES
 62
     0
100
AcDbMText
 10
0.0
 20
-1.6163014915
 30
0.0
 40
0.1666666667
 41
0.0
 71
     1
 72
     1
  1
PLEASE CHECK TEMPLATE AGAINST PHYSICAL SINK FOR MOST ACCURATE 
  7
SLDTEXTSTYLE1
 73
     1
 44
1.0
  0
MTEXT
  5
30F
330
305
100
AcDbEntity
  8
NOTES
 62
     0
100
AcDbMText
 10
0.0
 20
-1.8778937962
 30
0.0
 40
0.1666666667
 41
0.0
 71
     1
 72
     1
  1
CUT.
  7
SLDTEXTSTYLE1
 73
     1
 44
1.0
  0
MTEXT
  5
310
330
305
100
AcDbEntity
  8
NOTES
 62
     0
100
AcDbMText
 10
0.0
 20
-2.6626707104
 30
0.0
 40
0.1666666667
 41
0.0
 71
     1
 72
     1
  1
NOTAS:
  7
SLDTEXTSTYLE0
 73
     1
 44
1.0
  0
MTEXT
  5
311
330
305
100
AcDbEntity
  8
NOTES
 62
     0
100
AcDbMText
 10
0.0
 20
-3.1858553199
 30
0.0
 40
0.1666666667
 41
0.0
 71
     1
 72
     1
  1
1.     EA ATENTAMENTE LAS INSTRUCCIONES DE INSTALACIÓN ANTES DE 
  7
SLDTEXTSTYLE0
 73
     1
 44
1.0
  0
MTEXT
  5
312
330
305
100
AcDbEntity
  8
NOTES
 62
     0
100
AcDbMText
 10
0.0
 20
-3.4474476246
 30
0.0
 40
0.1666666667
 41
0.0
 71
     1
 72
     1
  1
        CORTAR LA ENCIMERA.
  7
SLDTEXTSTYLE0
 73
     1
 44
1.0
  0
MTEXT
  5
313
330
305
100
AcDbEntity
  8
NOTES
 62
     0
100
AcDbMText
 10
0.0
 20
-3.9706322341
 30
0.0
 40
0.1666666667
 41
0.0
 71
     1
 72
     1
  1
2.     DIMENSIONES EN PULGADAS [MM].
  7
SLDTEXTSTYLE0
 73
     1
 44
1.0
  0
MTEXT
  5
314
330
305
100
AcDbEntity
  8
NOTES
 62
     0
100
AcDbMText
 10
0.0
 20
-4.4938168435
 30
0.0
 40
0.1666666667
 41
0.0
 71
     1
 72
     1
  1
POR FAVOR COMPRUEBE PLANTILLA CONTRA FREGADERO FÍSICO PARA 
  7
SLDTEXTSTYLE1
 73
     1
 44
1.0
  0
MTEXT
  5
315
330
305
100
AcDbEntity
  8
NOTES
 62
     0
100
AcDbMText
 10
0.0
 20
-4.7554091482
 30
0.0
 40
0.1666666667
 41
0.0
 71
     1
 72
     1
  1
CORTE MÁS EXACTO.
  7
SLDTEXTSTYLE1
 73
     1
 44
1.0
  0
ENDBLK
  5
307
330
305
100
AcDbEntity
  8
0
100
AcDbBlockEnd
  0
BLOCK
  5
318
330
317
100
AcDbEntity
  8
0
100
AcDbBlockBegin
  2
SW_NOTE_5
 70
     0
 10
0.0
 20
0.0
 30
0.0
  3
SW_NOTE_5
  1

  0
MTEXT
  5
31A
330
317
100
AcDbEntity
  8
BLOCKS
 62
     0
100
AcDbMText
 10
4.1171875
 20
0.6445338699
 30
0.0
 40
0.5
 41
0.0
 71
     2
 72
     1
  1
TEMPLATE #: 1000005607
  7
SLDTEXTSTYLE0
 73
     1
 44
1.0
  0
MTEXT
  5
31B
330
317
100
AcDbEntity
  8
BLOCKS
 62
     0
100
AcDbMText
 10
4.108979297
 20
-0.1151310978
 30
0.0
 40
0.2291666667
 41
0.0
 71
     2
 72
     1
  1
RIGHT UNDERMOUNT TEMPLATE 31" X 20" W/ 3/4" RADIUS
  7
SLDTEXTSTYLE0
 73
     1
 44
1.0
  0
ENDBLK
  5
319
330
317
100
AcDbEntity
  8
0
100
AcDbBlockEnd
  0
ENDSEC
  0
SECTION
  2
ENTITIES
  0
LINE
  5
13C
330
1F
100
AcDbEntity
  8
OBJECTS
100
AcDbLine
 10
31.8131538881
 20
10.8642016995
 30
0.0
 11
29.1756994572
 21
10.8642016995
 31
0.0
  0
LINE
  5
13D
330
1F
100
AcDbEntity
  8
OBJECTS
100
AcDbLine
 10
2.0631538881
 20
10.8642016995
 30
0.0
 11
5.2547806738
 21
10.8642016995
 31
0.0
  0
LINE
  5
13E
330
1F
100
AcDbEntity
  8
OBJECTS
  6
CENTER
 62
    56
100
AcDbLine
 10
16.9381538881
 20
1.3642016995
 30
0.0
 11
16.9381538881
 21
4.7391061633
 31
0.0
  0
LINE
  5
13F
330
1F
100
AcDbEntity
  8
SLD-0
100
AcDbLine
 10
30.5631538881
 20
18.3642016995
 30
0.0
 11
18.9754315483
 21
18.3642016995
 31
0.0
  0
LINE
  5
140
330
1F
100
AcDbEntity
  8
SLD-0
100
AcDbLine
 10
31.8131538881
 20
2.6142016995
 30
0.0
 11
31.8131538881
 21
17.1142016995
 31
0.0
  0
LINE
  5
141
330
1F
100
AcDbEntity
  8
SLD-0
100
AcDbLine
 10
3.3131538881
 20
1.3642016995
 30
0.0
 11
30.5631538881
 21
1.3642016995
 31
0.0
  0
LINE
  5
142
330
1F
100
AcDbEntity
  8
SLD-0
100
AcDbLine
 10
2.0631538881
 20
19.1142016995
 30
0.0
 11
2.0631538881
 21
2.6142016995
 31
0.0
  0
LINE
  5
143
330
1F
100
AcDbEntity
  8
SLD-0
100
AcDbLine
 10
15.8131538881
 20
20.3642016995
 30
0.0
 11
3.3131538881
 21
20.3642016995
 31
0.0
  0
LINE
  5
144
330
1F
100
AcDbEntity
  8
SLD-0
100
AcDbLine
 10
30.5631538881
 20
17.7392016995
 30
0.0
 11
18.9754315483
 21
17.7392016995
 31
0.0
  0
LINE
  5
145
330
1F
100
AcDbEntity
  8
SLD-0
100
AcDbLine
 10
31.1881538881
 20
2.6142016995
 30
0.0
 11
31.1881538881
 21
17.1142016995
 31
0.0
  0
LINE
  5
146
330
1F
100
AcDbEntity
  8
SLD-0
100
AcDbLine
 10
3.3131538881
 20
1.9892016995
 30
0.0
 11
30.5631538881
 21
1.9892016995
 31
0.0
  0
LINE
  5
147
330
1F
100
AcDbEntity
  8
SLD-0
100
AcDbLine
 10
2.6881538881
 20
19.1142016995
 30
0.0
 11
2.6881538881
 21
2.6142016995
 31
0.0
  0
LINE
  5
148
330
1F
100
AcDbEntity
  8
SLD-0
100
AcDbLine
 10
15.8131538881
 20
19.7392016995
 30
0.0
 11
3.3131538881
 21
19.7392016995
 31
0.0
  0
LINE
  5
149
330
1F
100
AcDbEntity
  8
SLD-0
  6
CENTERX2
100
AcDbLine
 10
3.3131538881
 20
19.8642016995
 30
0.0
 11
15.8131538881
 21
19.8642016995
 31
0.0
  0
LINE
  5
14A
330
1F
100
AcDbEntity
  8
OBJECTS
100
AcDbLine
 10
16.9381538881
 20
20.2338404701
 30
0.0
 11
16.9381538881
 21
17.8642016995
 31
0.0
  0
LINE
  5
14B
330
1F
100
AcDbEntity
  8
SLD-0
  6
CENTERX2
100
AcDbLine
 10
2.5631538881
 20
19.1142016995
 30
0.0
 11
2.5631538881
 21
2.6142016995
 31
0.0
  0
LINE
  5
14C
330
1F
100
AcDbEntity
  8
SLD-0
  6
CENTERX2
100
AcDbLine
 10
3.3131538881
 20
1.8642016995
 30
0.0
 11
30.5631538881
 21
1.8642016995
 31
0.0
  0
LINE
  5
14D
330
1F
100
AcDbEntity
  8
SLD-0
  6
CENTERX2
100
AcDbLine
 10
31.3131538881
 20
17.1142016995
 30
0.0
 11
31.3131538881
 21
2.6142016995
 31
0.0
  0
LINE
  5
14E
330
1F
100
AcDbEntity
  8
SLD-0
  6
CENTERX2
100
AcDbLine
 10
18.9754315483
 20
17.8642016995
 30
0.0
 11
30.5631538881
 21
17.8642016995
 31
0.0
  0
ARC
  5
14F
330
1F
100
AcDbEntity
  8
SLD-0
100
AcDbCircle
 10
15.8131538881
 20
19.1142016995
 30
0.0
 40
1.250000000000001
100
AcDbArc
 50
25.3769335252
 51
90.0
  0
ARC
  5
150
330
1F
100
AcDbEntity
  8
SLD-0
100
AcDbCircle
 10
18.9754315483
 20
20.6142016995
 30
0.0
 40
2.250000000000004
100
AcDbArc
 50
205.3769335252
 51
270.0
  0
ARC
  5
151
330
1F
100
AcDbEntity
  8
SLD-0
100
AcDbCircle
 10
30.5631538881
 20
17.1142016995
 30
0.0
 40
1.25
100
AcDbArc
 50
0.0
 51
90.0
  0
ARC
  5
152
330
1F
100
AcDbEntity
  8
SLD-0
100
AcDbCircle
 10
30.5631538881
 20
2.6142016995
 30
0.0
 40
1.25
100
AcDbArc
 50
270.0
 51
0.0
  0
ARC
  5
153
330
1F
100
AcDbEntity
  8
SLD-0
100
AcDbCircle
 10
3.3131538881
 20
2.6142016995
 30
0.0
 40
1.25
100
AcDbArc
 50
180.0
 51
270.0
  0
ARC
  5
154
330
1F
100
AcDbEntity
  8
SLD-0
100
AcDbCircle
 10
3.3131538881
 20
19.1142016995
 30
0.0
 40
1.249999999999998
100
AcDbArc
 50
90.0
 51
180.0
  0
ARC
  5
155
330
1F
100
AcDbEntity
  8
SLD-0
100
AcDbCircle
 10
15.8131538881
 20
19.1142016995
 30
0.0
 40
0.6250000000000022
100
AcDbArc
 50
25.3769335252
 51
90.0
  0
ARC
  5
156
330
1F
100
AcDbEntity
  8
SLD-0
100
AcDbCircle
 10
18.9754315483
 20
20.6142016995
 30
0.0
 40
2.875000000000004
100
AcDbArc
 50
205.3769335252
 51
270.0
  0
ARC
  5
157
330
1F
100
AcDbEntity
  8
SLD-0
100
AcDbCircle
 10
30.5631538881
 20
17.1142016995
 30
0.0
 40
0.6250000000000036
100
AcDbArc
 50
0.0
 51
90.0
  0
ARC
  5
158
330
1F
100
AcDbEntity
  8
SLD-0
100
AcDbCircle
 10
30.5631538881
 20
2.6142016995
 30
0.0
 40
0.6250000000000036
100
AcDbArc
 50
270.0
 51
0.0
  0
ARC
  5
159
330
1F
100
AcDbEntity
  8
SLD-0
100
AcDbCircle
 10
3.3131538881
 20
2.6142016995
 30
0.0
 40
0.6250000000000002
100
AcDbArc
 50
180.0
 51
270.0
  0
ARC
  5
15A
330
1F
100
AcDbEntity
  8
SLD-0
100
AcDbCircle
 10
3.3131538881
 20
19.1142016995
 30
0.0
 40
0.6249999999999969
100
AcDbArc
 50
90.0
 51
180.0
  0
ARC
  5
15B
330
1F
100
AcDbEntity
  8
SLD-0
  6
CENTERX2
100
AcDbCircle
 10
15.8131538881
 20
19.1142016995
 30
0.0
 40
0.750000000000001
100
AcDbArc
 50
25.3769335252
 51
90.0
  0
ARC
  5
15C
330
1F
100
AcDbEntity
  8
SLD-0
  6
CENTERX2
100
AcDbCircle
 10
3.3131538881
 20
19.1142016995
 30
0.0
 40
0.7500000000000004
100
AcDbArc
 50
90.0
 51
180.0
  0
ARC
  5
15D
330
1F
100
AcDbEntity
  8
SLD-0
  6
CENTERX2
100
AcDbCircle
 10
3.3131538881
 20
2.6142016995
 30
0.0
 40
0.7500000000000007
100
AcDbArc
 50
180.0
 51
270.0
  0
ARC
  5
15E
330
1F
100
AcDbEntity
  8
SLD-0
  6
CENTERX2
100
AcDbCircle
 10
30.5631538881
 20
2.6142016995
 30
0.0
 40
0.7500000000000007
100
AcDbArc
 50
270.0
 51
0.0
  0
ARC
  5
15F
330
1F
100
AcDbEntity
  8
SLD-0
  6
CENTERX2
100
AcDbCircle
 10
30.5631538881
 20
17.1142016995
 30
0.0
 40
0.7500000000000036
100
AcDbArc
 50
0.0
 51
90.0
  0
ARC
  5
160
330
1F
100
AcDbEntity
  8
SLD-0
  6
CENTERX2
100
AcDbCircle
 10
18.9754315483
 20
20.6142016995
 30
0.0
 40
2.750000000000004
100
AcDbArc
 50
205.3769335252
 51
270.0
  0
INSERT
  5
161
330
1F
100
AcDbEntity
  8
BLOCKS
100
AcDbBlockReference
  2
OVERHANG - .125
 10
-0.7576976109
 20
-22.8193660155
 30
0.0
  0
INSERT
  5
162
330
1F
100
AcDbEntity
  8
BLOCKS
100
AcDbBlockReference
  2
REVEAL - 0 (FLUSH)
 10
8.3087746205
 20
-13.3527533814
 30
0.0
  0
INSERT
  5
163
330
1F
100
AcDbEntity
  8
BLOCKS
100
AcDbBlockReference
  2
REVEAL- .500
 10
-8.7344360232
 20
-11.1991770608
 30
0.0
  0
DIMENSION
  5
164
330
1F
100
AcDbEntity
  8
DIM
100
AcDbDimension
  2
_D
 10
6.3490445503
 20
1.3642016995
 30
0.0
 11
6.3490445503
 21
13.3655635681
 31
0.0
 70
   160
  1
<>
 71
     2
 42
-1.0
  3
SLDDIMSTYLE0
100
AcDbAlignedDimension
 13
3.3131538881
 23
20.3642016995
 33
0.0
 14
3.3131538881
 24
1.3642016995
 34
0.0
 50
90.0
100
AcDbRotatedDimension
  0
DIMENSION
  5
175
330
1F
100
AcDbEntity
  8
DIM
100
AcDbDimension
  2
_D_1
 10
8.5775143773
 20
19.7392016995
 30
0.0
 11
8.5775143773
 21
14.0973063453
 31
0.0
 70
   160
  1
<>
 71
     2
 42
-1.0
  3
SLDDIMSTYLE1
100
AcDbAlignedDimension
 13
3.3131538881
 23
1.9892016995
 33
0.0
 14
3.3131538881
 24
19.7392016995
 34
0.0
 50
90.0
100
AcDbRotatedDimension
  0
DIMENSION
  5
18A
330
1F
100
AcDbEntity
  8
DIM
100
AcDbDimension
  2
_D_2
 10
27.1226873457
 20
1.3642016995
 30
0.0
 11
27.1226873457
 21
8.022607537
 31
0.0
 70
   160
  1
<>
 71
     2
 42
-1.0
  3
SLDDIMSTYLE0
100
AcDbAlignedDimension
 13
30.5631538881
 23
18.3642016995
 33
0.0
 14
30.5631538881
 24
1.3642016995
 34
0.0
 50
90.0
100
AcDbRotatedDimension
  0
DIMENSION
  5
19A
330
1F
100
AcDbEntity
  8
DIM
100
AcDbDimension
  2
_D_3
 10
26.0224025893
 20
1.8642016995
 30
0.0
 11
26.0224025893
 21
9.5918572075
 31
0.0
 70
   160
  1
<>
 71
     2
 42
-1.0
  3
SLDDIMSTYLE0
100
AcDbAlignedDimension
 13
30.5631538881
 23
17.8642016995
 33
0.0
 14
30.5631538881
 24
1.8642016995
 34
0.0
 50
90.0
100
AcDbRotatedDimension
  0
DIMENSION
  5
1AA
330
1F
100
AcDbEntity
  8
DIM
100
AcDbDimension
  2
_D_4
 10
24.8917939094
 20
17.7392016995
 30
0.0
 11
24.8917939094
 21
11.6848991433
 31
0.0
 70
   160
  1
<>
 71
     2
 42
-1.0
  3
SLDDIMSTYLE1
100
AcDbAlignedDimension
 13
30.5631538881
 23
1.9892016995
 33
0.0
 14
30.5631538881
 24
17.7392016995
 34
0.0
 50
90.0
100
AcDbRotatedDimension
  0
DIMENSION
  5
1BE
330
1F
100
AcDbEntity
  8
DIM
100
AcDbDimension
  2
_D_5
 10
31.8131538881
 20
5.3912351676
 30
0.0
 11
12.7215439517
 21
5.3912351676
 31
0.0
 70
   160
  1
<>
 71
     2
 42
-1.0
  3
SLDDIMSTYLE1
100
AcDbAlignedDimension
 13
2.0631538881
 23
2.6142016995
 33
0.0
 14
31.8131538881
 24
2.6142016995
 34
0.0
 50
0.0
100
AcDbRotatedDimension
  0
DIMENSION
  5
1D2
330
1F
100
AcDbEntity
  8
DIM
100
AcDbDimension
  2
_D_6
 10
2.5631538881
 20
6.3256139657
 30
0.0
 11
18.0929777869
 21
6.3256139657
 31
0.0
 70
   160
  1
<>
 71
     2
 42
-1.0
  3
SLDDIMSTYLE1
100
AcDbAlignedDimension
 13
31.3131538881
 23
2.6142016995
 33
0.0
 14
2.5631538881
 24
2.6142016995
 34
0.0
 50
0.0
100
AcDbRotatedDimension
  0
DIMENSION
  5
1E6
330
1F
100
AcDbEntity
  8
DIM
100
AcDbDimension
  2
_D_7
 10
2.6881538881
 20
7.2157087348
 30
0.0
 11
21.0813946282
 21
7.2157087348
 31
0.0
 70
   160
  1
<>
 71
     2
 42
-1.0
  3
SLDDIMSTYLE1
100
AcDbAlignedDimension
 13
31.1881538881
 23
2.6142016995
 33
0.0
 14
2.6881538881
 24
2.6142016995
 34
0.0
 50
0.0
100
AcDbRotatedDimension
  0
DIMENSION
  5
1FA
330
1F
100
AcDbEntity
  8
DIM
100
AcDbDimension
  2
_D_8
 10
3.3131538881
 20
19.1142016995
 30
0.0
 11
4.9865417041
 21
18.0538540196
 31
0.0
 70
   164
  1
<>
 71
     1
 42
-1.0
  3
SLDDIMSTYLE2
100
AcDbRadialDimension
 15
2.4292704116
 25
19.998085176
 35
0.0
 40
0.0
  0
DIMENSION
  5
20E
330
1F
100
AcDbEntity
  8
DIM
100
AcDbDimension
  2
_D_9
 10
3.3131538881
 20
2.6142016995
 30
0.0
 11
4.4348139823
 21
3.1926519125
 31
0.0
 70
   164
  1
<>
 71
     1
 42
-1.0
  3
SLDDIMSTYLE2
100
AcDbRadialDimension
 15
2.8712121499
 25
2.1722599612
 35
0.0
 40
0.0
  0
DIMENSION
  5
221
330
1F
100
AcDbEntity
  8
DIM
100
AcDbDimension
  2
_D_10
 10
30.5631538881
 20
17.1142016995
 30
0.0
 11
29.2785912031
 21
16.3728488956
 31
0.0
 70
   164
  1
<>
 71
     1
 42
-1.0
  3
SLDDIMSTYLE3
100
AcDbRadialDimension
 15
31.093483974
 25
17.6445317854
 35
0.0
 40
0.0
  0
DIMENSION
  5
236
330
1F
100
AcDbEntity
  8
DIM
100
AcDbDimension
  2
_D_11
 10
26.0224645525
 20
18.3642016995
 30
0.0
 11
26.0224645525
 21
19.2450156826
 31
0.0
 70
   160
  1
<>
 71
     2
 42
-1.0
  3
SLDDIMSTYLE4
100
AcDbAlignedDimension
 13
30.5631538881
 23
17.8642016995
 33
0.0
 14
30.5631538881
 24
18.3642016995
 34
0.0
 50
90.0
100
AcDbRotatedDimension
  0
DIMENSION
  5
24B
330
1F
100
AcDbEntity
  8
DIM
100
AcDbDimension
  2
_D_12
 10
18.9754315483
 20
20.6142016995
 30
0.0
 11
16.6291300244
 21
16.6304559901
 31
0.0
 70
   164
  1
<>
 71
     1
 42
-1.0
  3
SLDDIMSTYLE5
100
AcDbRadialDimension
 15
17.828427245
 25
17.9779152719
 35
0.0
 40
0.0
  0
DIMENSION
  5
25F
330
1F
100
AcDbEntity
  8
DIM
100
AcDbDimension
  2
_D_13
 10
18.9754315483
 20
20.6142016995
 30
0.0
 11
18.2806814379
 21
19.7226465005
 31
0.0
 70
   164
  1
<>
 71
     1
 42
-1.0
  3
SLDDIMSTYLE5
100
AcDbRadialDimension
 15
17.2850969812
 25
18.4450384849
 35
0.0
 40
0.0
  0
DIMENSION
  5
272
330
1F
100
AcDbEntity
  8
DIM
100
AcDbDimension
  2
_D_14
 10
18.9754315483
 20
20.6142016995
 30
0.0
 11
19.4015181458
 21
16.3728488956
 31
0.0
 70
   164
  1
<>
 71
     1
 42
-1.0
  3
SLDDIMSTYLE5
100
AcDbRadialDimension
 15
18.4633801094
 25
18.4232422466
 35
0.0
 40
0.0
  0
DIMENSION
  5
285
330
1F
100
AcDbEntity
  8
DIM
100
AcDbDimension
  2
_D_15
 10
15.8131538881
 20
19.1142016995
 30
0.0
 11
14.5423024928
 21
15.7155440647
 31
0.0
 70
   164
  1
<>
 71
     1
 42
-1.0
  3
SLDDIMSTYLE2
100
AcDbRadialDimension
 15
16.050683553
 25
20.3414260711
 35
0.0
 40
0.0
  0
DIMENSION
  5
298
330
1F
100
AcDbEntity
  8
DIM
100
AcDbDimension
  2
_D_16
 10
15.8131538881
 20
19.1142016995
 30
0.0
 11
14.2095963271
 21
18.0538540196
 31
0.0
 70
   164
  1
<>
 71
     1
 42
-1.0
  3
SLDDIMSTYLE3
100
AcDbRadialDimension
 15
16.343483974
 25
19.6445317854
 35
0.0
 40
0.0
  0
DIMENSION
  5
2AC
330
1F
100
AcDbEntity
  8
DIM
100
AcDbDimension
  2
_D_17
 10
15.8131538881
 20
19.1142016995
 30
0.0
 11
14.2095963271
 21
16.8920482948
 31
0.0
 70
   164
  1
<>
 71
     1
 42
-1.0
  3
SLDDIMSTYLE2
100
AcDbRadialDimension
 15
16.0823132499
 25
19.6782746008
 35
0.0
 40
0.0
  0
DIMENSION
  5
2BF
330
1F
100
AcDbEntity
  8
DIM
100
AcDbDimension
  2
_D_18
 10
7.4588401428
 20
1.8642016995
 30
0.0
 11
7.4588401428
 21
11.8271821722
 31
0.0
 70
   160
  1
<>
 71
     2
 42
-1.0
  3
SLDDIMSTYLE0
100
AcDbAlignedDimension
 13
3.3131538881
 23
19.8642016995
 33
0.0
 14
3.3131538881
 24
1.8642016995
 34
0.0
 50
90.0
100
AcDbRotatedDimension
  0
DIMENSION
  5
2CF
330
1F
100
AcDbEntity
  8
DIM
100
AcDbDimension
  2
_D_19
 10
31.1881538881
 20
4.5316553773
 30
0.0
 11
30.26530298
 21
4.5316553773
 31
0.0
 70
   160
  1
<>
 71
     2
 42
-1.0
  3
SLDDIMSTYLE4
100
AcDbAlignedDimension
 13
31.3131538881
 23
2.6142016995
 33
0.0
 14
31.1881538881
 24
2.6142016995
 34
0.0
100
AcDbRotatedDimension
  0
INSERT
  5
2E7
102
{ACAD_REACTORS
330
2E9
102
}
330
1F
100
AcDbEntity
  8
NOTES
 62
     7
100
AcDbBlockReference
  2
SW_NOTE_0
 10
20.687780446
 20
4.8166034537
 30
0.0
  0
LEADER
  5
2E9
330
1F
100
AcDbEntity
  8
NOTES
 62
     7
100
AcDbLeader
  3
SLDDIMSTYLE6
 73
     2
 76
     3
 10
21.8239541213
 20
1.9892016995
 30
0.0
 10
20.937780446
 20
4.8166034537
 30
0.0
 10
20.687780446
 20
4.8166034537
 30
0.0
340
2E7
  0
INSERT
  5
2EF
102
{ACAD_REACTORS
330
2F0
102
}
330
1F
100
AcDbEntity
  8
NOTES
 62
     7
100
AcDbBlockReference
  2
SW_NOTE_1
 10
11.7135073335
 20
16.814192455
 30
0.0
  0
LEADER
  5
2F0
330
1F
100
AcDbEntity
  8
NOTES
 62
     7
100
AcDbLeader
  3
SLDDIMSTYLE6
 73
     2
 76
     3
 10
12.9049499254
 20
20.3642016995
 30
0.0
 10
11.9635073335
 20
16.814192455
 30
0.0
 10
11.7135073335
 20
16.814192455
 30
0.0
340
2EF
  0
INSERT
  5
2F6
102
{ACAD_REACTORS
330
2F7
330
2F8
102
}
330
1F
100
AcDbEntity
  8
NOTES
 62
     7
100
AcDbBlockReference
  2
SW_NOTE_2
 10
29.7254479496
 20
11.7290899397
 30
0.0
  0
LEADER
  5
2F7
330
1F
100
AcDbEntity
  8
NOTES
 62
     7
100
AcDbLeader
  3
SLDDIMSTYLE6
 73
     2
 76
     3
 10
31.3131538881
 20
11.2938349443
 30
0.0
 10
29.9754479496
 20
11.7290899397
 30
0.0
 10
29.7254479496
 20
11.7290899397
 30
0.0
340
2F6
  0
LEADER
  5
2F8
330
1F
100
AcDbEntity
  8
NOTES
 62
     7
100
AcDbLeader
  3
SLDDIMSTYLE6
 73
     2
 76
     3
 10
29.2744932455
 20
12.8042265723
 30
0.0
 10
29.9754479496
 20
11.7290899397
 30
0.0
 10
29.7254479496
 20
11.7290899397
 30
0.0
340
2F6
  0
MTEXT
  5
2FA
330
1F
100
AcDbEntity
  8
NOTES
 62
     7
100
AcDbMText
 10
12.4538863923
 20
2.7229606641
 30
0.0
 40
0.1666666667
 41
0.0
 71
     1
 72
     1
  1
REV: A   2/25/2020
  7
SLDTEXTSTYLE1
 73
     1
 44
1.0
  0
INSERT
  5
302
102
{ACAD_REACTORS
330
303
330
304
102
}
330
1F
100
AcDbEntity
  8
NOTES
100
AcDbBlockReference
  2
SW_NOTE_3
 10
10.1655278606
 20
9.0480696935
 30
0.0
  0
LEADER
  5
303
330
1F
100
AcDbEntity
  8
NOTES
100
AcDbLeader
  3
SLDDIMSTYLE6
 73
     2
 76
     3
 10
3.78896683
 20
10.8642016995
 30
0.0
 10
9.8460833895
 20
9.0480696935
 30
0.0
 10
10.1655278606
 20
9.0480696935
 30
0.0
340
302
  0
LEADER
  5
304
330
1F
100
AcDbEntity
  8
NOTES
100
AcDbLeader
  3
SLDDIMSTYLE6
 73
     2
 76
     3
 10
16.9381538881
 20
2.4839747939
 30
0.0
 10
12.0752682474
 20
9.0480696935
 30
0.0
 10
11.8252682474
 20
9.0480696935
 30
0.0
340
302
212
1.659740386750753
222
0.0
232
0.0
  0
INSERT
  5
316
330
1F
100
AcDbEntity
  8
NOTES
 62
     7
100
AcDbBlockReference
  2
SW_NOTE_4
 10
14.9348551235
 20
12.985008513
 30
0.0
  0
INSERT
  5
31C
330
1F
100
AcDbEntity
  8
BLOCKS
 62
     7
100
AcDbBlockReference
  2
SW_NOTE_5
 10
14.9385554807
 20
14.1651537648
 30
0.0
  0
ENDSEC
  0
SECTION
  2
OBJECTS
  0
DICTIONARY
  5
C
330
0
100
AcDbDictionary
281
     1
  3
ACAD_GROUP
350
D
  3
ACAD_LAYOUT
350
1A
  3
ACAD_MLINESTYLE
350
17
  3
ACAD_PLOTSETTINGS
350
19
  3
ACAD_PLOTSTYLENAME
350
E
  3
ACAD_SCALELIST
350
47
  0
DICTIONARY
  5
D
102
{ACAD_REACTORS
330
C
102
}
330
C
100
AcDbDictionary
281
     1
  0
DICTIONARY
  5
1A
102
{ACAD_REACTORS
330
C
102
}
330
C
100
AcDbDictionary
281
     1
  3
Layout1
350
1E
  3
Layout2
350
26
  3
Model
350
22
  0
DICTIONARY
  5
17
102
{ACAD_REACTORS
330
C
102
}
330
C
100
AcDbDictionary
281
     1
  3
Standard
350
18
  0
DICTIONARY
  5
19
102
{ACAD_REACTORS
330
C
102
}
330
C
100
AcDbDictionary
281
     1
  0
ACDBDICTIONARYWDFLT
  5
E
102
{ACAD_REACTORS
330
C
102
}
330
C
100
AcDbDictionary
281
     1
  3
Normal
350
F
100
AcDbDictionaryWithDefault
340
F
  0
DICTIONARY
  5
47
102
{ACAD_REACTORS
330
C
102
}
330
C
100
AcDbDictionary
281
     1
  3
A0
350
48
  3
A1
350
49
  3
A2
350
4A
  3
A3
350
4B
  3
A4
350
4C
  3
A5
350
4D
  3
A6
350
4E
  3
A7
350
4F
  3
A8
350
50
  3
A9
350
51
  3
B0
350
52
  3
B1
350
53
  3
B2
350
54
  3
B3
350
55
  3
B4
350
56
  3
B5
350
57
  3
B6
350
58
  3
B7
350
59
  3
B8
350
5A
  3
B9
350
5B
  3
C0
350
5C
  3
C1
350
5D
  3
C2
350
5E
  3
C3
350
5F
  3
C4
350
60
  3
C5
350
61
  3
C6
350
62
  3
C7
350
63
  3
C8
350
64
  3
C9
350
65
  3
D0
350
66
  3
D1
350
67
  3
D2
350
68
  0
LAYOUT
  5
1E
102
{ACAD_REACTORS
330
1A
102
}
330
1A
100
AcDbPlotSettings
  1

  2
none_device
  4

  6

 40
0.0
 41
0.0
 42
0.0
 43
0.0
 44
0.0
 45
0.0
 46
0.0
 47
0.0
 48
0.0
 49
0.0
140
0.0
141
0.0
142
1.0
143
1.0
 70
   688
 72
     0
 73
     0
 74
     5
  7

 75
    16
147
1.0
148
0.0
149
0.0
100
AcDbLayout
  1
Layout1
 70
     1
 71
     1
 10
0.0
 20
0.0
 11
12.0
 21
9.0
 12
0.0
 22
0.0
 32
0.0
 14
1.0000000000E+20
 24
1.0000000000E+20
 34
1.0000000000E+20
 15
-1.0000000000E+20
 25
-1.0000000000E+20
 35
-1.0000000000E+20
146
0.0
 13
0.0
 23
0.0
 33
0.0
 16
1.0
 26
0.0
 36
0.0
 17
0.0
 27
1.0
 37
0.0
 76
     0
330
1B
  0
LAYOUT
  5
26
102
{ACAD_REACTORS
330
1A
102
}
330
1A
100
AcDbPlotSettings
  1

  2
none_device
  4

  6

 40
0.0
 41
0.0
 42
0.0
 43
0.0
 44
0.0
 45
0.0
 46
0.0
 47
0.0
 48
0.0
 49
0.0
140
0.0
141
0.0
142
1.0
143
1.0
 70
   688
 72
     0
 73
     0
 74
     5
  7

 75
    16
147
1.0
148
0.0
149
0.0
100
AcDbLayout
  1
Layout2
 70
     1
 71
     2
 10
0.0
 20
0.0
 11
0.0
 21
0.0
 12
0.0
 22
0.0
 32
0.0
 14
0.0
 24
0.0
 34
0.0
 15
0.0
 25
0.0
 35
0.0
146
0.0
 13
0.0
 23
0.0
 33
0.0
 16
1.0
 26
0.0
 36
0.0
 17
0.0
 27
1.0
 37
0.0
 76
     0
330
23
  0
LAYOUT
  5
22
102
{ACAD_REACTORS
330
1A
102
}
330
1A
100
AcDbPlotSettings
  1

  2
none_device
  4
Letter_(8.50_x_11.00_Inches)
  6

 40
6.35
 41
6.35
 42
6.35000508
 43
6.35000508
 44
215.9
 45
279.4
 46
0.0
 47
0.0
 48
0.0
 49
0.0
140
0.0
141
0.0
142
1.0
143
1.0
 70
  1712
 72
     0
 73
     0
 74
     0
  7

 75
     0
147
1.0
148
0.0
149
0.0
100
AcDbLayout
  1
Model
 70
     1
 71
     0
 10
0.0
 20
0.0
 11
34.0
 21
22.0
 12
0.0
 22
0.0
 32
0.0
 14
0.0
 24
0.0
 34
0.0
 15
34.0
 25
22.0
 35
0.0
146
0.0
 13
0.0
 23
0.0
 33
0.0
 16
1.0
 26
0.0
 36
0.0
 17
0.0
 27
1.0
 37
0.0
 76
     0
330
1F
331
29
  0
MLINESTYLE
  5
18
102
{ACAD_REACTORS
330
17
102
}
330
17
100
AcDbMlineStyle
  2
Standard
 70
     0
  3

 62
   256
 51
90.0
 52
90.0
 71
     2
 49
0.5
 62
   256
  6
BYLAYER
 49
-0.5
 62
   256
  6
BYLAYER
  0
ACDBPLACEHOLDER
  5
F
102
{ACAD_REACTORS
330
E
102
}
330
E
  0
SCALE
  5
48
102
{ACAD_REACTORS
330
47
102
}
330
47
100
AcDbScale
 70
     0
300
1:1
140
1.0
141
1.0
290
     1
  0
SCALE
  5
49
102
{ACAD_REACTORS
330
47
102
}
330
47
100
AcDbScale
 70
     0
300
1:2
140
1.0
141
2.0
290
     0
  0
SCALE
  5
4A
102
{ACAD_REACTORS
330
47
102
}
330
47
100
AcDbScale
 70
     0
300
1:4
140
1.0
141
4.0
290
     0
  0
SCALE
  5
4B
102
{ACAD_REACTORS
330
47
102
}
330
47
100
AcDbScale
 70
     0
300
1:5
140
1.0
141
5.0
290
     0
  0
SCALE
  5
4C
102
{ACAD_REACTORS
330
47
102
}
330
47
100
AcDbScale
 70
     0
300
1:8
140
1.0
141
8.0
290
     0
  0
SCALE
  5
4D
102
{ACAD_REACTORS
330
47
102
}
330
47
100
AcDbScale
 70
     0
300
1:10
140
1.0
141
10.0
290
     0
  0
SCALE
  5
4E
102
{ACAD_REACTORS
330
47
102
}
330
47
100
AcDbScale
 70
     0
300
1:16
140
1.0
141
16.0
290
     0
  0
SCALE
  5
4F
102
{ACAD_REACTORS
330
47
102
}
330
47
100
AcDbScale
 70
     0
300
1:20
140
1.0
141
20.0
290
     0
  0
SCALE
  5
50
102
{ACAD_REACTORS
330
47
102
}
330
47
100
AcDbScale
 70
     0
300
1:30
140
1.0
141
30.0
290
     0
  0
SCALE
  5
51
102
{ACAD_REACTORS
330
47
102
}
330
47
100
AcDbScale
 70
     0
300
1:40
140
1.0
141
40.0
290
     0
  0
SCALE
  5
52
102
{ACAD_REACTORS
330
47
102
}
330
47
100
AcDbScale
 70
     0
300
1:50
140
1.0
141
50.0
290
     0
  0
SCALE
  5
53
102
{ACAD_REACTORS
330
47
102
}
330
47
100
AcDbScale
 70
     0
300
1:100
140
1.0
141
100.0
290
     0
  0
SCALE
  5
54
102
{ACAD_REACTORS
330
47
102
}
330
47
100
AcDbScale
 70
     0
300
2:1
140
2.0
141
1.0
290
     0
  0
SCALE
  5
55
102
{ACAD_REACTORS
330
47
102
}
330
47
100
AcDbScale
 70
     0
300
4:1
140
4.0
141
1.0
290
     0
  0
SCALE
  5
56
102
{ACAD_REACTORS
330
47
102
}
330
47
100
AcDbScale
 70
     0
300
8:1
140
8.0
141
1.0
290
     0
  0
SCALE
  5
57
102
{ACAD_REACTORS
330
47
102
}
330
47
100
AcDbScale
 70
     0
300
10:1
140
10.0
141
1.0
290
     0
  0
SCALE
  5
58
102
{ACAD_REACTORS
330
47
102
}
330
47
100
AcDbScale
 70
     0
300
100:1
140
100.0
141
1.0
290
     0
  0
SCALE
  5
59
102
{ACAD_REACTORS
330
47
102
}
330
47
100
AcDbScale
 70
     0
300
1/128" = 1'-0"
140
0.0078125
141
12.0
290
     0
  0
SCALE
  5
5A
102
{ACAD_REACTORS
330
47
102
}
330
47
100
AcDbScale
 70
     0
300
1/64" = 1'-0"
140
0.015625
141
12.0
290
     0
  0
SCALE
  5
5B
102
{ACAD_REACTORS
330
47
102
}
330
47
100
AcDbScale
 70
     0
300
1/32" = 1'-0"
140
0.03125
141
12.0
290
     0
  0
SCALE
  5
5C
102
{ACAD_REACTORS
330
47
102
}
330
47
100
AcDbScale
 70
     0
300
1/16" = 1'-0"
140
0.0625
141
12.0
290
     0
  0
SCALE
  5
5D
102
{ACAD_REACTORS
330
47
102
}
330
47
100
AcDbScale
 70
     0
300
3/32" = 1'-0"
140
0.09375
141
12.0
290
     0
  0
SCALE
  5
5E
102
{ACAD_REACTORS
330
47
102
}
330
47
100
AcDbScale
 70
     0
300
1/8" = 1'-0"
140
0.125
141
12.0
290
     0
  0
SCALE
  5
5F
102
{ACAD_REACTORS
330
47
102
}
330
47
100
AcDbScale
 70
     0
300
3/16" = 1'-0"
140
0.1875
141
12.0
290
     0
  0
SCALE
  5
60
102
{ACAD_REACTORS
330
47
102
}
330
47
100
AcDbScale
 70
     0
300
1/4" = 1'-0"
140
0.25
141
12.0
290
     0
  0
SCALE
  5
61
102
{ACAD_REACTORS
330
47
102
}
330
47
100
AcDbScale
 70
     0
300
3/8" = 1'-0"
140
0.375
141
12.0
290
     0
  0
SCALE
  5
62
102
{ACAD_REACTORS
330
47
102
}
330
47
100
AcDbScale
 70
     0
300
1/2" = 1'-0"
140
0.5
141
12.0
290
     0
  0
SCALE
  5
63
102
{ACAD_REACTORS
330
47
102
}
330
47
100
AcDbScale
 70
     0
300
3/4" = 1'-0"
140
0.75
141
12.0
290
     0
  0
SCALE
  5
64
102
{ACAD_REACTORS
330
47
102
}
330
47
100
AcDbScale
 70
     0
300
1" = 1'-0"
140
1.0
141
12.0
290
     0
  0
SCALE
  5
65
102
{ACAD_REACTORS
330
47
102
}
330
47
100
AcDbScale
 70
     0
300
1-1/2" = 1'-0"
140
1.5
141
12.0
290
     0
  0
SCALE
  5
66
102
{ACAD_REACTORS
330
47
102
}
330
47
100
AcDbScale
 70
     0
300
3" = 1'-0"
140
3.0
141
12.0
290
     0
  0
SCALE
  5
67
102
{ACAD_REACTORS
330
47
102
}
330
47
100
AcDbScale
 70
     0
300
6" = 1'-0"
140
6.0
141
12.0
290
     0
  0
SCALE
  5
68
102
{ACAD_REACTORS
330
47
102
}
330
47
100
AcDbScale
 70
     0
300
1'-0" = 1'-0"
140
12.0
141
12.0
290
     0
  0
ENDSEC
  0
EOF
