  0
SECTION
  2
HEADER
  9
$ACADVER
  1
AC1015
  9
$ACADMAINTVER
 70
     6
  9
$DWGCODEPAGE
  3
ANSI_1252
  9
$INSBASE
 10
0.0
 20
0.0
 30
0.0
  9
$EXTMIN
 10
0.0
 20
0.0
 30
0.0
  9
$EXTMAX
 10
34.0
 20
22.0
 30
0.0
  9
$LIMMIN
 10
0.0
 20
0.0
  9
$LIMMAX
 10
34.0
 20
22.0
  9
$ORTHOMODE
 70
     0
  9
$REGENMODE
 70
     1
  9
$FILLMODE
 70
     1
  9
$QTEXTMODE
 70
     0
  9
$MIRRTEXT
 70
     1
  9
$LTSCALE
 40
1.0
  9
$ATTMODE
 70
     1
  9
$TEXTSIZE
 40
0.2777777778
  9
$TRACEWID
 40
0.05
  9
$TEXTSTYLE
  7
Standard
  9
$CLAYER
  8
0
  9
$CELTYPE
  6
ByLayer
  9
$CECOLOR
 62
   256
  9
$CELTSCALE
 40
1.0
  9
$DISPSILH
 70
     0
  9
$DIMSCALE
 40
1.0
  9
$DIMASZ
 40
0.262898763
  9
$DIMEXO
 40
0.05
  9
$DIMDLI
 40
0.38
  9
$DIMRND
 40
0.0
  9
$DIMDLE
 40
0.0
  9
$DIMEXE
 40
0.125
  9
$DIMTP
 40
0.0
  9
$DIMTM
 40
0.0
  9
$DIMTXT
 40
0.3611111111
  9
$DIMCEN
 40
0.09
  9
$DIMTSZ
 40
0.0
  9
$DIMTOL
 70
     0
  9
$DIMLIM
 70
     0
  9
$DIMTIH
 70
     1
  9
$DIMTOH
 70
     1
  9
$DIMSE1
 70
     0
  9
$DIMSE2
 70
     0
  9
$DIMTAD
 70
     0
  9
$DIMZIN
 70
     0
  9
$DIMBLK
  1

  9
$DIMASO
 70
     1
  9
$DIMSHO
 70
     1
  9
$DIMPOST
  1

  9
$DIMAPOST
  1

  9
$DIMALT
 70
     0
  9
$DIMALTD
 70
     2
  9
$DIMALTF
 40
25.4
  9
$DIMLFAC
 40
1.0
  9
$DIMTOFL
 70
     0
  9
$DIMTVP
 40
0.0
  9
$DIMTIX
 70
     0
  9
$DIMSOXD
 70
     0
  9
$DIMSAH
 70
     0
  9
$DIMBLK1
  1

  9
$DIMBLK2
  1

  9
$DIMSTYLE
  2
Standard
  9
$DIMCLRD
 70
     0
  9
$DIMCLRE
 70
     0
  9
$DIMCLRT
 70
     0
  9
$DIMTFAC
 40
1.0
  9
$DIMGAP
 40
0.06
  9
$DIMJUST
 70
     0
  9
$DIMSD1
 70
     0
  9
$DIMSD2
 70
     0
  9
$DIMTOLJ
 70
     1
  9
$DIMTZIN
 70
     0
  9
$DIMALTZ
 70
     0
  9
$DIMALTTZ
 70
     0
  9
$DIMUPT
 70
     0
  9
$DIMDEC
 70
     3
  9
$DIMTDEC
 70
     3
  9
$DIMALTU
 70
     2
  9
$DIMALTTD
 70
     2
  9
$DIMTXSTY
  7
Standard
  9
$DIMAUNIT
 70
     0
  9
$DIMADEC
 70
     1
  9
$DIMALTRND
 40
0.0
  9
$DIMAZIN
 70
     0
  9
$DIMDSEP
 70
    46
  9
$DIMATFIT
 70
     3
  9
$DIMFRAC
 70
     0
  9
$DIMLDRBLK
  1

  9
$DIMLUNIT
 70
     2
  9
$DIMLWD
 70
    -2
  9
$DIMLWE
 70
    -2
  9
$DIMTMOVE
 70
     0
  9
$LUNITS
 70
     2
  9
$LUPREC
 70
     3
  9
$SKETCHINC
 40
0.1
  9
$FILLETRAD
 40
0.5
  9
$AUNITS
 70
     0
  9
$AUPREC
 70
     1
  9
$MENU
  1
.
  9
$ELEVATION
 40
0.0
  9
$PELEVATION
 40
0.0
  9
$THICKNESS
 40
0.0
  9
$LIMCHECK
 70
     0
  9
$CHAMFERA
 40
0.0
  9
$CHAMFERB
 40
0.0
  9
$CHAMFERC
 40
0.0
  9
$CHAMFERD
 40
0.0
  9
$SKPOLY
 70
     0
  9
$TDCREATE
 40
2460081.655738576
  9
$TDUCREATE
 40
2460081.822405243
  9
$TDUPDATE
 40
2460081.655740046
  9
$TDUUPDATE
 40
2460081.822406713
  9
$TDINDWG
 40
0.0000000116
  9
$TDUSRTIMER
 40
0.0000000116
  9
$USRTIMER
 70
     1
  9
$ANGBASE
 50
0.0
  9
$ANGDIR
 70
     0
  9
$PDMODE
 70
     0
  9
$PDSIZE
 40
-1.0
  9
$PLINEWID
 40
0.0
  9
$SPLFRAME
 70
     0
  9
$SPLINETYPE
 70
     6
  9
$SPLINESEGS
 70
     8
  9
$HANDSEED
  5
191
  9
$SURFTAB1
 70
     6
  9
$SURFTAB2
 70
     6
  9
$SURFTYPE
 70
     6
  9
$SURFU
 70
     6
  9
$SURFV
 70
     6
  9
$UCSBASE
  2

  9
$UCSNAME
  2

  9
$UCSORG
 10
0.0
 20
0.0
 30
0.0
  9
$UCSXDIR
 10
1.0
 20
0.0
 30
0.0
  9
$UCSYDIR
 10
0.0
 20
1.0
 30
0.0
  9
$UCSORTHOREF
  2

  9
$UCSORTHOVIEW
 70
     0
  9
$UCSORGTOP
 10
0.0
 20
0.0
 30
0.0
  9
$UCSORGBOTTOM
 10
0.0
 20
0.0
 30
0.0
  9
$UCSORGLEFT
 10
0.0
 20
0.0
 30
0.0
  9
$UCSORGRIGHT
 10
0.0
 20
0.0
 30
0.0
  9
$UCSORGFRONT
 10
0.0
 20
0.0
 30
0.0
  9
$UCSORGBACK
 10
0.0
 20
0.0
 30
0.0
  9
$PUCSBASE
  2

  9
$PUCSNAME
  2

  9
$PUCSORG
 10
0.0
 20
0.0
 30
0.0
  9
$PUCSXDIR
 10
1.0
 20
0.0
 30
0.0
  9
$PUCSYDIR
 10
0.0
 20
1.0
 30
0.0
  9
$PUCSORTHOREF
  2

  9
$PUCSORTHOVIEW
 70
     0
  9
$PUCSORGTOP
 10
0.0
 20
0.0
 30
0.0
  9
$PUCSORGBOTTOM
 10
0.0
 20
0.0
 30
0.0
  9
$PUCSORGLEFT
 10
0.0
 20
0.0
 30
0.0
  9
$PUCSORGRIGHT
 10
0.0
 20
0.0
 30
0.0
  9
$PUCSORGFRONT
 10
0.0
 20
0.0
 30
0.0
  9
$PUCSORGBACK
 10
0.0
 20
0.0
 30
0.0
  9
$USERI1
 70
     0
  9
$USERI2
 70
     0
  9
$USERI3
 70
     0
  9
$USERI4
 70
     0
  9
$USERI5
 70
     0
  9
$USERR1
 40
0.0
  9
$USERR2
 40
0.0
  9
$USERR3
 40
0.0
  9
$USERR4
 40
0.0
  9
$USERR5
 40
0.0
  9
$WORLDVIEW
 70
     1
  9
$SHADEDGE
 70
     3
  9
$SHADEDIF
 70
    70
  9
$TILEMODE
 70
     1
  9
$MAXACTVP
 70
    64
  9
$PINSBASE
 10
0.0
 20
0.0
 30
0.0
  9
$PLIMCHECK
 70
     0
  9
$PEXTMIN
 10
1.0000000000E+20
 20
1.0000000000E+20
 30
1.0000000000E+20
  9
$PEXTMAX
 10
-1.0000000000E+20
 20
-1.0000000000E+20
 30
-1.0000000000E+20
  9
$PLIMMIN
 10
0.0
 20
0.0
  9
$PLIMMAX
 10
12.0
 20
9.0
  9
$UNITMODE
 70
     0
  9
$VISRETAIN
 70
     1
  9
$PLINEGEN
 70
     0
  9
$PSLTSCALE
 70
     1
  9
$TREEDEPTH
 70
  3020
  9
$CMLSTYLE
  2
Standard
  9
$CMLJUST
 70
     0
  9
$CMLSCALE
 40
1.0
  9
$PROXYGRAPHICS
 70
     1
  9
$MEASUREMENT
 70
     0
  9
$CELWEIGHT
370
    -1
  9
$ENDCAPS
280
     0
  9
$JOINSTYLE
280
     0
  9
$LWDISPLAY
290
     1
  9
$INSUNITS
 70
     1
  9
$HYPERLINKBASE
  1

  9
$STYLESHEET
  1

  9
$XEDIT
290
     1
  9
$CEPSNTYPE
380
     0
  9
$PSTYLEMODE
290
     1
  9
$FINGERPRINTGUID
  2
{4ffb31ea-0ac9-4feb-bed0-e4b70c884f0e}
  9
$VERSIONGUID
  2
{FAEB1C32-E019-11D5-929B-00C0DF256EC4}
  9
$EXTNAMES
290
     1
  9
$PSVPSCALE
 40
0.0
  9
$OLESTARTUP
290
     0
  0
ENDSEC
  0
SECTION
  2
CLASSES
  0
CLASS
  1
ACDBDICTIONARYWDFLT
  2
AcDbDictionaryWithDefault
  3
ObjectDBX Classes
 90
        0
280
     0
281
     0
  0
CLASS
  1
VISUALSTYLE
  2
AcDbVisualStyle
  3
ObjectDBX Classes
 90
     4095
280
     0
281
     0
  0
CLASS
  1
MATERIAL
  2
AcDbMaterial
  3
ObjectDBX Classes
 90
     1153
280
     0
281
     0
  0
CLASS
  1
SCALE
  2
AcDbScale
  3
ObjectDBX Classes
 90
     1153
280
     0
281
     0
  0
CLASS
  1
TABLESTYLE
  2
AcDbTableStyle
  3
ObjectDBX Classes
 90
     4095
280
     0
281
     0
  0
CLASS
  1
MLEADERSTYLE
  2
AcDbMLeaderStyle
  3
ACDB_MLEADERSTYLE_CLASS
 90
     4095
280
     0
281
     0
  0
CLASS
  1
SUN
  2
AcDbSun
  3
SCENEOE
 90
     1153
280
     0
281
     0
  0
CLASS
  1
ACDBPLACEHOLDER
  2
AcDbPlaceHolder
  3
ObjectDBX Classes
 90
        0
280
     0
281
     0
  0
CLASS
  1
LAYOUT
  2
AcDbLayout
  3
ObjectDBX Classes
 90
        0
280
     0
281
     0
  0
ENDSEC
  0
SECTION
  2
TABLES
  0
TABLE
  2
VPORT
  5
8
330
0
100
AcDbSymbolTable
 70
     1
  0
VPORT
  5
29
330
8
100
AcDbSymbolTableRecord
100
AcDbViewportTableRecord
  2
*Active
 70
     0
 10
0.0
 20
0.0
 11
1.0
 21
1.0
 12
17.0
 22
11.0
 13
0.0
 23
0.0
 14
0.5
 24
0.5
 15
0.5
 25
0.5
 16
0.0
 26
0.0
 36
1.0
 17
0.0
 27
0.0
 37
0.0
 40
22.0
 41
1.5454545455
 42
50.0
 43
0.0
 44
0.0
 50
0.0
 51
0.0
 71
     0
 72
  2000
 73
     1
 74
     3
 75
     0
 76
     0
 77
     0
 78
     0
281
     0
 65
     1
110
0.0
120
0.0
130
0.0
111
1.0
121
0.0
131
0.0
112
0.0
122
1.0
132
0.0
 79
     0
146
0.0
  0
ENDTAB
  0
TABLE
  2
LTYPE
  5
5
330
0
100
AcDbSymbolTable
 70
     6
  0
LTYPE
  5
14
330
5
100
AcDbSymbolTableRecord
100
AcDbLinetypeTableRecord
  2
ByBlock
 70
     0
  3

 72
    65
 73
     0
 40
0.0
  0
LTYPE
  5
15
330
5
100
AcDbSymbolTableRecord
100
AcDbLinetypeTableRecord
  2
ByLayer
 70
     0
  3

 72
    65
 73
     0
 40
0.0
  0
LTYPE
  5
16
330
5
100
AcDbSymbolTableRecord
100
AcDbLinetypeTableRecord
  2
Continuous
 70
     0
  3
Solid line
 72
    65
 73
     0
 40
0.0
  0
LTYPE
  5
6E
330
5
100
AcDbSymbolTableRecord
100
AcDbLinetypeTableRecord
  2
HIDDEN
 70
     0
  3
Hidden __ __ __ __ __ __ __ __ __ __ __ __ __ __
 72
    65
 73
     2
 40
0.075
 49
0.05
 74
     0
 49
-0.025
 74
     0
  0
LTYPE
  5
6F
330
5
100
AcDbSymbolTableRecord
100
AcDbLinetypeTableRecord
  2
PHANTOM
 70
     0
  3
Phantom ______  __  __  ______  __  __  ______
 72
    65
 73
     6
 40
0.5
 49
0.25
 74
     0
 49
-0.05
 74
     0
 49
0.05
 74
     0
 49
-0.05
 74
     0
 49
0.05
 74
     0
 49
-0.05
 74
     0
  0
LTYPE
  5
70
330
5
100
AcDbSymbolTableRecord
100
AcDbLinetypeTableRecord
  2
CENTER
 70
     0
  3
Center ____ _ ____ _ ____ _ ____ _ ____ _ ____
 72
    65
 73
     4
 40
0.4
 49
0.25
 74
     0
 49
-0.05
 74
     0
 49
0.05
 74
     0
 49
-0.05
 74
     0
  0
LTYPE
  5
71
330
5
100
AcDbSymbolTableRecord
100
AcDbLinetypeTableRecord
  2
CENTERX2
 70
     0
  3
Center (2x) ________  __  ________  __  _____
 72
    65
 73
     4
 40
0.8
 49
0.5
 74
     0
 49
-0.1
 74
     0
 49
0.1
 74
     0
 49
-0.1
 74
     0
  0
LTYPE
  5
72
330
5
100
AcDbSymbolTableRecord
100
AcDbLinetypeTableRecord
  2
DOT2
 70
     0
  3
Dot (.5x) ........................................
 72
    65
 73
     2
 40
0.025
 49
0.0
 74
     0
 49
-0.025
 74
     0
  0
ENDTAB
  0
TABLE
  2
LAYER
  5
2
330
0
100
AcDbSymbolTable
 70
     8
  0
LAYER
  5
10
330
2
100
AcDbSymbolTableRecord
100
AcDbLayerTableRecord
  2
0
 70
     0
 62
     7
  6
Continuous
370
    -3
390
F
  0
LAYER
  5
73
330
2
100
AcDbSymbolTableRecord
100
AcDbLayerTableRecord
  2
SLD-0
 70
     0
 62
   179
  6
Continuous
370
    -3
390
F
  0
LAYER
  5
74
330
2
100
AcDbSymbolTableRecord
100
AcDbLayerTableRecord
  2
OBJECTS
 70
     0
 62
     5
  6
Continuous
370
    -3
390
F
  0
LAYER
  5
75
330
2
100
AcDbSymbolTableRecord
100
AcDbLayerTableRecord
  2
DIMS
 70
     0
 62
     1
  6
Continuous
370
    -3
390
F
  0
LAYER
  5
76
330
2
100
AcDbSymbolTableRecord
100
AcDbLayerTableRecord
  2
NOTES
 70
     0
 62
     7
  6
Continuous
370
    -3
390
F
  0
LAYER
  5
77
330
2
100
AcDbSymbolTableRecord
100
AcDbLayerTableRecord
  2
IMAGES
 70
     0
 62
     7
  6
Continuous
370
    -3
390
F
  0
LAYER
  5
78
330
2
100
AcDbSymbolTableRecord
100
AcDbLayerTableRecord
  2
CENTERLINES
 70
     0
 62
     7
  6
HIDDEN
370
    -3
390
F
  0
LAYER
  5
79
330
2
100
AcDbSymbolTableRecord
100
AcDbLayerTableRecord
  2
BLOCKS
 70
     0
 62
    17
  6
Continuous
370
    -3
390
F
  0
ENDTAB
  0
TABLE
  2
STYLE
  5
3
330
0
100
AcDbSymbolTable
 70
     2
  0
STYLE
  5
11
330
3
100
AcDbSymbolTableRecord
100
AcDbTextStyleTableRecord
  2
Standard
 70
     0
 40
0.0
 41
1.0
 50
0.0
 71
     0
 42
0.2777777778
  3
txt
  4

  0
STYLE
  5
BC
330
3
100
AcDbSymbolTableRecord
100
AcDbTextStyleTableRecord
  2
SLDTEXTSTYLE0
 70
     0
 40
0.0
 41
0.605
 50
0.0
 71
     0
 42
0.2777777778
  3
TXT
  4

  0
ENDTAB
  0
TABLE
  2
VIEW
  5
6
330
0
100
AcDbSymbolTable
 70
     0
  0
ENDTAB
  0
TABLE
  2
UCS
  5
7
330
0
100
AcDbSymbolTable
 70
     0
  0
ENDTAB
  0
TABLE
  2
APPID
  5
9
330
0
100
AcDbSymbolTable
 70
     1
  0
APPID
  5
12
330
9
100
AcDbSymbolTableRecord
100
AcDbRegAppTableRecord
  2
ACAD
 70
     0
  0
ENDTAB
  0
TABLE
  2
DIMSTYLE
  5
A
330
0
100
AcDbSymbolTable
 70
     5
100
AcDbDimStyleTable
  0
DIMSTYLE
105
27
330
A
100
AcDbSymbolTableRecord
100
AcDbDimStyleTableRecord
  2
Standard
 70
     0
178
     0
340
11
  0
DIMSTYLE
105
DA
102
{ACAD_REACTORS
330
D9
330
EB
102
}
330
A
100
AcDbSymbolTableRecord
100
AcDbDimStyleTableRecord
  2
SLDDIMSTYLE0
 70
     0
 41
0.262898763
 44
0.0
 45
0.000000001
 78
    12
 79
     3
140
0.262898763
147
0.0657246908
148
0.000000001
170
     1
173
     1
178
     0
271
     3
272
     3
276
     2
277
     5
284
    12
340
BC
  0
DIMSTYLE
105
FD
102
{ACAD_REACTORS
330
FC
330
111
102
}
330
A
100
AcDbSymbolTableRecord
100
AcDbDimStyleTableRecord
  2
SLDDIMSTYLE1
 70
     0
 41
0.262898763
 44
0.0
 45
0.000000001
 78
    12
 79
     3
140
0.262898763
141
0.0
147
0.0657246908
148
0.000000001
170
     1
173
     1
178
     0
271
     3
272
     3
276
     2
277
     5
279
     1
284
    12
340
BC
  0
DIMSTYLE
105
127
102
{ACAD_REACTORS
330
126
330
13D
102
}
330
A
100
AcDbSymbolTableRecord
100
AcDbDimStyleTableRecord
  2
SLDDIMSTYLE2
 70
     0
 41
0.262898763
 44
0.0
 45
0.000000001
 78
    12
 79
     3
140
0.262898763
147
0.0657246908
148
0.000000001
170
     1
173
     1
178
     0
271
     6
272
     3
276
     2
277
     5
284
    12
340
BC
  0
DIMSTYLE
105
168
330
A
100
AcDbSymbolTableRecord
100
AcDbDimStyleTableRecord
  2
SLDDIMSTYLE3
 70
     0
 41
0.262898763
 44
0.0
 45
0.000000001
146
0.262898763
147
0.0
173
     1
178
     0
271
     0
272
     0
276
     2
277
     5
340
11
  0
ENDTAB
  0
TABLE
  2
BLOCK_RECORD
  5
1
330
0
100
AcDbSymbolTable
 70
    15
  0
BLOCK_RECORD
  5
1F
330
1
100
AcDbSymbolTableRecord
100
AcDbBlockTableRecord
  2
*Model_Space
340
22
  0
BLOCK_RECORD
  5
1B
330
1
100
AcDbSymbolTableRecord
100
AcDbBlockTableRecord
  2
*Paper_Space
340
1E
  0
BLOCK_RECORD
  5
23
330
1
100
AcDbSymbolTableRecord
100
AcDbBlockTableRecord
  2
*Paper_Space0
340
26
  0
BLOCK_RECORD
  5
7A
330
1
100
AcDbSymbolTableRecord
100
AcDbBlockTableRecord
  2
REVEAL - .125
340
0
102
{BLKREFS
331
D8
102
}
  0
BLOCK_RECORD
  5
AC
330
1
100
AcDbSymbolTableRecord
100
AcDbBlockTableRecord
  2
SW_BLOCK_DIMENSION_0
340
0
102
{BLKREFS
331
C3
102
}
  0
BLOCK_RECORD
  5
DB
330
1
100
AcDbSymbolTableRecord
100
AcDbBlockTableRecord
  2
_D
340
0
  0
BLOCK_RECORD
  5
EC
330
1
100
AcDbSymbolTableRecord
100
AcDbBlockTableRecord
  2
_D_1
340
0
  0
BLOCK_RECORD
  5
FE
330
1
100
AcDbSymbolTableRecord
100
AcDbBlockTableRecord
  2
_D_2
340
0
  0
BLOCK_RECORD
  5
112
330
1
100
AcDbSymbolTableRecord
100
AcDbBlockTableRecord
  2
_D_3
340
0
  0
BLOCK_RECORD
  5
128
330
1
100
AcDbSymbolTableRecord
100
AcDbBlockTableRecord
  2
_D_4
340
0
  0
BLOCK_RECORD
  5
13E
330
1
100
AcDbSymbolTableRecord
100
AcDbBlockTableRecord
  2
_D_5
340
0
  0
BLOCK_RECORD
  5
153
330
1
100
AcDbSymbolTableRecord
100
AcDbBlockTableRecord
  2
SW_NOTE_0
340
0
102
{BLKREFS
331
15F
102
}
  0
BLOCK_RECORD
  5
160
330
1
100
AcDbSymbolTableRecord
100
AcDbBlockTableRecord
  2
SW_NOTE_0_1
340
0
102
{BLKREFS
331
167
102
}
  0
BLOCK_RECORD
  5
16B
330
1
100
AcDbSymbolTableRecord
100
AcDbBlockTableRecord
  2
SW_NOTE_0_2
340
0
102
{BLKREFS
331
174
102
}
  0
BLOCK_RECORD
  5
176
330
1
100
AcDbSymbolTableRecord
100
AcDbBlockTableRecord
  2
SW_NOTE_0_3
340
0
102
{BLKREFS
331
17F
102
}
  0
BLOCK_RECORD
  5
181
330
1
100
AcDbSymbolTableRecord
100
AcDbBlockTableRecord
  2
SW_NOTE_0_4
340
0
102
{BLKREFS
331
187
102
}
  0
BLOCK_RECORD
  5
188
330
1
100
AcDbSymbolTableRecord
100
AcDbBlockTableRecord
  2
SW_NOTE_0_5
340
0
102
{BLKREFS
331
18D
102
}
  0
ENDTAB
  0
ENDSEC
  0
SECTION
  2
BLOCKS
  0
BLOCK
  5
20
330
1F
100
AcDbEntity
  8
0
100
AcDbBlockBegin
  2
*Model_Space
 70
     0
 10
0.0
 20
0.0
 30
0.0
  3
*Model_Space
  1

  0
ENDBLK
  5
21
330
1F
100
AcDbEntity
  8
0
100
AcDbBlockEnd
  0
BLOCK
  5
1C
330
1B
100
AcDbEntity
 67
     1
  8
0
100
AcDbBlockBegin
  2
*Paper_Space
 70
     0
 10
0.0
 20
0.0
 30
0.0
  3
*Paper_Space
  1

  0
ENDBLK
  5
1D
330
1B
100
AcDbEntity
 67
     1
  8
0
100
AcDbBlockEnd
  0
BLOCK
  5
24
330
23
100
AcDbEntity
  8
0
100
AcDbBlockBegin
  2
*Paper_Space0
 70
     0
 10
0.0
 20
0.0
 30
0.0
  3
*Paper_Space0
  1

  0
ENDBLK
  5
25
330
23
100
AcDbEntity
  8
0
100
AcDbBlockEnd
  0
BLOCK
  5
7B
330
7A
100
AcDbEntity
  8
0
100
AcDbBlockBegin
  2
REVEAL - .125
 70
     0
 10
0.0
 20
0.0
 30
0.0
  3
REVEAL - .125
  1

  0
ARC
  5
7D
330
7A
100
AcDbEntity
  8
BLOCKS
100
AcDbCircle
 10
-1.4047720451
 20
-12.8442954347
 30
0.0
 40
0.2333367804802293
100
AcDbArc
 50
0.0
 51
90.0
  0
ARC
  5
7E
330
7A
100
AcDbEntity
  8
BLOCKS
100
AcDbCircle
 10
-1.4394760169
 20
-12.1962194696
 30
0.0
 40
0.0041583245038854
100
AcDbArc
 50
0.0
 51
90.0
  0
ARC
  5
7F
330
7A
100
AcDbEntity
  8
BLOCKS
100
AcDbCircle
 10
-2.2191634439
 20
-12.7398388164
 30
0.0
 40
0.0881257319589163
100
AcDbArc
 50
200.9822712638
 51
339.0177287362
  0
ARC
  5
80
330
7A
100
AcDbEntity
  8
BLOCKS
100
AcDbCircle
 10
-1.4047720451
 20
-12.8442954347
 30
0.0
 40
0.1874525384626438
100
AcDbArc
 50
0.0
 51
90.0
  0
LINE
  5
81
330
7A
100
AcDbEntity
  8
BLOCKS
100
AcDbLine
 10
-1.4394760169
 20
-12.1920611451
 30
0.0
 11
-3.01526606
 21
-12.1920611451
 31
0.0
  0
LINE
  5
82
330
7A
100
AcDbEntity
  8
BLOCKS
100
AcDbLine
 10
-2.9855824064
 20
-12.587244826
 30
0.0
 11
-1.4353176924
 21
-12.5884178222
 31
0.0
  0
LINE
  5
83
330
7A
100
AcDbEntity
  8
BLOCKS
100
AcDbLine
 10
-1.9656725284
 20
-12.6109586542
 30
0.0
 11
-1.4047720451
 21
-12.6109586542
 31
0.0
  0
LINE
  5
84
330
7A
100
AcDbEntity
  8
BLOCKS
100
AcDbLine
 10
-1.1714352646
 20
-12.8442954347
 30
0.0
 11
-1.1714352646
 21
-13.2310110215
 31
0.0
  0
LINE
  5
85
330
7A
100
AcDbEntity
  8
BLOCKS
100
AcDbLine
 10
-1.1714352646
 20
-13.2310110215
 30
0.0
 11
-1.2173195066
 21
-13.2310110215
 31
0.0
  0
LINE
  5
86
330
7A
100
AcDbEntity
  8
BLOCKS
100
AcDbLine
 10
-1.2173195066
 20
-13.2310110215
 30
0.0
 11
-1.2173195066
 21
-12.8442954347
 31
0.0
  0
LINE
  5
87
330
7A
100
AcDbEntity
  8
BLOCKS
100
AcDbLine
 10
-1.4047720451
 20
-12.6568428962
 30
0.0
 11
-1.9656725284
 21
-12.6568428962
 31
0.0
  0
LINE
  5
88
330
7A
100
AcDbEntity
  8
BLOCKS
100
AcDbLine
 10
-1.9656725284
 20
-12.6568428962
 30
0.0
 11
-1.9656725284
 21
-12.6109586542
 31
0.0
  0
LINE
  5
89
330
7A
100
AcDbEntity
  8
BLOCKS
100
AcDbLine
 10
-1.5885264144
 20
-12.7093957625
 30
0.0
 11
-1.5358283025
 21
-12.6587686221
 31
0.0
  0
LINE
  5
8A
330
7A
100
AcDbEntity
  8
BLOCKS
100
AcDbLine
 10
-1.5358283025
 20
-12.6587686221
 30
0.0
 11
-1.4932052497
 21
-12.7031352284
 31
0.0
  0
LINE
  5
8B
330
7A
100
AcDbEntity
  8
BLOCKS
100
AcDbLine
 10
-1.4932052497
 20
-12.7031352284
 30
0.0
 11
-1.562140852
 21
-12.7693617458
 31
0.0
  0
LINE
  5
8C
330
7A
100
AcDbEntity
  8
BLOCKS
100
AcDbLine
 10
-2.8296332645
 20
-12.6419825586
 30
0.0
 11
-2.8821446813
 21
-12.5873230914
 31
0.0
  0
LINE
  5
8D
330
7A
100
AcDbEntity
  8
BLOCKS
100
AcDbLine
 10
-2.8821446813
 20
-12.5873230914
 30
0.0
 11
-2.9245601437
 21
-12.6280716779
 31
0.0
  0
LINE
  5
8E
330
7A
100
AcDbEntity
  8
BLOCKS
100
AcDbLine
 10
-2.9245601437
 20
-12.6280716779
 30
0.0
 11
-2.8624774729
 21
-12.692693924
 31
0.0
  0
LINE
  5
8F
330
7A
100
AcDbEntity
  8
BLOCKS
100
AcDbLine
 10
-2.8296332645
 20
-12.6419825586
 30
0.0
 11
-1.5885264144
 21
-12.7093957625
 31
0.0
  0
LINE
  5
90
330
7A
100
AcDbEntity
  8
BLOCKS
100
AcDbLine
 10
-1.562140852
 20
-12.7693617458
 30
0.0
 11
-2.8624774729
 21
-12.692693924
 31
0.0
  0
LINE
  5
91
330
7A
100
AcDbEntity
  8
BLOCKS
100
AcDbLine
 10
-2.1393972724
 20
-12.6794741087
 30
0.0
 11
-2.1393972724
 21
-12.7353267185
 31
0.0
  0
LINE
  5
92
330
7A
100
AcDbEntity
  8
BLOCKS
100
AcDbLine
 10
-2.2940106407
 20
-12.671075974
 30
0.0
 11
-2.2940106407
 21
-12.7262107174
 31
0.0
  0
LINE
  5
93
330
7A
100
AcDbEntity
  8
BLOCKS
100
AcDbLine
 10
-2.3014456705
 20
-12.7713947956
 30
0.0
 11
-2.1368812173
 21
-12.7713947956
 31
0.0
  0
LINE
  5
94
330
7A
100
AcDbEntity
  8
BLOCKS
100
AcDbLine
 10
-2.2566740506
 20
-12.381095059
 30
0.0
 11
-2.2566740506
 21
-12.7713947956
 31
0.0
  0
LINE
  5
95
330
7A
100
AcDbEntity
  8
BLOCKS
100
AcDbLine
 10
-2.1797821788
 20
-12.381095059
 30
0.0
 11
-2.1797821788
 21
-12.7713947956
 31
0.0
  0
LINE
  5
96
330
7A
100
AcDbEntity
  8
BLOCKS
100
AcDbLine
 10
-2.3194491289
 20
-12.7273697282
 30
0.0
 11
-2.1070425499
 21
-12.739893216
 31
0.0
  0
LINE
  5
97
330
7A
100
AcDbEntity
  8
BLOCKS
100
AcDbLine
 10
-2.2566740506
 20
-12.381095059
 30
0.0
 11
-2.2187090708
 21
-12.325905678
 31
0.0
  0
LINE
  5
98
330
7A
100
AcDbEntity
  8
BLOCKS
100
AcDbLine
 10
-2.2187090708
 20
-12.325905678
 30
0.0
 11
-2.1797821788
 21
-12.381095059
 31
0.0
  0
LINE
  5
99
330
7A
100
AcDbEntity
  8
BLOCKS
100
AcDbLine
 10
-2.108936665
 20
-12.7720186533
 30
0.0
 11
-2.3213432441
 21
-12.7594951655
 31
0.0
  0
LINE
  5
9A
330
7A
100
AcDbEntity
  8
BLOCKS
100
AcDbLine
 10
-2.1070425499
 20
-12.739893216
 30
0.0
 11
-2.108936665
 21
-12.7720186533
 31
0.0
  0
LINE
  5
9B
330
7A
100
AcDbEntity
  8
BLOCKS
100
AcDbLine
 10
-2.3194491289
 20
-12.7273697282
 30
0.0
 11
-2.3213432441
 21
-12.7594951655
 31
0.0
  0
LINE
  5
9C
330
7A
100
AcDbEntity
  8
BLOCKS
100
AcDbLine
 10
-2.1534117467
 20
-12.5878744817
 30
0.0
 11
-2.1534117467
 21
-12.3074165013
 31
0.0
  0
LINE
  5
9D
330
7A
100
AcDbEntity
  8
BLOCKS
100
AcDbLine
 10
-2.1534117467
 20
-12.3074165013
 30
0.0
 11
-2.2799487024
 21
-12.3074165013
 31
0.0
  0
LINE
  5
9E
330
7A
100
AcDbEntity
  8
BLOCKS
100
AcDbLine
 10
-2.2799487024
 20
-12.3074165013
 30
0.0
 11
-2.2799487024
 21
-12.5877787385
 31
0.0
  0
LINE
  5
9F
330
7A
100
AcDbEntity
  8
BLOCKS
  6
Continuous
100
AcDbLine
 10
-1.4353176924
 20
-12.5884178222
 30
0.0
 11
-1.4353176924
 21
-12.1962194696
 31
0.0
  0
LINE
  5
A0
330
7A
100
AcDbEntity
  8
BLOCKS
100
AcDbLine
 10
-1.9656725284
 20
-12.5880165332
 30
0.0
 11
-1.9656725284
 21
-12.6339007752
 31
0.0
  0
LINE
  5
A1
330
7A
100
AcDbEntity
  8
BLOCKS
100
AcDbLine
 10
-1.4353176924
 20
-12.5884178222
 30
0.0
 11
-1.4200334992
 21
-12.6109586542
 31
0.0
  0
SPLINE
  5
A2
330
7A
100
AcDbEntity
  8
BLOCKS
100
AcDbSpline
210
0.0
220
0.0
230
1.0
 70
     8
 71
     3
 72
     9
 73
     5
 74
     0
 42
0.00000001
 43
0.00000001
 40
0.0
 40
0.0
 40
0.0
 40
0.0
 40
0.5928291688347104
 40
1.0
 40
1.0
 40
1.0
 40
1.0
 10
-2.985582406350157
 20
-12.58724482604875
 30
0.0
 10
-3.030158058563442
 20
-12.50141038487578
 30
0.0
 10
-2.950675096239938
 20
-12.38218687093916
 30
0.0
 10
-2.968787917689462
 20
-12.22793862570682
 30
0.0
 10
-3.015266060000032
 20
-12.19206114512515
 30
0.0
  0
HATCH
  5
A3
330
7A
100
AcDbEntity
  8
BLOCKS
 62
    16
100
AcDbHatch
 10
0.0
 20
0.0
 30
0.0
210
0.0
220
0.0
230
1.0
  2
ANSI36
 70
     0
 71
     0
 91
        1
 92
        0
 93
       10
 72
     4
 94
        3
 73
     1
 74
     0
 95
        9
 96
        5
 40
0.0
 40
0.0
 40
0.0
 40
0.0
 40
0.4071708311652896
 40
1.0
 40
1.0
 40
1.0
 40
1.0
 10
-3.015266060000032
 20
-12.19206114512515
 42
1.0
 10
-2.968787917689462
 20
-12.22793862570682
 42
1.0
 10
-2.950675096239938
 20
-12.38218687093916
 42
1.0
 10
-3.030158058563441
 20
-12.50141038487578
 42
1.0
 10
-2.985582406350157
 20
-12.58724482604875
 42
1.0
 72
     1
 10
-2.985582406350157
 20
-12.58724482604875
 11
-2.279948702443812
 21
-12.58777873850265
 72
     1
 10
-2.279948702443812
 20
-12.58777873850265
 11
-2.279948702443812
 21
-12.30741650130867
 72
     1
 10
-2.279948702443812
 20
-12.30741650130867
 11
-2.153411746731021
 21
-12.30741650130867
 72
     1
 10
-2.153411746731021
 20
-12.30741650130867
 11
-2.153411746731021
 21
-12.5878744817419
 72
     1
 10
-2.153411746731021
 20
-12.5878744817419
 11
-1.965672528406843
 21
-12.58801653321449
 72
     1
 10
-1.965672528406843
 20
-12.58801653321449
 11
-1.435317692358862
 21
-12.5884178222266
 72
     1
 10
-1.435317692358862
 20
-12.5884178222266
 11
-1.435317692358862
 21
-12.19621946962904
 72
     2
 10
-1.439476016862747
 20
-12.19621946962904
 40
0.0041583245038848
 50
0.0
 51
90.0
 73
     1
 72
     1
 10
-1.439476016862747
 20
-12.19206114512515
 11
-3.015266060000032
 21
-12.19206114512515
 97
        0
 75
     0
 76
     1
 52
0.0
 41
0.5
 77
     0
 78
     1
 53
45.0
 43
0.0
 44
0.0
 45
0.0331456303681194
 46
0.1215339780164379
 79
     4
 49
0.15625
 49
-0.03125
 49
0.0
 49
-0.03125
 98
        1
 10
0.0
 20
0.0
  0
HATCH
  5
A4
330
7A
100
AcDbEntity
  8
BLOCKS
 62
    16
100
AcDbHatch
 10
0.0
 20
0.0
 30
0.0
210
0.0
220
0.0
230
1.0
  2
ANSI32
 70
     0
 71
     0
 91
        1
 92
        0
 93
        5
 72
     1
 10
-2.179782178789117
 20
-12.38109505902804
 11
-2.218709070778683
 21
-12.32590567801565
 72
     1
 10
-2.218709070778683
 20
-12.32590567801565
 11
-2.256674050591661
 21
-12.38109505902804
 72
     1
 10
-2.256674050591661
 20
-12.38109505902804
 11
-2.256674050591661
 21
-12.58779634909355
 72
     1
 10
-2.256674050591661
 20
-12.58779634909355
 11
-2.179782178789117
 21
-12.58785452875211
 72
     1
 10
-2.179782178789117
 20
-12.58785452875211
 11
-2.179782178789117
 21
-12.38109505902804
 97
        0
 75
     0
 76
     1
 52
0.0
 41
0.1666666667
 77
     0
 78
     2
 53
45.0
 43
0.0
 44
0.0
 45
-0.0441941738241592
 46
0.0441941738241592
 79
     0
 53
45.0
 43
0.0294627825
 44
0.0
 45
-0.0441941738241592
 46
0.0441941738241592
 79
     0
 98
        1
 10
0.0
 20
0.0
  0
HATCH
  5
A5
330
7A
100
AcDbEntity
  8
BLOCKS
 62
    16
100
AcDbHatch
 10
0.0
 20
0.0
 30
0.0
210
0.0
220
0.0
230
1.0
  2
ANSI32
 70
     0
 71
     0
 91
        1
 92
        0
 93
        4
 72
     1
 10
-2.179782178789117
 20
-12.67728052166976
 11
-2.179782178789117
 21
-12.58785452875211
 72
     1
 10
-2.179782178789117
 20
-12.58785452875211
 11
-2.256674050591661
 21
-12.58779634909355
 72
     1
 10
-2.256674050591661
 20
-12.58779634909355
 11
-2.256674050591661
 21
-12.67310398567544
 72
     1
 10
-2.256674050591661
 20
-12.67310398567544
 11
-2.179782178789117
 21
-12.67728052166976
 97
        0
 75
     0
 76
     1
 52
0.0
 41
0.1666666667
 77
     0
 78
     2
 53
45.0
 43
0.0
 44
0.0
 45
-0.0441941738241592
 46
0.0441941738241592
 79
     0
 53
45.0
 43
0.0294627825
 44
0.0
 45
-0.0441941738241592
 46
0.0441941738241592
 79
     0
 98
        1
 10
0.0
 20
0.0
  0
HATCH
  5
A6
330
7A
100
AcDbEntity
  8
BLOCKS
 62
    16
100
AcDbHatch
 10
0.0
 20
0.0
 30
0.0
210
0.0
220
0.0
230
1.0
  2
ANSI32
 70
     0
 71
     0
 91
        1
 92
        0
 93
        4
 72
     1
 10
-2.179782178789117
 20
-12.73294562524584
 11
-2.179782178789117
 21
-12.67728052166976
 72
     1
 10
-2.179782178789117
 20
-12.67728052166976
 11
-2.256674050591661
 21
-12.67310398567544
 72
     1
 10
-2.256674050591661
 20
-12.67310398567544
 11
-2.256674050591661
 21
-12.72841208198663
 72
     1
 10
-2.256674050591661
 20
-12.72841208198663
 11
-2.179782178789117
 21
-12.73294562524584
 97
        0
 75
     0
 76
     1
 52
0.0
 41
0.1666666667
 77
     0
 78
     2
 53
45.0
 43
0.0
 44
0.0
 45
-0.0441941738241592
 46
0.0441941738241592
 79
     0
 53
45.0
 43
0.0294627825
 44
0.0
 45
-0.0441941738241592
 46
0.0441941738241592
 79
     0
 98
        1
 10
0.0
 20
0.0
  0
HATCH
  5
A7
330
7A
100
AcDbEntity
  8
BLOCKS
 62
    16
100
AcDbHatch
 10
0.0
 20
0.0
 30
0.0
210
0.0
220
0.0
230
1.0
  2
ANSI32
 70
     0
 71
     0
 91
        1
 92
        0
 93
        4
 72
     1
 10
-2.256674050591661
 20
-12.76330805989465
 11
-2.179782178789118
 21
-12.76784160315386
 72
     1
 10
-2.179782178789118
 20
-12.76784160315386
 11
-2.179782178789118
 21
-12.73560448884958
 72
     1
 10
-2.179782178789118
 20
-12.73560448884958
 11
-2.256674050591661
 21
-12.73107094559037
 72
     1
 10
-2.256674050591661
 20
-12.73107094559037
 11
-2.256674050591661
 21
-12.76330805989465
 97
        0
 75
     0
 76
     1
 52
0.0
 41
0.1666666667
 77
     0
 78
     2
 53
45.0
 43
0.0
 44
0.0
 45
-0.0441941738241592
 46
0.0441941738241592
 79
     0
 53
45.0
 43
0.0294627825
 44
0.0
 45
-0.0441941738241592
 46
0.0441941738241592
 79
     0
 98
        1
 10
0.0
 20
0.0
  0
HATCH
  5
A8
330
7A
100
AcDbEntity
  8
BLOCKS
 62
    16
100
AcDbHatch
 10
0.0
 20
0.0
 30
0.0
210
0.0
220
0.0
230
1.0
  2
ANSI32
 70
     0
 71
     0
 91
        1
 92
        0
 93
        4
 72
     1
 10
-2.256674050591661
 20
-12.73107094559037
 11
-2.319449128927512
 21
-12.72736972819816
 72
     1
 10
-2.319449128927512
 20
-12.72736972819816
 11
-2.321343244083758
 21
-12.75949516550983
 72
     1
 10
-2.321343244083758
 20
-12.75949516550983
 11
-2.256674050591661
 21
-12.76330805989465
 72
     1
 10
-2.256674050591661
 20
-12.76330805989465
 11
-2.256674050591661
 21
-12.73107094559037
 97
        0
 75
     0
 76
     1
 52
0.0
 41
0.1666666667
 77
     0
 78
     2
 53
45.0
 43
0.0
 44
0.0
 45
-0.0441941738241592
 46
0.0441941738241592
 79
     0
 53
45.0
 43
0.0294627825
 44
0.0
 45
-0.0441941738241592
 46
0.0441941738241592
 79
     0
 98
        1
 10
0.0
 20
0.0
  0
HATCH
  5
A9
330
7A
100
AcDbEntity
  8
BLOCKS
 62
    16
100
AcDbHatch
 10
0.0
 20
0.0
 30
0.0
210
0.0
220
0.0
230
1.0
  2
ANSI32
 70
     0
 71
     0
 91
        1
 92
        0
 93
        4
 72
     1
 10
-2.108936665011524
 20
-12.77201865326204
 11
-2.107042549855277
 21
-12.73989321595037
 72
     1
 10
-2.107042549855277
 20
-12.73989321595037
 11
-2.179782178789118
 21
-12.73560448884958
 72
     1
 10
-2.179782178789118
 20
-12.73560448884958
 11
-2.179782178789118
 21
-12.76784160315386
 72
     1
 10
-2.179782178789118
 20
-12.76784160315386
 11
-2.108936665011524
 21
-12.77201865326204
 97
        0
 75
     0
 76
     1
 52
0.0
 41
0.1666666667
 77
     0
 78
     2
 53
45.0
 43
0.0
 44
0.0
 45
-0.0441941738241592
 46
0.0441941738241592
 79
     0
 53
45.0
 43
0.0294627825
 44
0.0
 45
-0.0441941738241592
 46
0.0441941738241592
 79
     0
 98
        1
 10
0.0
 20
0.0
  0
HATCH
  5
AA
330
7A
100
AcDbEntity
  8
BLOCKS
 62
    16
100
AcDbHatch
 10
0.0
 20
0.0
 30
0.0
210
0.0
220
0.0
230
1.0
  2
ANSI32
 70
     0
 71
     0
 91
        1
 92
        0
 93
        4
 72
     1
 10
-2.256674050591661
 20
-12.7713947955757
 11
-2.301445670477764
 21
-12.7713947955757
 72
     2
 10
-2.219163443908178
 20
-12.73983881636341
 40
0.0881257319589163
 50
200.9822712637967
 51
339.0177287362049
 73
     1
 72
     1
 10
-2.136881217338592
 20
-12.7713947955757
 11
-2.179782178789117
 21
-12.7713947955757
 72
     1
 10
-2.179782178789117
 20
-12.7713947955757
 11
-2.256674050591661
 21
-12.7713947955757
 97
        0
 75
     0
 76
     1
 52
0.0
 41
0.1666666667
 77
     0
 78
     2
 53
45.0
 43
0.0
 44
0.0
 45
-0.0441941738241592
 46
0.0441941738241592
 79
     0
 53
45.0
 43
0.0294627825
 44
0.0
 45
-0.0441941738241592
 46
0.0441941738241592
 79
     0
 98
        1
 10
0.0
 20
0.0
  0
HATCH
  5
AB
330
7A
100
AcDbEntity
  8
BLOCKS
 62
    16
100
AcDbHatch
 10
0.0
 20
0.0
 30
0.0
210
0.0
220
0.0
230
1.0
  2
SOLID
 70
     1
 71
     0
 91
        1
 92
        0
 93
        4
 72
     1
 10
-1.420033499233286
 20
-12.61095865422328
 11
-1.435317692358862
 21
-12.5884178222266
 72
     1
 10
-1.435317692358862
 20
-12.5884178222266
 11
-1.965672528406843
 21
-12.58801653321449
 72
     1
 10
-1.965672528406843
 20
-12.58801653321449
 11
-1.965672528406843
 21
-12.61095865422328
 72
     1
 10
-1.965672528406843
 20
-12.61095865422328
 11
-1.420033499233286
 21
-12.61095865422328
 97
        0
 75
     0
 76
     1
 98
        1
 10
0.0
 20
0.0
  0
INSERT
  5
C3
330
7A
100
AcDbEntity
  8
BLOCKS
100
AcDbBlockReference
  2
SW_BLOCK_DIMENSION_0
 10
-2.1360072298
 20
-11.8082095336
 30
0.0
  0
ENDBLK
  5
7C
330
7A
100
AcDbEntity
  8
0
100
AcDbBlockEnd
  0
BLOCK
  5
AD
330
AC
100
AcDbEntity
  8
0
100
AcDbBlockBegin
  2
SW_BLOCK_DIMENSION_0
 70
     0
 10
0.0
 20
0.0
 30
0.0
  3
SW_BLOCK_DIMENSION_0
  1

  0
SOLID
  5
AF
330
AC
100
AcDbEntity
  8
BLOCKS
 62
     0
100
AcDbTrace
 10
0.9645719652
 20
-0.0313006311
 30
0.0
 11
1.065686874
 21
-0.0468567709
 31
0.0
 12
1.065686874
 22
-0.0157444913
 32
0.0
 13
1.065686874
 23
-0.0157444913
 33
0.0
  0
SOLID
  5
B0
330
AC
100
AcDbEntity
  8
BLOCKS
 62
     0
100
AcDbTrace
 10
0.7006895374
 20
-0.0313006311
 30
0.0
 11
0.5995746286
 21
-0.0157444913
 31
0.0
 12
0.5995746286
 22
-0.0468567709
 32
0.0
 13
0.5995746286
 23
-0.0468567709
 33
0.0
  0
LINE
  5
B1
330
AC
100
AcDbEntity
  8
BLOCKS
 62
     0
100
AcDbLine
 10
0.1650270144
 20
0.0798201425
 30
0.0
 11
0.2717013988
 21
0.0798201425
 31
0.0
  0
LINE
  5
B2
330
AC
100
AcDbEntity
  8
BLOCKS
 62
     0
100
AcDbLine
 10
0.1080246921
 20
-0.0940224566
 30
0.0
 11
0.0733024703
 21
-0.0940224566
 31
0.0
  0
LINE
  5
B3
330
AC
100
AcDbEntity
  8
BLOCKS
 62
     0
100
AcDbLine
 10
0.0733024703
 20
-0.0940224566
 30
0.0
 11
0.0733024703
 21
-0.249307956
 31
0.0
  0
LINE
  5
B4
330
AC
100
AcDbEntity
  8
BLOCKS
 62
     0
100
AcDbLine
 10
0.0733024703
 20
-0.249307956
 30
0.0
 11
0.1080246921
 21
-0.249307956
 31
0.0
  0
LINE
  5
B5
330
AC
100
AcDbEntity
  8
BLOCKS
 62
     0
100
AcDbLine
 10
0.3780864406
 20
-0.0940224566
 30
0.0
 11
0.4128086624
 21
-0.0940224566
 31
0.0
  0
LINE
  5
B6
330
AC
100
AcDbEntity
  8
BLOCKS
 62
     0
100
AcDbLine
 10
0.4128086624
 20
-0.0940224566
 30
0.0
 11
0.4128086624
 21
-0.249307956
 31
0.0
  0
LINE
  5
B7
330
AC
100
AcDbEntity
  8
BLOCKS
 62
     0
100
AcDbLine
 10
0.4128086624
 20
-0.249307956
 30
0.0
 11
0.3780864406
 21
-0.249307956
 31
0.0
  0
LINE
  5
B8
330
AC
100
AcDbEntity
  8
BLOCKS
 62
     0
100
AcDbLine
 10
0.9645719652
 20
-0.9860859011
 30
0.0
 11
0.9645719652
 21
0.0936993689
 31
0.0
  0
LINE
  5
B9
330
AC
100
AcDbEntity
  8
BLOCKS
 62
     0
100
AcDbLine
 10
0.7006895374
 20
-0.338009936
 30
0.0
 11
0.7006895374
 21
0.0936993689
 31
0.0
  0
LINE
  5
BA
330
AC
100
AcDbEntity
  8
BLOCKS
 62
     0
100
AcDbLine
 10
0.9645719652
 20
-0.0313006311
 30
0.0
 11
1.159023713
 21
-0.0313006311
 31
0.0
  0
LINE
  5
BB
330
AC
100
AcDbEntity
  8
BLOCKS
 62
     0
100
AcDbLine
 10
0.7006895374
 20
-0.0313006311
 30
0.0
 11
0.4866052898
 21
-0.0313006311
 31
0.0
  0
MTEXT
  5
BD
330
AC
100
AcDbEntity
  8
BLOCKS
 62
     0
100
AcDbMText
 10
0.0390625
 20
0.1342778896
 30
0.0
 40
0.1041666667
 41
0.0
 71
     1
 72
     1
  1

  7
SLDTEXTSTYLE0
 73
     1
 44
1.0
  0
MTEXT
  5
BE
330
AC
100
AcDbEntity
  8
BLOCKS
 62
     0
100
AcDbMText
 10
0.1797839581
 20
0.2052438631
 30
0.0
 40
0.1041666667
 41
0.0
 71
     1
 72
     1
  1
1
  7
SLDTEXTSTYLE0
 73
     1
 44
1.0
  0
MTEXT
  5
BF
330
AC
100
AcDbEntity
  8
BLOCKS
 62
     0
100
AcDbMText
 10
0.1797839581
 20
0.0634035871
 30
0.0
 40
0.1041666667
 41
0.0
 71
     1
 72
     1
  1
4
  7
SLDTEXTSTYLE0
 73
     1
 44
1.0
  0
MTEXT
  5
C0
330
AC
100
AcDbEntity
  8
BLOCKS
 62
     0
100
AcDbMText
 10
0.2864583425
 20
0.1342778896
 30
0.0
 40
0.1041666667
 41
0.0
 71
     1
 72
     1
  1
"
  7
SLDTEXTSTYLE0
 73
     1
 44
1.0
  0
MTEXT
  5
C1
330
AC
100
AcDbEntity
  8
BLOCKS
 62
     0
100
AcDbMText
 10
0.1080246921
 20
-0.1150300596
 30
0.0
 40
0.1041666667
 41
0.0
 71
     1
 72
     1
  1
6.70
  7
SLDTEXTSTYLE0
 73
     1
 44
1.0
  0
MTEXT
  5
C2
330
AC
100
AcDbEntity
  8
BLOCKS
 62
     0
100
AcDbMText
 10
0.4865933934
 20
0.1342778896
 30
0.0
 40
0.1041666667
 41
0.0
 71
     1
 72
     1
  1

  7
SLDTEXTSTYLE0
 73
     1
 44
1.0
  0
ENDBLK
  5
AE
330
AC
100
AcDbEntity
  8
0
100
AcDbBlockEnd
  0
BLOCK
  5
DC
330
DB
100
AcDbEntity
  8
0
100
AcDbBlockBegin
  2
_D
 70
     0
 10
0.0
 20
0.0
 30
0.0
  3
_D
  1

  0
SOLID
  5
DE
330
DB
100
AcDbEntity
  8
DIMS
 62
     1
100
AcDbTrace
 10
8.4505962015
 20
16.3663293839
 30
0.0
 11
8.7134949645
 21
16.3258834204
 31
0.0
 12
8.7134949645
 22
16.4067753474
 32
0.0
 13
8.7134949645
 23
16.4067753474
 33
0.0
  0
SOLID
  5
DF
330
DB
100
AcDbEntity
  8
DIMS
 62
     1
100
AcDbTrace
 10
25.4505962015
 20
16.3663293839
 30
0.0
 11
25.1876974385
 21
16.4067753474
 31
0.0
 12
25.1876974385
 22
16.3258834204
 32
0.0
 13
25.1876974385
 23
16.3258834204
 33
0.0
  0
LINE
  5
E0
330
DB
100
AcDbEntity
  8
DIMS
 62
     1
100
AcDbLine
 10
10.776236688
 20
16.5895160906
 30
0.0
 11
10.6859589067
 21
16.5895160906
 31
0.0
  0
LINE
  5
E1
330
DB
100
AcDbEntity
  8
DIMS
 62
     1
100
AcDbLine
 10
10.6859589067
 20
16.5895160906
 30
0.0
 11
10.6859589067
 21
16.1857738214
 31
0.0
  0
LINE
  5
E2
330
DB
100
AcDbEntity
  8
DIMS
 62
     1
100
AcDbLine
 10
10.6859589067
 20
16.1857738214
 30
0.0
 11
10.776236688
 21
16.1857738214
 31
0.0
  0
LINE
  5
E3
330
DB
100
AcDbEntity
  8
DIMS
 62
     1
100
AcDbLine
 10
11.8796317414
 20
16.5895160906
 30
0.0
 11
11.9699095227
 21
16.5895160906
 31
0.0
  0
LINE
  5
E4
330
DB
100
AcDbEntity
  8
DIMS
 62
     1
100
AcDbLine
 10
11.9699095227
 20
16.5895160906
 30
0.0
 11
11.9699095227
 21
16.1857738214
 31
0.0
  0
LINE
  5
E5
330
DB
100
AcDbEntity
  8
DIMS
 62
     1
100
AcDbLine
 10
11.9699095227
 20
16.1857738214
 30
0.0
 11
11.8796317414
 21
16.1857738214
 31
0.0
  0
LINE
  5
E6
330
DB
100
AcDbEntity
  8
DIMS
 62
     1
100
AcDbLine
 10
8.4505962015
 20
16.3663293839
 30
0.0
 11
10.5355373797
 21
16.3663293839
 31
0.0
  0
LINE
  5
E7
330
DB
100
AcDbEntity
  8
DIMS
 62
     1
100
AcDbLine
 10
25.4505962015
 20
16.3663293839
 30
0.0
 11
12.1203310864
 21
16.3663293839
 31
0.0
  0
MTEXT
  5
E8
330
DB
100
AcDbEntity
  8
DIMS
 62
     1
100
AcDbMText
 10
11.0631194239
 20
16.9988237941
 30
0.0
 40
0.2708333333
 41
0.0
 71
     1
 72
     1
  1
17"
  7
SLDTEXTSTYLE0
 73
     1
 44
1.0
  0
MTEXT
  5
E9
330
DB
100
AcDbEntity
  8
DIMS
 62
     1
100
AcDbMText
 10
10.776236688
 20
16.5348963251
 30
0.0
 40
0.2708333333
 41
0.0
 71
     1
 72
     1
  1
431.80
  7
SLDTEXTSTYLE0
 73
     1
 44
1.0
  0
MTEXT
  5
EA
330
DB
100
AcDbEntity
  8
DIMS
 62
     1
100
AcDbMText
 10
10.7361132765
 20
16.0709688927
 30
0.0
 40
0.2708333333
 41
0.0
 71
     1
 72
     1
  1
FLUSH
  7
SLDTEXTSTYLE0
 73
     1
 44
1.0
  0
ENDBLK
  5
DD
330
DB
100
AcDbEntity
  8
0
100
AcDbBlockEnd
  0
BLOCK
  5
ED
330
EC
100
AcDbEntity
  8
0
100
AcDbBlockBegin
  2
_D_1
 70
     0
 10
0.0
 20
0.0
 30
0.0
  3
_D_1
  1

  0
SOLID
  5
EF
330
EC
100
AcDbEntity
  8
DIMS
 62
     1
100
AcDbTrace
 10
9.9522067872
 20
19.3906721718
 30
0.0
 11
9.9117608236
 21
19.1277734087
 31
0.0
 12
9.9926527507
 22
19.1277734087
 32
0.0
 13
9.9926527507
 23
19.1277734087
 33
0.0
  0
SOLID
  5
F0
330
EC
100
AcDbEntity
  8
DIMS
 62
     1
100
AcDbTrace
 10
9.9522067872
 20
2.3906721718
 30
0.0
 11
9.9926527507
 21
2.6535709348
 31
0.0
 12
9.9117608236
 22
2.6535709348
 32
0.0
 13
9.9117608236
 23
2.6535709348
 33
0.0
  0
LINE
  5
F1
330
EC
100
AcDbEntity
  8
DIMS
 62
     1
100
AcDbLine
 10
9.4005092421
 20
17.9738366294
 30
0.0
 11
9.3102314608
 21
17.9738366294
 31
0.0
  0
LINE
  5
F2
330
EC
100
AcDbEntity
  8
DIMS
 62
     1
100
AcDbLine
 10
9.3102314608
 20
17.9738366294
 30
0.0
 11
9.3102314608
 21
17.5700943601
 31
0.0
  0
LINE
  5
F3
330
EC
100
AcDbEntity
  8
DIMS
 62
     1
100
AcDbLine
 10
9.3102314608
 20
17.5700943601
 30
0.0
 11
9.4005092421
 21
17.5700943601
 31
0.0
  0
LINE
  5
F4
330
EC
100
AcDbEntity
  8
DIMS
 62
     1
100
AcDbLine
 10
10.5039042956
 20
17.9738366294
 30
0.0
 11
10.5941820768
 21
17.9738366294
 31
0.0
  0
LINE
  5
F5
330
EC
100
AcDbEntity
  8
DIMS
 62
     1
100
AcDbLine
 10
10.5941820768
 20
17.9738366294
 30
0.0
 11
10.5941820768
 21
17.5700943601
 31
0.0
  0
LINE
  5
F6
330
EC
100
AcDbEntity
  8
DIMS
 62
     1
100
AcDbLine
 10
10.5941820768
 20
17.5700943601
 30
0.0
 11
10.5039042956
 21
17.5700943601
 31
0.0
  0
LINE
  5
F7
330
EC
100
AcDbEntity
  8
DIMS
 62
     1
100
AcDbLine
 10
9.9522067872
 20
19.3906721718
 30
0.0
 11
9.9522067872
 21
18.3951329175
 31
0.0
  0
LINE
  5
F8
330
EC
100
AcDbEntity
  8
DIMS
 62
     1
100
AcDbLine
 10
9.9522067872
 20
2.3906721718
 30
0.0
 11
9.9522067872
 21
17.1061669278
 31
0.0
  0
MTEXT
  5
F9
330
EC
100
AcDbEntity
  8
DIMS
 62
     1
100
AcDbMText
 10
9.687391978
 20
18.3831443328
 30
0.0
 40
0.2708333333
 41
0.0
 71
     1
 72
     1
  1
17"
  7
SLDTEXTSTYLE0
 73
     1
 44
1.0
  0
MTEXT
  5
FA
330
EC
100
AcDbEntity
  8
DIMS
 62
     1
100
AcDbMText
 10
9.4005092421
 20
17.9192168638
 30
0.0
 40
0.2708333333
 41
0.0
 71
     1
 72
     1
  1
431.80
  7
SLDTEXTSTYLE0
 73
     1
 44
1.0
  0
MTEXT
  5
FB
330
EC
100
AcDbEntity
  8
DIMS
 62
     1
100
AcDbMText
 10
9.3603858306
 20
17.4552894315
 30
0.0
 40
0.2708333333
 41
0.0
 71
     1
 72
     1
  1
FLUSH
  7
SLDTEXTSTYLE0
 73
     1
 44
1.0
  0
ENDBLK
  5
EE
330
EC
100
AcDbEntity
  8
0
100
AcDbBlockEnd
  0
BLOCK
  5
FF
330
FE
100
AcDbEntity
  8
0
100
AcDbBlockBegin
  2
_D_2
 70
     0
 10
0.0
 20
0.0
 30
0.0
  3
_D_2
  1

  0
SOLID
  5
101
330
FE
100
AcDbEntity
  8
DIMS
 62
     1
100
AcDbTrace
 10
8.4634879189
 20
19.3209599007
 30
0.0
 11
8.6813836257
 21
19.1684046762
 31
0.0
 12
8.7171622732
 22
19.2409539163
 32
0.0
 13
8.7171622732
 23
19.2409539163
 33
0.0
  0
LINE
  5
102
330
FE
100
AcDbEntity
  8
DIMS
 62
     1
100
AcDbLine
 10
11.7408309518
 20
18.8247475813
 30
0.0
 11
12.0181843328
 21
18.8247475813
 31
0.0
  0
LINE
  5
103
330
FE
100
AcDbEntity
  8
DIMS
 62
     1
100
AcDbLine
 10
11.4622237411
 20
18.3727568536
 30
0.0
 11
11.3719459599
 21
18.3727568536
 31
0.0
  0
LINE
  5
104
330
FE
100
AcDbEntity
  8
DIMS
 62
     1
100
AcDbLine
 10
11.3719459599
 20
18.3727568536
 30
0.0
 11
11.3719459599
 21
17.9690145843
 31
0.0
  0
LINE
  5
105
330
FE
100
AcDbEntity
  8
DIMS
 62
     1
100
AcDbLine
 10
11.3719459599
 20
17.9690145843
 30
0.0
 11
11.4622237411
 21
17.9690145843
 31
0.0
  0
LINE
  5
106
330
FE
100
AcDbEntity
  8
DIMS
 62
     1
100
AcDbLine
 10
12.164384203
 20
18.3727568536
 30
0.0
 11
12.2546619843
 21
18.3727568536
 31
0.0
  0
LINE
  5
107
330
FE
100
AcDbEntity
  8
DIMS
 62
     1
100
AcDbLine
 10
12.2546619843
 20
18.3727568536
 30
0.0
 11
12.2546619843
 21
17.9690145843
 31
0.0
  0
LINE
  5
108
330
FE
100
AcDbEntity
  8
DIMS
 62
     1
100
AcDbLine
 10
12.2546619843
 20
17.9690145843
 30
0.0
 11
12.164384203
 21
17.9690145843
 31
0.0
  0
LINE
  5
109
330
FE
100
AcDbEntity
  8
DIMS
 62
     1
100
AcDbLine
 10
8.4634879189
 20
19.3209599007
 30
0.0
 11
10.9402329972
 21
18.0995192767
 31
0.0
  0
LINE
  5
10A
330
FE
100
AcDbEntity
  8
DIMS
 62
     1
100
AcDbLine
 10
10.9402329972
 20
18.0995192767
 30
0.0
 11
11.1589829972
 21
18.0995192767
 31
0.0
  0
MTEXT
  5
10B
330
FE
100
AcDbEntity
  8
DIMS
 62
     1
100
AcDbMText
 10
11.4416604137
 20
18.9663377466
 30
0.0
 40
0.2708333333
 41
0.0
 71
     1
 72
     1
  1
R
  7
SLDTEXTSTYLE0
 73
     1
 44
1.0
  0
MTEXT
  5
10C
330
FE
100
AcDbEntity
  8
DIMS
 62
     1
100
AcDbMText
 10
11.7791990036
 20
19.1508492668
 30
0.0
 40
0.2708333333
 41
0.0
 71
     1
 72
     1
  1
1
  7
SLDTEXTSTYLE0
 73
     1
 44
1.0
  0
MTEXT
  5
10D
330
FE
100
AcDbEntity
  8
DIMS
 62
     1
100
AcDbMText
 10
11.7791990036
 20
18.7820645295
 30
0.0
 40
0.2708333333
 41
0.0
 71
     1
 72
     1
  1
8
  7
SLDTEXTSTYLE0
 73
     1
 44
1.0
  0
MTEXT
  5
10E
330
FE
100
AcDbEntity
  8
DIMS
 62
     1
100
AcDbMText
 10
12.0565523937
 20
18.9663377466
 30
0.0
 40
0.2708333333
 41
0.0
 71
     1
 72
     1
  1
"
  7
SLDTEXTSTYLE0
 73
     1
 44
1.0
  0
MTEXT
  5
10F
330
FE
100
AcDbEntity
  8
DIMS
 62
     1
100
AcDbMText
 10
11.4622237411
 20
18.318137088
 30
0.0
 40
0.2708333333
 41
0.0
 71
     1
 72
     1
  1
3.18
  7
SLDTEXTSTYLE0
 73
     1
 44
1.0
  0
MTEXT
  5
110
330
FE
100
AcDbEntity
  8
DIMS
 62
     1
100
AcDbMText
 10
11.2214829972
 20
17.8542097107
 30
0.0
 40
0.2708333333
 41
0.0
 71
     1
 72
     1
  1
FLUSH
  7
SLDTEXTSTYLE0
 73
     1
 44
1.0
  0
ENDBLK
  5
100
330
FE
100
AcDbEntity
  8
0
100
AcDbBlockEnd
  0
BLOCK
  5
113
330
112
100
AcDbEntity
  8
0
100
AcDbBlockBegin
  2
_D_3
 70
     0
 10
0.0
 20
0.0
 30
0.0
  3
_D_3
  1

  0
SOLID
  5
115
330
112
100
AcDbEntity
  8
DIMS
 62
     1
100
AcDbTrace
 10
25.5602631674
 20
19.558172454
 30
0.0
 11
25.3641988719
 21
19.3784214384
 31
0.0
 12
25.4272946359
 22
19.3278010035
 32
0.0
 13
25.4272946359
 23
19.3278010035
 33
0.0
  0
LINE
  5
116
330
112
100
AcDbEntity
  8
DIMS
 62
     1
100
AcDbLine
 10
22.5526788946
 20
18.8027547611
 30
0.0
 11
22.8300322756
 21
18.8027547611
 31
0.0
  0
LINE
  5
117
330
112
100
AcDbEntity
  8
DIMS
 62
     1
100
AcDbLine
 10
22.2740716839
 20
18.3507640334
 30
0.0
 11
22.1837939026
 21
18.3507640334
 31
0.0
  0
LINE
  5
118
330
112
100
AcDbEntity
  8
DIMS
 62
     1
100
AcDbLine
 10
22.1837939026
 20
18.3507640334
 30
0.0
 11
22.1837939026
 21
17.9470217641
 31
0.0
  0
LINE
  5
119
330
112
100
AcDbEntity
  8
DIMS
 62
     1
100
AcDbLine
 10
22.1837939026
 20
17.9470217641
 30
0.0
 11
22.2740716839
 21
17.9470217641
 31
0.0
  0
LINE
  5
11A
330
112
100
AcDbEntity
  8
DIMS
 62
     1
100
AcDbLine
 10
22.9762321458
 20
18.3507640334
 30
0.0
 11
23.0665099271
 21
18.3507640334
 31
0.0
  0
LINE
  5
11B
330
112
100
AcDbEntity
  8
DIMS
 62
     1
100
AcDbLine
 10
23.0665099271
 20
18.3507640334
 30
0.0
 11
23.0665099271
 21
17.9470217641
 31
0.0
  0
LINE
  5
11C
330
112
100
AcDbEntity
  8
DIMS
 62
     1
100
AcDbLine
 10
23.0665099271
 20
17.9470217641
 30
0.0
 11
22.9762321458
 21
17.9470217641
 31
0.0
  0
LINE
  5
11D
330
112
100
AcDbEntity
  8
DIMS
 62
     1
100
AcDbLine
 10
25.5602631674
 20
19.558172454
 30
0.0
 11
24.2104142458
 21
17.8756553219
 31
0.0
  0
LINE
  5
11E
330
112
100
AcDbEntity
  8
DIMS
 62
     1
100
AcDbLine
 10
24.2104142458
 20
17.8756553219
 30
0.0
 11
23.3998432159
 21
17.8756553219
 31
0.0
  0
MTEXT
  5
11F
330
112
100
AcDbEntity
  8
DIMS
 62
     1
100
AcDbMText
 10
22.2535083564
 20
18.9443449264
 30
0.0
 40
0.2708333333
 41
0.0
 71
     1
 72
     1
  1
R
  7
SLDTEXTSTYLE0
 73
     1
 44
1.0
  0
MTEXT
  5
120
330
112
100
AcDbEntity
  8
DIMS
 62
     1
100
AcDbMText
 10
22.5910469463
 20
19.1288564466
 30
0.0
 40
0.2708333333
 41
0.0
 71
     1
 72
     1
  1
3
  7
SLDTEXTSTYLE0
 73
     1
 44
1.0
  0
MTEXT
  5
121
330
112
100
AcDbEntity
  8
DIMS
 62
     1
100
AcDbMText
 10
22.5910469463
 20
18.7600717093
 30
0.0
 40
0.2708333333
 41
0.0
 71
     1
 72
     1
  1
8
  7
SLDTEXTSTYLE0
 73
     1
 44
1.0
  0
MTEXT
  5
122
330
112
100
AcDbEntity
  8
DIMS
 62
     1
100
AcDbMText
 10
22.8684003365
 20
18.9443449264
 30
0.0
 40
0.2708333333
 41
0.0
 71
     1
 72
     1
  1
"
  7
SLDTEXTSTYLE0
 73
     1
 44
1.0
  0
MTEXT
  5
123
330
112
100
AcDbEntity
  8
DIMS
 62
     1
100
AcDbMText
 10
22.2740716839
 20
18.2961442678
 30
0.0
 40
0.2708333333
 41
0.0
 71
     1
 72
     1
  1
9.53
  7
SLDTEXTSTYLE0
 73
     1
 44
1.0
  0
MTEXT
  5
124
330
112
100
AcDbEntity
  8
DIMS
 62
     1
100
AcDbMText
 10
21.9129605771
 20
17.8322168905
 30
0.0
 40
0.2708333333
 41
0.0
 71
     1
 72
     1
  1
REVEAL
  7
SLDTEXTSTYLE0
 73
     1
 44
1.0
  0
MTEXT
  5
125
330
112
100
AcDbEntity
  8
DIMS
 62
     1
100
AcDbMText
 10
21.3211395472
 20
17.4284746212
 30
0.0
 40
0.2708333333
 41
0.0
 71
     1
 72
     1
  1
UNDERMOUNT
  7
SLDTEXTSTYLE0
 73
     1
 44
1.0
  0
ENDBLK
  5
114
330
112
100
AcDbEntity
  8
0
100
AcDbBlockEnd
  0
BLOCK
  5
129
330
128
100
AcDbEntity
  8
0
100
AcDbBlockBegin
  2
_D_4
 70
     0
 10
0.0
 20
0.0
 30
0.0
  3
_D_4
  1

  0
SOLID
  5
12B
330
128
100
AcDbEntity
  8
DIMS
 62
     1
100
AcDbTrace
 10
8.2005962015
 20
6.926183409
 30
0.0
 11
8.4634949645
 21
6.8857374454
 31
0.0
 12
8.4634949645
 22
6.9666293725
 32
0.0
 13
8.4634949645
 23
6.9666293725
 33
0.0
  0
SOLID
  5
12C
330
128
100
AcDbEntity
  8
DIMS
 62
     1
100
AcDbTrace
 10
25.7005962015
 20
6.926183409
 30
0.0
 11
25.4376974385
 21
6.9666293725
 31
0.0
 12
25.4376974385
 22
6.8857374454
 32
0.0
 13
25.4376974385
 23
6.8857374454
 33
0.0
  0
LINE
  5
12D
330
128
100
AcDbEntity
  8
DIMS
 62
     1
100
AcDbLine
 10
22.6228949701
 20
7.6188395865
 30
0.0
 11
22.9002483511
 21
7.6188395865
 31
0.0
  0
LINE
  5
12E
330
128
100
AcDbEntity
  8
DIMS
 62
     1
100
AcDbLine
 10
22.0734543514
 20
7.1668488588
 30
0.0
 11
21.9831765702
 21
7.1668488588
 31
0.0
  0
LINE
  5
12F
330
128
100
AcDbEntity
  8
DIMS
 62
     1
100
AcDbLine
 10
21.9831765702
 20
7.1668488588
 30
0.0
 11
21.9831765702
 21
6.7631065895
 31
0.0
  0
LINE
  5
130
330
128
100
AcDbEntity
  8
DIMS
 62
     1
100
AcDbLine
 10
21.9831765702
 20
6.7631065895
 30
0.0
 11
22.0734543514
 21
6.7631065895
 31
0.0
  0
LINE
  5
131
330
128
100
AcDbEntity
  8
DIMS
 62
     1
100
AcDbLine
 10
23.1768494049
 20
7.1668488588
 30
0.0
 11
23.2671271862
 21
7.1668488588
 31
0.0
  0
LINE
  5
132
330
128
100
AcDbEntity
  8
DIMS
 62
     1
100
AcDbLine
 10
23.2671271862
 20
7.1668488588
 30
0.0
 11
23.2671271862
 21
6.7631065895
 31
0.0
  0
LINE
  5
133
330
128
100
AcDbEntity
  8
DIMS
 62
     1
100
AcDbLine
 10
23.2671271862
 20
6.7631065895
 30
0.0
 11
23.1768494049
 21
6.7631065895
 31
0.0
  0
LINE
  5
134
330
128
100
AcDbEntity
  8
DIMS
 62
     1
100
AcDbLine
 10
8.2005962015
 20
6.926183409
 30
0.0
 11
21.2609958015
 21
6.926183409
 31
0.0
  0
LINE
  5
135
330
128
100
AcDbEntity
  8
DIMS
 62
     1
100
AcDbLine
 10
25.7005962015
 20
6.926183409
 30
0.0
 11
23.9893079915
 21
6.926183409
 31
0.0
  0
MTEXT
  5
136
330
128
100
AcDbEntity
  8
DIMS
 62
     1
100
AcDbMText
 10
22.1832923543
 20
7.7604297518
 30
0.0
 40
0.2708333333
 41
0.0
 71
     1
 72
     1
  1
17
  7
SLDTEXTSTYLE0
 73
     1
 44
1.0
  0
MTEXT
  5
137
330
128
100
AcDbEntity
  8
DIMS
 62
     1
100
AcDbMText
 10
22.6612630219
 20
7.944941272
 30
0.0
 40
0.2708333333
 41
0.0
 71
     1
 72
     1
  1
1
  7
SLDTEXTSTYLE0
 73
     1
 44
1.0
  0
MTEXT
  5
138
330
128
100
AcDbEntity
  8
DIMS
 62
     1
100
AcDbMText
 10
22.6612630219
 20
7.5761565347
 30
0.0
 40
0.2708333333
 41
0.0
 71
     1
 72
     1
  1
2
  7
SLDTEXTSTYLE0
 73
     1
 44
1.0
  0
MTEXT
  5
139
330
128
100
AcDbEntity
  8
DIMS
 62
     1
100
AcDbMText
 10
22.9386163754
 20
7.7604297518
 30
0.0
 40
0.2708333333
 41
0.0
 71
     1
 72
     1
  1
"
  7
SLDTEXTSTYLE0
 73
     1
 44
1.0
  0
MTEXT
  5
13A
330
128
100
AcDbEntity
  8
DIMS
 62
     1
100
AcDbMText
 10
22.0734543514
 20
7.1122290932
 30
0.0
 40
0.2708333333
 41
0.0
 71
     1
 72
     1
  1
444.50
  7
SLDTEXTSTYLE0
 73
     1
 44
1.0
  0
MTEXT
  5
13B
330
128
100
AcDbEntity
  8
DIMS
 62
     1
100
AcDbMText
 10
21.9129605771
 20
6.6483017159
 30
0.0
 40
0.2708333333
 41
0.0
 71
     1
 72
     1
  1
REVEAL
  7
SLDTEXTSTYLE0
 73
     1
 44
1.0
  0
MTEXT
  5
13C
330
128
100
AcDbEntity
  8
DIMS
 62
     1
100
AcDbMText
 10
21.3211395472
 20
6.2445594466
 30
0.0
 40
0.2708333333
 41
0.0
 71
     1
 72
     1
  1
UNDERMOUNT
  7
SLDTEXTSTYLE0
 73
     1
 44
1.0
  0
ENDBLK
  5
12A
330
128
100
AcDbEntity
  8
0
100
AcDbBlockEnd
  0
BLOCK
  5
13F
330
13E
100
AcDbEntity
  8
0
100
AcDbBlockBegin
  2
_D_5
 70
     0
 10
0.0
 20
0.0
 30
0.0
  3
_D_5
  1

  0
SOLID
  5
141
330
13E
100
AcDbEntity
  8
DIMS
 62
     1
100
AcDbTrace
 10
23.8954654035
 20
19.6406721718
 30
0.0
 11
23.85501944
 21
19.3777734087
 31
0.0
 12
23.9359113671
 22
19.3777734087
 32
0.0
 13
23.9359113671
 23
19.3777734087
 33
0.0
  0
SOLID
  5
142
330
13E
100
AcDbEntity
  8
DIMS
 62
     1
100
AcDbTrace
 10
23.8954654035
 20
2.1406721718
 30
0.0
 11
23.9359113671
 21
2.4035709348
 31
0.0
 12
23.85501944
 22
2.4035709348
 32
0.0
 13
23.85501944
 23
2.4035709348
 33
0.0
  0
LINE
  5
143
330
13E
100
AcDbEntity
  8
DIMS
 62
     1
100
AcDbLine
 10
23.8932084771
 20
5.3265228051
 30
0.0
 11
24.1705618581
 21
5.3265228051
 31
0.0
  0
LINE
  5
144
330
13E
100
AcDbEntity
  8
DIMS
 62
     1
100
AcDbLine
 10
23.3437678584
 20
4.8745320774
 30
0.0
 11
23.2534900772
 21
4.8745320774
 31
0.0
  0
LINE
  5
145
330
13E
100
AcDbEntity
  8
DIMS
 62
     1
100
AcDbLine
 10
23.2534900772
 20
4.8745320774
 30
0.0
 11
23.2534900772
 21
4.4707898081
 31
0.0
  0
LINE
  5
146
330
13E
100
AcDbEntity
  8
DIMS
 62
     1
100
AcDbLine
 10
23.2534900772
 20
4.4707898081
 30
0.0
 11
23.3437678584
 21
4.4707898081
 31
0.0
  0
LINE
  5
147
330
13E
100
AcDbEntity
  8
DIMS
 62
     1
100
AcDbLine
 10
24.4471629119
 20
4.8745320774
 30
0.0
 11
24.5374406932
 21
4.8745320774
 31
0.0
  0
LINE
  5
148
330
13E
100
AcDbEntity
  8
DIMS
 62
     1
100
AcDbLine
 10
24.5374406932
 20
4.8745320774
 30
0.0
 11
24.5374406932
 21
4.4707898081
 31
0.0
  0
LINE
  5
149
330
13E
100
AcDbEntity
  8
DIMS
 62
     1
100
AcDbLine
 10
24.5374406932
 20
4.4707898081
 30
0.0
 11
24.4471629119
 21
4.4707898081
 31
0.0
  0
LINE
  5
14A
330
13E
100
AcDbEntity
  8
DIMS
 62
     1
100
AcDbLine
 10
23.8954654035
 20
19.6406721718
 30
0.0
 11
23.8954654035
 21
5.6646130937
 31
0.0
  0
LINE
  5
14B
330
13E
100
AcDbEntity
  8
DIMS
 62
     1
100
AcDbLine
 10
23.8954654035
 20
2.1406721718
 30
0.0
 11
23.8954654035
 21
3.6031201615
 31
0.0
  0
MTEXT
  5
14C
330
13E
100
AcDbEntity
  8
DIMS
 62
     1
100
AcDbMText
 10
23.4536058613
 20
5.4681129704
 30
0.0
 40
0.2708333333
 41
0.0
 71
     1
 72
     1
  1
17
  7
SLDTEXTSTYLE0
 73
     1
 44
1.0
  0
MTEXT
  5
14D
330
13E
100
AcDbEntity
  8
DIMS
 62
     1
100
AcDbMText
 10
23.9315765289
 20
5.6526244906
 30
0.0
 40
0.2708333333
 41
0.0
 71
     1
 72
     1
  1
1
  7
SLDTEXTSTYLE0
 73
     1
 44
1.0
  0
MTEXT
  5
14E
330
13E
100
AcDbEntity
  8
DIMS
 62
     1
100
AcDbMText
 10
23.9315765289
 20
5.2838397533
 30
0.0
 40
0.2708333333
 41
0.0
 71
     1
 72
     1
  1
2
  7
SLDTEXTSTYLE0
 73
     1
 44
1.0
  0
MTEXT
  5
14F
330
13E
100
AcDbEntity
  8
DIMS
 62
     1
100
AcDbMText
 10
24.2089298824
 20
5.4681129704
 30
0.0
 40
0.2708333333
 41
0.0
 71
     1
 72
     1
  1
"
  7
SLDTEXTSTYLE0
 73
     1
 44
1.0
  0
MTEXT
  5
150
330
13E
100
AcDbEntity
  8
DIMS
 62
     1
100
AcDbMText
 10
23.3437678584
 20
4.8199123118
 30
0.0
 40
0.2708333333
 41
0.0
 71
     1
 72
     1
  1
444.50
  7
SLDTEXTSTYLE0
 73
     1
 44
1.0
  0
MTEXT
  5
151
330
13E
100
AcDbEntity
  8
DIMS
 62
     1
100
AcDbMText
 10
23.1832740842
 20
4.3559849345
 30
0.0
 40
0.2708333333
 41
0.0
 71
     1
 72
     1
  1
REVEAL
  7
SLDTEXTSTYLE0
 73
     1
 44
1.0
  0
MTEXT
  5
152
330
13E
100
AcDbEntity
  8
DIMS
 62
     1
100
AcDbMText
 10
22.5914530543
 20
3.9522426652
 30
0.0
 40
0.2708333333
 41
0.0
 71
     1
 72
     1
  1
UNDERMOUNT
  7
SLDTEXTSTYLE0
 73
     1
 44
1.0
  0
ENDBLK
  5
140
330
13E
100
AcDbEntity
  8
0
100
AcDbBlockEnd
  0
BLOCK
  5
154
330
153
100
AcDbEntity
  8
0
100
AcDbBlockBegin
  2
SW_NOTE_0
 70
     0
 10
0.0
 20
0.0
 30
0.0
  3
SW_NOTE_0
  1

  0
MTEXT
  5
156
330
153
100
AcDbEntity
  8
NOTES
 62
     0
100
AcDbMText
 10
0.0
 20
0.2685557791
 30
0.0
 40
0.2083333333
 41
0.0
 71
     1
 72
     1
  1
NOTES:
  7
SLDTEXTSTYLE0
 73
     1
 44
1.0
  0
MTEXT
  5
157
330
153
100
AcDbEntity
  8
NOTES
 62
     0
100
AcDbMText
 10
0.0
 20
-0.3657399401
 30
0.0
 40
0.2083333333
 41
0.0
 71
     1
 72
     1
  1
1.  THOROUGHLY READ ALL  INSTALLATION INSTRUCTIONS
  7
SLDTEXTSTYLE0
 73
     1
 44
1.0
  0
MTEXT
  5
158
330
153
100
AcDbEntity
  8
NOTES
 62
     0
100
AcDbMText
 10
0.390625
 20
-0.6828877997
 30
0.0
 40
0.2083333333
 41
0.0
 71
     1
 72
     1
  1
BEFORE CUTTING COUNTERTOP.
  7
SLDTEXTSTYLE0
 73
     1
 44
1.0
  0
MTEXT
  5
159
330
153
100
AcDbEntity
  8
NOTES
 62
     0
100
AcDbMText
 10
0.0
 20
-1.0000356593
 30
0.0
 40
0.2083333333
 41
0.0
 71
     1
 72
     1
  1
2.  DIMENSIONS ARE IN INCHES [MM].
  7
SLDTEXTSTYLE0
 73
     1
 44
1.0
  0
MTEXT
  5
15A
330
153
100
AcDbEntity
  8
NOTES
 62
     0
100
AcDbMText
 10
0.0
 20
-1.6343313786
 30
0.0
 40
0.2083333333
 41
0.0
 71
     1
 72
     1
  1
PLEASE CHECK TEMPLATE AGAINST PHYSICAL SINK FOR MOST ACCURATE CUT.
  7
SLDTEXTSTYLE0
 73
     1
 44
1.0
  0
MTEXT
  5
15B
330
153
100
AcDbEntity
  8
NOTES
 62
     0
100
AcDbMText
 10
0.0
 20
-2.2686270978
 30
0.0
 40
0.2083333333
 41
0.0
 71
     1
 72
     1
  1
NOTAS:
  7
SLDTEXTSTYLE0
 73
     1
 44
1.0
  0
MTEXT
  5
15C
330
153
100
AcDbEntity
  8
NOTES
 62
     0
100
AcDbMText
 10
0.0
 20
-2.902922817
 30
0.0
 40
0.2083333333
 41
0.0
 71
     1
 72
     1
  1
1.  LEA ATENTAMENTE LAS INSTRUCCIONES DE INSTALACIÓN ANTES DE CORTAR LA ENCIMERA.
  7
SLDTEXTSTYLE0
 73
     1
 44
1.0
  0
MTEXT
  5
15D
330
153
100
AcDbEntity
  8
NOTES
 62
     0
100
AcDbMText
 10
0.0
 20
-3.2200706766
 30
0.0
 40
0.2083333333
 41
0.0
 71
     1
 72
     1
  1
2.  DIMENSIONES EN PULGADAS [MM].
  7
SLDTEXTSTYLE0
 73
     1
 44
1.0
  0
MTEXT
  5
15E
330
153
100
AcDbEntity
  8
NOTES
 62
     0
100
AcDbMText
 10
0.0
 20
-3.8543663959
 30
0.0
 40
0.2083333333
 41
0.0
 71
     1
 72
     1
  1
POR FAVOR COMPRUEBE PLANTILLA CONTRA FREGADERO FÍSICO PARA CORTE MÁS EXACTO.
  7
SLDTEXTSTYLE0
 73
     1
 44
1.0
  0
ENDBLK
  5
155
330
153
100
AcDbEntity
  8
0
100
AcDbBlockEnd
  0
BLOCK
  5
161
330
160
100
AcDbEntity
  8
0
100
AcDbBlockBegin
  2
SW_NOTE_0_1
 70
     0
 10
0.0
 20
0.0
 30
0.0
  3
SW_NOTE_0_1
  1

  0
MTEXT
  5
163
330
160
100
AcDbEntity
  8
NOTES
 62
     0
100
AcDbMText
 10
0.0292779203
 20
0.846435815
 30
0.0
 40
0.25
 41
0.0
 71
     2
 72
     1
  1
TEMPLATE
  7
SLDTEXTSTYLE0
 73
     1
 44
1.0
  0
MTEXT
  5
164
330
160
100
AcDbEntity
  8
NOTES
 62
     0
100
AcDbMText
 10
0.0330395393
 20
0.4737324005
 30
0.0
 40
0.25
 41
0.0
 71
     2
 72
     1
  1
CENTERLINE
  7
SLDTEXTSTYLE0
 73
     1
 44
1.0
  0
MTEXT
  5
165
330
160
100
AcDbEntity
  8
NOTES
 62
     0
100
AcDbMText
 10
0.0331841703
 20
-0.2716744285
 30
0.0
 40
0.25
 41
0.0
 71
     2
 72
     1
  1
PLANTILLA
  7
SLDTEXTSTYLE0
 73
     1
 44
1.0
  0
MTEXT
  5
166
330
160
100
AcDbEntity
  8
NOTES
 62
     0
100
AcDbMText
 10
0.0295672771
 20
-0.644377843
 30
0.0
 40
0.25
 41
0.0
 71
     2
 72
     1
  1
CENTRAL
  7
SLDTEXTSTYLE0
 73
     1
 44
1.0
  0
ENDBLK
  5
162
330
160
100
AcDbEntity
  8
0
100
AcDbBlockEnd
  0
BLOCK
  5
16C
330
16B
100
AcDbEntity
  8
0
100
AcDbBlockBegin
  2
SW_NOTE_0_2
 70
     0
 10
0.0
 20
0.0
 30
0.0
  3
SW_NOTE_0_2
  1

  0
MTEXT
  5
16E
330
16B
100
AcDbEntity
  8
NOTES
 62
     0
100
AcDbMText
 10
0.0228369845
 20
1.0354661269
 30
0.0
 40
0.2083333333
 41
0.0
 71
     1
 72
     1
  1
FOR FLUSHMOUNT
  7
SLDTEXTSTYLE0
 73
     1
 44
1.0
  0
MTEXT
  5
16F
330
16B
100
AcDbEntity
  8
NOTES
 62
     0
100
AcDbMText
 10
0.0228369845
 20
0.7183182673
 30
0.0
 40
0.2083333333
 41
0.0
 71
     1
 72
     1
  1
INSTALLATION CUT
  7
SLDTEXTSTYLE0
 73
     1
 44
1.0
  0
MTEXT
  5
170
330
16B
100
AcDbEntity
  8
NOTES
 62
     0
100
AcDbMText
 10
0.0228369845
 20
0.4011704077
 30
0.0
 40
0.2083333333
 41
0.0
 71
     1
 72
     1
  1
ALONG THIS LINE
  7
SLDTEXTSTYLE0
 73
     1
 44
1.0
  0
MTEXT
  5
171
330
16B
100
AcDbEntity
  8
NOTES
 62
     0
100
AcDbMText
 10
0.0228369845
 20
-0.2331253116
 30
0.0
 40
0.2083333333
 41
0.0
 71
     1
 72
     1
  1
PARA LA INSTALACIÓN
  7
SLDTEXTSTYLE0
 73
     1
 44
1.0
  0
MTEXT
  5
172
330
16B
100
AcDbEntity
  8
NOTES
 62
     0
100
AcDbMText
 10
0.0228369845
 20
-0.5502731712
 30
0.0
 40
0.2083333333
 41
0.0
 71
     1
 72
     1
  1
INFERIOR CORTE A LO
  7
SLDTEXTSTYLE0
 73
     1
 44
1.0
  0
MTEXT
  5
173
330
16B
100
AcDbEntity
  8
NOTES
 62
     0
100
AcDbMText
 10
0.0228369845
 20
-0.8674210308
 30
0.0
 40
0.2083333333
 41
0.0
 71
     1
 72
     1
  1
LARGO DE ESTA LÍNEA
  7
SLDTEXTSTYLE0
 73
     1
 44
1.0
  0
ENDBLK
  5
16D
330
16B
100
AcDbEntity
  8
0
100
AcDbBlockEnd
  0
BLOCK
  5
177
330
176
100
AcDbEntity
  8
0
100
AcDbBlockBegin
  2
SW_NOTE_0_3
 70
     0
 10
0.0
 20
0.0
 30
0.0
  3
SW_NOTE_0_3
  1

  0
MTEXT
  5
179
330
176
100
AcDbEntity
  8
NOTES
 62
     0
100
AcDbMText
 10
0.0202769927
 20
1.0323795585
 30
0.0
 40
0.2083333333
 41
0.0
 71
     1
 72
     1
  1
FOR UNDERMOUNT
  7
SLDTEXTSTYLE0
 73
     1
 44
1.0
  0
MTEXT
  5
17A
330
176
100
AcDbEntity
  8
NOTES
 62
     0
100
AcDbMText
 10
0.0202769927
 20
0.7152316989
 30
0.0
 40
0.2083333333
 41
0.0
 71
     1
 72
     1
  1
INSTALLATION CUT
  7
SLDTEXTSTYLE0
 73
     1
 44
1.0
  0
MTEXT
  5
17B
330
176
100
AcDbEntity
  8
NOTES
 62
     0
100
AcDbMText
 10
0.0202769927
 20
0.3980838393
 30
0.0
 40
0.2083333333
 41
0.0
 71
     1
 72
     1
  1
ALONG THIS LINE
  7
SLDTEXTSTYLE0
 73
     1
 44
1.0
  0
MTEXT
  5
17C
330
176
100
AcDbEntity
  8
NOTES
 62
     0
100
AcDbMText
 10
0.0202769927
 20
-0.2362118799
 30
0.0
 40
0.2083333333
 41
0.0
 71
     1
 72
     1
  1
PARA LA INSTALACIÓN
  7
SLDTEXTSTYLE0
 73
     1
 44
1.0
  0
MTEXT
  5
17D
330
176
100
AcDbEntity
  8
NOTES
 62
     0
100
AcDbMText
 10
0.0202769927
 20
-0.5533597395
 30
0.0
 40
0.2083333333
 41
0.0
 71
     1
 72
     1
  1
INFERIOR CORTE A LO
  7
SLDTEXTSTYLE0
 73
     1
 44
1.0
  0
MTEXT
  5
17E
330
176
100
AcDbEntity
  8
NOTES
 62
     0
100
AcDbMText
 10
0.0202769927
 20
-0.8705075992
 30
0.0
 40
0.2083333333
 41
0.0
 71
     1
 72
     1
  1
LARGO DE ESTA LÍNEA
  7
SLDTEXTSTYLE0
 73
     1
 44
1.0
  0
ENDBLK
  5
178
330
176
100
AcDbEntity
  8
0
100
AcDbBlockEnd
  0
BLOCK
  5
182
330
181
100
AcDbEntity
  8
0
100
AcDbBlockBegin
  2
SW_NOTE_0_4
 70
     0
 10
0.0
 20
0.0
 30
0.0
  3
SW_NOTE_0_4
  1

  0
MTEXT
  5
184
330
181
100
AcDbEntity
  8
NOTES
 62
     0
100
AcDbMText
 10
6.8619791667
 20
1.0742231165
 30
0.0
 40
0.8333333333
 41
0.0
 71
     2
 72
     1
  1
TEMPLATE #: 2000000624
  7
SLDTEXTSTYLE0
 73
     1
 44
1.0
  0
MTEXT
  5
185
330
181
100
AcDbEntity
  8
NOTES
 62
     0
100
AcDbMText
 10
6.8406169856
 20
-0.5609308654
 30
0.0
 40
0.4166666667
 41
0.0
 71
     2
 72
     1
  1
FLUSH AND 1/4" REVEAL TEMPLATE
  7
SLDTEXTSTYLE0
 73
     1
 44
1.0
  0
MTEXT
  5
186
330
181
100
AcDbEntity
  8
NOTES
 62
     0
100
AcDbMText
 10
6.8316460078
 20
-1.3395288577
 30
0.0
 40
0.4166666667
 41
0.0
 71
     2
 72
     1
  1
17" X 17" W/ 1/8" RADIUS
  7
SLDTEXTSTYLE0
 73
     1
 44
1.0
  0
ENDBLK
  5
183
330
181
100
AcDbEntity
  8
0
100
AcDbBlockEnd
  0
BLOCK
  5
189
330
188
100
AcDbEntity
  8
0
100
AcDbBlockBegin
  2
SW_NOTE_0_5
 70
     0
 10
0.0
 20
0.0
 30
0.0
  3
SW_NOTE_0_5
  1

  0
MTEXT
  5
18B
330
188
100
AcDbEntity
  8
DIMS
 62
     0
100
AcDbMText
 10
0.0203762966
 20
0.2422156341
 30
0.0
 40
0.2083333333
 41
0.0
 71
     1
 72
     1
  1
1/4" REVEAL
  7
SLDTEXTSTYLE0
 73
     1
 44
1.0
  0
MTEXT
  5
18C
330
188
100
AcDbEntity
  8
DIMS
 62
     0
100
AcDbMText
 10
0.0203762966
 20
-0.0749322256
 30
0.0
 40
0.2083333333
 41
0.0
 71
     1
 72
     1
  1
[6.35 REVELADO]
  7
SLDTEXTSTYLE0
 73
     1
 44
1.0
  0
ENDBLK
  5
18A
330
188
100
AcDbEntity
  8
0
100
AcDbBlockEnd
  0
ENDSEC
  0
SECTION
  2
ENTITIES
  0
ARC
  5
C4
330
1F
100
AcDbEntity
  8
0
  6
Continuous
 62
     7
100
AcDbCircle
 10
8.5755962015
 20
2.5156721718
 30
0.0
 40
0.3750000000000018
100
AcDbArc
 50
180.0
 51
270.0
  0
ARC
  5
C5
330
1F
100
AcDbEntity
  8
0
  6
Continuous
 62
     7
100
AcDbCircle
 10
25.3255962015
 20
2.5156721718
 30
0.0
 40
0.375
100
AcDbArc
 50
270.0
 51
0.0
  0
ARC
  5
C6
330
1F
100
AcDbEntity
  8
0
  6
Continuous
 62
     7
100
AcDbCircle
 10
25.3255962015
 20
19.2656721718
 30
0.0
 40
0.375
100
AcDbArc
 50
0.0
 51
90.0
  0
ARC
  5
C7
330
1F
100
AcDbEntity
  8
0
  6
Continuous
 62
     7
100
AcDbCircle
 10
8.5755962015
 20
19.2656721718
 30
0.0
 40
0.3750000000000036
100
AcDbArc
 50
90.0
 51
180.0
  0
ARC
  5
C8
330
1F
100
AcDbEntity
  8
0
  6
Continuous
 62
     7
100
AcDbCircle
 10
8.5755962015
 20
2.5156721718
 30
0.0
 40
0.1250000000000018
100
AcDbArc
 50
180.0
 51
270.0
  0
ARC
  5
C9
330
1F
100
AcDbEntity
  8
0
  6
Continuous
 62
     7
100
AcDbCircle
 10
25.3255962015
 20
2.5156721718
 30
0.0
 40
0.1250000000000004
100
AcDbArc
 50
270.0
 51
0.0
  0
ARC
  5
CA
330
1F
100
AcDbEntity
  8
0
  6
Continuous
 62
     7
100
AcDbCircle
 10
25.3255962015
 20
19.2656721718
 30
0.0
 40
0.125
100
AcDbArc
 50
0.0
 51
90.0
  0
ARC
  5
CB
330
1F
100
AcDbEntity
  8
0
  6
Continuous
 62
     7
100
AcDbCircle
 10
8.5755962015
 20
19.2656721718
 30
0.0
 40
0.1250000000000036
100
AcDbArc
 50
90.0
 51
180.0
  0
LINE
  5
CC
330
1F
100
AcDbEntity
  8
0
  6
Continuous
 62
     7
100
AcDbLine
 10
8.4505962015
 20
19.2656721718
 30
0.0
 11
8.4505962015
 21
2.5156721718
 31
0.0
  0
LINE
  5
CD
330
1F
100
AcDbEntity
  8
0
  6
Continuous
 62
     7
100
AcDbLine
 10
8.5755962015
 20
2.3906721718
 30
0.0
 11
25.3255962015
 21
2.3906721718
 31
0.0
  0
LINE
  5
CE
330
1F
100
AcDbEntity
  8
0
  6
Continuous
 62
     7
100
AcDbLine
 10
25.4505962015
 20
2.5156721718
 30
0.0
 11
25.4505962015
 21
19.2656721718
 31
0.0
  0
LINE
  5
CF
330
1F
100
AcDbEntity
  8
0
  6
Continuous
 62
     7
100
AcDbLine
 10
25.3255962015
 20
19.3906721718
 30
0.0
 11
8.5755962015
 21
19.3906721718
 31
0.0
  0
LINE
  5
D0
330
1F
100
AcDbEntity
  8
0
  6
Continuous
 62
     7
100
AcDbLine
 10
8.2005962015
 20
19.2656721718
 30
0.0
 11
8.2005962015
 21
2.5156721718
 31
0.0
  0
LINE
  5
D1
330
1F
100
AcDbEntity
  8
0
  6
Continuous
 62
     7
100
AcDbLine
 10
8.5755962015
 20
2.1406721718
 30
0.0
 11
25.3255962015
 21
2.1406721718
 31
0.0
  0
LINE
  5
D2
330
1F
100
AcDbEntity
  8
0
  6
Continuous
 62
     7
100
AcDbLine
 10
25.7005962015
 20
2.5156721718
 30
0.0
 11
25.7005962015
 21
19.2656721718
 31
0.0
  0
LINE
  5
D3
330
1F
100
AcDbEntity
  8
0
  6
Continuous
 62
     7
100
AcDbLine
 10
25.3255962015
 20
19.6406721718
 30
0.0
 11
8.5755962015
 21
19.6406721718
 31
0.0
  0
LINE
  5
D4
330
1F
100
AcDbEntity
  8
OBJECTS
  6
CENTERX2
100
AcDbLine
 10
16.9505962015
 20
19.6406721718
 30
0.0
 11
16.9505962015
 21
17.5940075915
 31
0.0
  0
LINE
  5
D5
330
1F
100
AcDbEntity
  8
OBJECTS
  6
CENTERX2
100
AcDbLine
 10
8.2005962015
 20
10.8906721718
 30
0.0
 11
10.2472607817
 21
10.8906721718
 31
0.0
  0
LINE
  5
D6
330
1F
100
AcDbEntity
  8
OBJECTS
  6
CENTERX2
100
AcDbLine
 10
16.9505962015
 20
2.1406721718
 30
0.0
 11
16.9505962015
 21
4.187336752
 31
0.0
  0
LINE
  5
D7
330
1F
100
AcDbEntity
  8
OBJECTS
  6
CENTERX2
100
AcDbLine
 10
25.7005962015
 20
10.8906721718
 30
0.0
 11
23.6539316212
 21
10.8906721718
 31
0.0
  0
INSERT
  5
D8
330
1F
100
AcDbEntity
  8
0
  6
Continuous
 62
     7
100
AcDbBlockReference
  2
REVEAL - .125
 10
21.178819805
 20
15.9659580149
 30
0.0
  0
DIMENSION
  5
D9
330
1F
100
AcDbEntity
  8
DIMS
 62
     1
100
AcDbDimension
  2
_D
 10
25.4505962015
 20
16.3663293839
 30
0.0
 11
11.327934233
 21
16.3663293839
 31
0.0
 70
   160
  1
<>\PFLUSH
 71
     2
 42
-1.0
  3
SLDDIMSTYLE0
100
AcDbAlignedDimension
 13
8.4505962015
 23
19.2656721718
 33
0.0
 14
25.4505962015
 24
19.2656721718
 34
0.0
100
AcDbRotatedDimension
  0
DIMENSION
  5
EB
330
1F
100
AcDbEntity
  8
DIMS
 62
     1
100
AcDbDimension
  2
_D_1
 10
9.9522067872
 20
2.3906721718
 30
0.0
 11
9.9522067872
 21
17.7506499227
 31
0.0
 70
   160
  1
<>\PFLUSH
 71
     2
 42
-1.0
  3
SLDDIMSTYLE0
100
AcDbAlignedDimension
 13
8.5755962015
 23
19.3906721718
 33
0.0
 14
8.5755962015
 24
2.3906721718
 34
0.0
 50
90.0
100
AcDbRotatedDimension
  0
DIMENSION
  5
FC
330
1F
100
AcDbEntity
  8
DIMS
 62
     1
100
AcDbDimension
  2
_D_2
 10
8.5755962015
 20
19.2656721718
 30
0.0
 11
11.8133039538
 21
18.3339625384
 31
0.0
 70
   164
  1
<>\PFLUSH
 71
     1
 42
-1.0
  3
SLDDIMSTYLE1
100
AcDbRadialDimension
 15
8.4634879189
 25
19.3209599007
 35
0.0
 40
0.0
  0
DIMENSION
  5
111
330
1F
100
AcDbEntity
  8
DIMS
 62
     1
100
AcDbDimension
  2
_D_3
 10
25.3255962015
 20
19.2656721718
 30
0.0
 11
22.6251518965
 21
18.1100985836
 31
0.0
 70
   164
  1
<>\PREVEAL\PUNDERMOUNT
 71
     1
 42
-1.0
  3
SLDDIMSTYLE1
100
AcDbRadialDimension
 15
25.5602631674
 25
19.558172454
 35
0.0
 40
0.0
  0
DIMENSION
  5
126
330
1F
100
AcDbEntity
  8
DIMS
 62
     1
100
AcDbDimension
  2
_D_4
 10
25.7005962015
 20
6.926183409
 30
0.0
 11
22.6251518965
 21
6.926183409
 31
0.0
 70
   160
  1
<>\PREVEAL\PUNDERMOUNT
 71
     2
 42
-1.0
  3
SLDDIMSTYLE2
100
AcDbAlignedDimension
 13
8.2005962015
 23
2.5156721718
 33
0.0
 14
25.7005962015
 24
2.5156721718
 34
0.0
 50
0.0
100
AcDbRotatedDimension
  0
DIMENSION
  5
13D
330
1F
100
AcDbEntity
  8
DIMS
 62
     1
100
AcDbDimension
  2
_D_5
 10
23.8954654035
 20
2.1406721718
 30
0.0
 11
23.8954654035
 21
4.6338666276
 31
0.0
 70
   160
  1
<>\PREVEAL\PUNDERMOUNT
 71
     2
 42
-1.0
  3
SLDDIMSTYLE2
100
AcDbAlignedDimension
 13
25.3255962015
 23
19.6406721718
 33
0.0
 14
25.3255962015
 24
2.1406721718
 34
0.0
 50
90.0
100
AcDbRotatedDimension
  0
INSERT
  5
15F
330
1F
100
AcDbEntity
  8
NOTES
100
AcDbBlockReference
  2
SW_NOTE_0
 10
10.3190710992
 20
14.4155184617
 30
0.0
  0
INSERT
  5
167
102
{ACAD_REACTORS
330
169
330
16A
102
}
330
1F
100
AcDbEntity
  8
NOTES
100
AcDbBlockReference
  2
SW_NOTE_0_1
 10
19.2679349999
 20
17.5150963701
 30
0.0
  0
LEADER
  5
169
330
1F
100
AcDbEntity
  8
NOTES
100
AcDbLeader
  3
SLDDIMSTYLE3
 73
     2
 76
     3
 10
16.9505962015
 20
18.6878286465
 30
0.0
 10
17.9623794937
 20
17.5150963701
 30
0.0
 10
19.2679349999
 20
17.5150963701
 30
0.0
340
167
  0
LEADER
  5
16A
330
1F
100
AcDbEntity
  8
NOTES
100
AcDbLeader
  3
SLDDIMSTYLE3
 73
     2
 76
     3
 10
24.4317063132
 20
10.8906721718
 30
0.0
 10
20.6128605847
 20
17.5150963701
 30
0.0
 10
19.3073050786
 20
17.5150963701
 30
0.0
340
167
212
0.03937007874015563
222
0.0
232
0.0
  0
INSERT
  5
174
102
{ACAD_REACTORS
330
175
102
}
330
1F
100
AcDbEntity
  8
NOTES
100
AcDbBlockReference
  2
SW_NOTE_0_2
 10
10.1667999145
 20
5.5245591756
 30
0.0
  0
LEADER
  5
175
330
1F
100
AcDbEntity
  8
NOTES
100
AcDbLeader
  3
SLDDIMSTYLE3
 73
     2
 76
     3
 10
9.0172697805
 20
2.3906721718
 30
0.0
 10
9.9171679527
 20
5.5245591756
 30
0.0
 10
10.1667999145
 20
5.5245591756
 30
0.0
340
174
  0
INSERT
  5
17F
102
{ACAD_REACTORS
330
180
102
}
330
1F
100
AcDbEntity
  8
NOTES
100
AcDbBlockReference
  2
SW_NOTE_0_3
 10
13.6296934991
 20
3.8976964178
 30
0.0
  0
LEADER
  5
180
330
1F
100
AcDbEntity
  8
NOTES
100
AcDbLeader
  3
SLDDIMSTYLE3
 73
     2
 76
     3
 10
12.3099196807
 20
2.1406721718
 30
0.0
 10
13.3800615373
 20
3.8976964178
 30
0.0
 10
13.6296934991
 20
3.8976964178
 30
0.0
340
17F
  0
INSERT
  5
187
330
1F
100
AcDbEntity
  8
NOTES
100
AcDbBlockReference
  2
SW_NOTE_0_4
 10
10.1261702876
 20
8.1292127265
 30
0.0
  0
INSERT
  5
18D
102
{ACAD_REACTORS
330
18E
102
}
330
1F
100
AcDbEntity
  8
DIMS
100
AcDbBlockReference
  2
SW_NOTE_0_5
 10
18.3568918555
 20
4.9183268529
 30
0.0
  0
LEADER
  5
18E
330
1F
100
AcDbEntity
  8
DIMS
100
AcDbLeader
  3
SLDDIMSTYLE3
 73
     2
 76
     3
 10
17.7267988346
 20
2.1406721718
 30
0.0
 10
18.1068918555
 20
4.9183268529
 30
0.0
 10
18.3568918555
 20
4.9183268529
 30
0.0
340
18D
  0
MTEXT
  5
18F
330
1F
100
AcDbEntity
  8
NOTES
100
AcDbMText
 10
22.0852081612
 20
2.8044902399
 30
0.0
 40
0.2083333333
 41
0.0
 71
     1
 72
     1
  1
REV_A  4/22
  7
SLDTEXTSTYLE0
 73
     1
 44
1.0
  0
ENDSEC
  0
SECTION
  2
OBJECTS
  0
DICTIONARY
  5
C
330
0
100
AcDbDictionary
281
     1
  3
ACAD_GROUP
350
D
  3
ACAD_LAYOUT
350
1A
  3
ACAD_MLINESTYLE
350
17
  3
ACAD_PLOTSETTINGS
350
19
  3
ACAD_PLOTSTYLENAME
350
E
  3
ACAD_SCALELIST
350
47
  3
DWGPROPS
350
190
  0
DICTIONARY
  5
D
102
{ACAD_REACTORS
330
C
102
}
330
C
100
AcDbDictionary
281
     1
  0
DICTIONARY
  5
1A
102
{ACAD_REACTORS
330
C
102
}
330
C
100
AcDbDictionary
281
     1
  3
Layout1
350
1E
  3
Layout2
350
26
  3
Model
350
22
  0
DICTIONARY
  5
17
102
{ACAD_REACTORS
330
C
102
}
330
C
100
AcDbDictionary
281
     1
  3
Standard
350
18
  0
DICTIONARY
  5
19
102
{ACAD_REACTORS
330
C
102
}
330
C
100
AcDbDictionary
281
     1
  0
ACDBDICTIONARYWDFLT
  5
E
102
{ACAD_REACTORS
330
C
102
}
330
C
100
AcDbDictionary
281
     1
  3
Normal
350
F
100
AcDbDictionaryWithDefault
340
F
  0
DICTIONARY
  5
47
102
{ACAD_REACTORS
330
C
102
}
330
C
100
AcDbDictionary
281
     1
  3
A0
350
48
  3
A1
350
49
  3
A2
350
4A
  3
A3
350
4B
  3
A4
350
4C
  3
A5
350
4D
  3
A6
350
4E
  3
A7
350
4F
  3
A8
350
50
  3
A9
350
51
  3
B0
350
52
  3
B1
350
53
  3
B2
350
54
  3
B3
350
55
  3
B4
350
56
  3
B5
350
57
  3
B6
350
58
  3
B7
350
59
  3
B8
350
5A
  3
B9
350
5B
  3
C0
350
5C
  3
C1
350
5D
  3
C2
350
5E
  3
C3
350
5F
  3
C4
350
60
  3
C5
350
61
  3
C6
350
62
  3
C7
350
63
  3
C8
350
64
  3
C9
350
65
  3
D0
350
66
  3
D1
350
67
  3
D2
350
68
  0
XRECORD
  5
190
102
{ACAD_REACTORS
330
C
102
}
330
C
100
AcDbXrecord
280
     1
  1
DWGPROPS COOKIE
  2

  3

  4

  6

  7

  8
kenton.nall
  9

300
=
301
=
302
=
303
=
304
=
305
=
306
=
307
=
308
=
309
=
 40
0.0
 41
2460081.822405243
 42
2460081.822406713
  1

 90
        0
  0
LAYOUT
  5
1E
102
{ACAD_REACTORS
330
1A
102
}
330
1A
100
AcDbPlotSettings
  1

  2
none_device
  4

  6

 40
0.0
 41
0.0
 42
0.0
 43
0.0
 44
0.0
 45
0.0
 46
0.0
 47
0.0
 48
0.0
 49
0.0
140
0.0
141
0.0
142
1.0
143
1.0
 70
   688
 72
     0
 73
     0
 74
     5
  7

 75
    16
147
1.0
148
0.0
149
0.0
100
AcDbLayout
  1
Layout1
 70
     1
 71
     1
 10
0.0
 20
0.0
 11
12.0
 21
9.0
 12
0.0
 22
0.0
 32
0.0
 14
1.0000000000E+20
 24
1.0000000000E+20
 34
1.0000000000E+20
 15
-1.0000000000E+20
 25
-1.0000000000E+20
 35
-1.0000000000E+20
146
0.0
 13
0.0
 23
0.0
 33
0.0
 16
1.0
 26
0.0
 36
0.0
 17
0.0
 27
1.0
 37
0.0
 76
     0
330
1B
  0
LAYOUT
  5
26
102
{ACAD_REACTORS
330
1A
102
}
330
1A
100
AcDbPlotSettings
  1

  2
none_device
  4

  6

 40
0.0
 41
0.0
 42
0.0
 43
0.0
 44
0.0
 45
0.0
 46
0.0
 47
0.0
 48
0.0
 49
0.0
140
0.0
141
0.0
142
1.0
143
1.0
 70
   688
 72
     0
 73
     0
 74
     5
  7

 75
    16
147
1.0
148
0.0
149
0.0
100
AcDbLayout
  1
Layout2
 70
     1
 71
     2
 10
0.0
 20
0.0
 11
0.0
 21
0.0
 12
0.0
 22
0.0
 32
0.0
 14
0.0
 24
0.0
 34
0.0
 15
0.0
 25
0.0
 35
0.0
146
0.0
 13
0.0
 23
0.0
 33
0.0
 16
1.0
 26
0.0
 36
0.0
 17
0.0
 27
1.0
 37
0.0
 76
     0
330
23
  0
LAYOUT
  5
22
102
{ACAD_REACTORS
330
1A
102
}
330
1A
100
AcDbPlotSettings
  1

  2
none_device
  4
Letter_(8.50_x_11.00_Inches)
  6

 40
6.35
 41
6.35
 42
6.35000508
 43
6.35000508
 44
215.9
 45
279.4
 46
0.0
 47
0.0
 48
0.0
 49
0.0
140
0.0
141
0.0
142
1.0
143
1.0
 70
  1712
 72
     0
 73
     0
 74
     0
  7

 75
     0
147
1.0
148
0.0
149
0.0
100
AcDbLayout
  1
Model
 70
     1
 71
     0
 10
0.0
 20
0.0
 11
34.0
 21
22.0
 12
0.0
 22
0.0
 32
0.0
 14
0.0
 24
0.0
 34
0.0
 15
34.0
 25
22.0
 35
0.0
146
0.0
 13
0.0
 23
0.0
 33
0.0
 16
1.0
 26
0.0
 36
0.0
 17
0.0
 27
1.0
 37
0.0
 76
     0
330
1F
331
29
  0
MLINESTYLE
  5
18
102
{ACAD_REACTORS
330
17
102
}
330
17
100
AcDbMlineStyle
  2
Standard
 70
     0
  3

 62
   256
 51
90.0
 52
90.0
 71
     2
 49
0.5
 62
   256
  6
BYLAYER
 49
-0.5
 62
   256
  6
BYLAYER
  0
ACDBPLACEHOLDER
  5
F
102
{ACAD_REACTORS
330
E
102
}
330
E
  0
SCALE
  5
48
102
{ACAD_REACTORS
330
47
102
}
330
47
100
AcDbScale
 70
     0
300
1:1
140
1.0
141
1.0
290
     1
  0
SCALE
  5
49
102
{ACAD_REACTORS
330
47
102
}
330
47
100
AcDbScale
 70
     0
300
1:2
140
1.0
141
2.0
290
     0
  0
SCALE
  5
4A
102
{ACAD_REACTORS
330
47
102
}
330
47
100
AcDbScale
 70
     0
300
1:4
140
1.0
141
4.0
290
     0
  0
SCALE
  5
4B
102
{ACAD_REACTORS
330
47
102
}
330
47
100
AcDbScale
 70
     0
300
1:5
140
1.0
141
5.0
290
     0
  0
SCALE
  5
4C
102
{ACAD_REACTORS
330
47
102
}
330
47
100
AcDbScale
 70
     0
300
1:8
140
1.0
141
8.0
290
     0
  0
SCALE
  5
4D
102
{ACAD_REACTORS
330
47
102
}
330
47
100
AcDbScale
 70
     0
300
1:10
140
1.0
141
10.0
290
     0
  0
SCALE
  5
4E
102
{ACAD_REACTORS
330
47
102
}
330
47
100
AcDbScale
 70
     0
300
1:16
140
1.0
141
16.0
290
     0
  0
SCALE
  5
4F
102
{ACAD_REACTORS
330
47
102
}
330
47
100
AcDbScale
 70
     0
300
1:20
140
1.0
141
20.0
290
     0
  0
SCALE
  5
50
102
{ACAD_REACTORS
330
47
102
}
330
47
100
AcDbScale
 70
     0
300
1:30
140
1.0
141
30.0
290
     0
  0
SCALE
  5
51
102
{ACAD_REACTORS
330
47
102
}
330
47
100
AcDbScale
 70
     0
300
1:40
140
1.0
141
40.0
290
     0
  0
SCALE
  5
52
102
{ACAD_REACTORS
330
47
102
}
330
47
100
AcDbScale
 70
     0
300
1:50
140
1.0
141
50.0
290
     0
  0
SCALE
  5
53
102
{ACAD_REACTORS
330
47
102
}
330
47
100
AcDbScale
 70
     0
300
1:100
140
1.0
141
100.0
290
     0
  0
SCALE
  5
54
102
{ACAD_REACTORS
330
47
102
}
330
47
100
AcDbScale
 70
     0
300
2:1
140
2.0
141
1.0
290
     0
  0
SCALE
  5
55
102
{ACAD_REACTORS
330
47
102
}
330
47
100
AcDbScale
 70
     0
300
4:1
140
4.0
141
1.0
290
     0
  0
SCALE
  5
56
102
{ACAD_REACTORS
330
47
102
}
330
47
100
AcDbScale
 70
     0
300
8:1
140
8.0
141
1.0
290
     0
  0
SCALE
  5
57
102
{ACAD_REACTORS
330
47
102
}
330
47
100
AcDbScale
 70
     0
300
10:1
140
10.0
141
1.0
290
     0
  0
SCALE
  5
58
102
{ACAD_REACTORS
330
47
102
}
330
47
100
AcDbScale
 70
     0
300
100:1
140
100.0
141
1.0
290
     0
  0
SCALE
  5
59
102
{ACAD_REACTORS
330
47
102
}
330
47
100
AcDbScale
 70
     0
300
1/128" = 1'-0"
140
0.0078125
141
12.0
290
     0
  0
SCALE
  5
5A
102
{ACAD_REACTORS
330
47
102
}
330
47
100
AcDbScale
 70
     0
300
1/64" = 1'-0"
140
0.015625
141
12.0
290
     0
  0
SCALE
  5
5B
102
{ACAD_REACTORS
330
47
102
}
330
47
100
AcDbScale
 70
     0
300
1/32" = 1'-0"
140
0.03125
141
12.0
290
     0
  0
SCALE
  5
5C
102
{ACAD_REACTORS
330
47
102
}
330
47
100
AcDbScale
 70
     0
300
1/16" = 1'-0"
140
0.0625
141
12.0
290
     0
  0
SCALE
  5
5D
102
{ACAD_REACTORS
330
47
102
}
330
47
100
AcDbScale
 70
     0
300
3/32" = 1'-0"
140
0.09375
141
12.0
290
     0
  0
SCALE
  5
5E
102
{ACAD_REACTORS
330
47
102
}
330
47
100
AcDbScale
 70
     0
300
1/8" = 1'-0"
140
0.125
141
12.0
290
     0
  0
SCALE
  5
5F
102
{ACAD_REACTORS
330
47
102
}
330
47
100
AcDbScale
 70
     0
300
3/16" = 1'-0"
140
0.1875
141
12.0
290
     0
  0
SCALE
  5
60
102
{ACAD_REACTORS
330
47
102
}
330
47
100
AcDbScale
 70
     0
300
1/4" = 1'-0"
140
0.25
141
12.0
290
     0
  0
SCALE
  5
61
102
{ACAD_REACTORS
330
47
102
}
330
47
100
AcDbScale
 70
     0
300
3/8" = 1'-0"
140
0.375
141
12.0
290
     0
  0
SCALE
  5
62
102
{ACAD_REACTORS
330
47
102
}
330
47
100
AcDbScale
 70
     0
300
1/2" = 1'-0"
140
0.5
141
12.0
290
     0
  0
SCALE
  5
63
102
{ACAD_REACTORS
330
47
102
}
330
47
100
AcDbScale
 70
     0
300
3/4" = 1'-0"
140
0.75
141
12.0
290
     0
  0
SCALE
  5
64
102
{ACAD_REACTORS
330
47
102
}
330
47
100
AcDbScale
 70
     0
300
1" = 1'-0"
140
1.0
141
12.0
290
     0
  0
SCALE
  5
65
102
{ACAD_REACTORS
330
47
102
}
330
47
100
AcDbScale
 70
     0
300
1-1/2" = 1'-0"
140
1.5
141
12.0
290
     0
  0
SCALE
  5
66
102
{ACAD_REACTORS
330
47
102
}
330
47
100
AcDbScale
 70
     0
300
3" = 1'-0"
140
3.0
141
12.0
290
     0
  0
SCALE
  5
67
102
{ACAD_REACTORS
330
47
102
}
330
47
100
AcDbScale
 70
     0
300
6" = 1'-0"
140
6.0
141
12.0
290
     0
  0
SCALE
  5
68
102
{ACAD_REACTORS
330
47
102
}
330
47
100
AcDbScale
 70
     0
300
1'-0" = 1'-0"
140
12.0
141
12.0
290
     0
  0
ENDSEC
  0
EOF
