  0
SECTION
  2
HEADER
  9
$ACADVER
  1
AC1021
  9
$ACADMAINTVER
 70
    25
  9
$DWGCODEPAGE
  3
ANSI_1252
  9
$INSBASE
 10
0.0
 20
0.0
 30
0.0
  9
$EXTMIN
 10
0.0
 20
0.0
 30
0.0
  9
$EXTMAX
 10
34.0
 20
22.0
 30
0.0
  9
$LIMMIN
 10
0.0
 20
0.0
  9
$LIMMAX
 10
34.0
 20
22.0
  9
$ORTHOMODE
 70
     0
  9
$REGENMODE
 70
     1
  9
$FILLMODE
 70
     1
  9
$QTEXTMODE
 70
     0
  9
$MIRRTEXT
 70
     1
  9
$LTSCALE
 40
1.0
  9
$ATTMODE
 70
     1
  9
$TEXTSIZE
 40
0.2777777778
  9
$TRACEWID
 40
0.05
  9
$TEXTSTYLE
  7
Standard
  9
$CLAYER
  8
0
  9
$CELTYPE
  6
ByLayer
  9
$CECOLOR
 62
   256
  9
$CELTSCALE
 40
1.0
  9
$DISPSILH
 70
     0
  9
$DIMSCALE
 40
1.0
  9
$DIMASZ
 40
0.262898763
  9
$DIMEXO
 40
0.05
  9
$DIMDLI
 40
0.38
  9
$DIMRND
 40
0.0
  9
$DIMDLE
 40
0.0
  9
$DIMEXE
 40
0.125
  9
$DIMTP
 40
0.0
  9
$DIMTM
 40
0.0
  9
$DIMTXT
 40
0.3611111111
  9
$DIMCEN
 40
0.09
  9
$DIMTSZ
 40
0.0
  9
$DIMTOL
 70
     0
  9
$DIMLIM
 70
     0
  9
$DIMTIH
 70
     1
  9
$DIMTOH
 70
     1
  9
$DIMSE1
 70
     0
  9
$DIMSE2
 70
     0
  9
$DIMTAD
 70
     0
  9
$DIMZIN
 70
     0
  9
$DIMBLK
  1

  9
$DIMASO
 70
     1
  9
$DIMSHO
 70
     1
  9
$DIMPOST
  1

  9
$DIMAPOST
  1

  9
$DIMALT
 70
     0
  9
$DIMALTD
 70
     2
  9
$DIMALTF
 40
25.4
  9
$DIMLFAC
 40
1.0
  9
$DIMTOFL
 70
     0
  9
$DIMTVP
 40
0.0
  9
$DIMTIX
 70
     0
  9
$DIMSOXD
 70
     0
  9
$DIMSAH
 70
     0
  9
$DIMBLK1
  1

  9
$DIMBLK2
  1

  9
$DIMSTYLE
  2
Standard
  9
$DIMCLRD
 70
     0
  9
$DIMCLRE
 70
     0
  9
$DIMCLRT
 70
     0
  9
$DIMTFAC
 40
1.0
  9
$DIMGAP
 40
0.06
  9
$DIMJUST
 70
     0
  9
$DIMSD1
 70
     0
  9
$DIMSD2
 70
     0
  9
$DIMTOLJ
 70
     1
  9
$DIMTZIN
 70
     0
  9
$DIMALTZ
 70
     0
  9
$DIMALTTZ
 70
     0
  9
$DIMUPT
 70
     0
  9
$DIMDEC
 70
     3
  9
$DIMTDEC
 70
     3
  9
$DIMALTU
 70
     2
  9
$DIMALTTD
 70
     2
  9
$DIMTXSTY
  7
Standard
  9
$DIMAUNIT
 70
     0
  9
$DIMADEC
 70
     1
  9
$DIMALTRND
 40
0.0
  9
$DIMAZIN
 70
     0
  9
$DIMDSEP
 70
    46
  9
$DIMATFIT
 70
     3
  9
$DIMFRAC
 70
     0
  9
$DIMLDRBLK
  1

  9
$DIMLUNIT
 70
     2
  9
$DIMLWD
 70
    -2
  9
$DIMLWE
 70
    -2
  9
$DIMTMOVE
 70
     0
  9
$DIMFXL
 40
1.0
  9
$DIMFXLON
 70
     0
  9
$DIMJOGANG
 40
0.7853981634
  9
$DIMTFILL
 70
     0
  9
$DIMTFILLCLR
 70
     0
  9
$DIMARCSYM
 70
     0
  9
$DIMLTYPE
  6

  9
$DIMLTEX1
  6

  9
$DIMLTEX2
  6

  9
$LUNITS
 70
     2
  9
$LUPREC
 70
     3
  9
$SKETCHINC
 40
0.1
  9
$FILLETRAD
 40
0.5
  9
$AUNITS
 70
     0
  9
$AUPREC
 70
     1
  9
$MENU
  1
.
  9
$ELEVATION
 40
0.0
  9
$PELEVATION
 40
0.0
  9
$THICKNESS
 40
0.0
  9
$LIMCHECK
 70
     0
  9
$CHAMFERA
 40
0.0
  9
$CHAMFERB
 40
0.0
  9
$CHAMFERC
 40
0.0
  9
$CHAMFERD
 40
0.0
  9
$SKPOLY
 70
     0
  9
$TDCREATE
 40
2458822.395343623
  9
$TDUCREATE
 40
2458822.645343623
  9
$TDUPDATE
 40
2458822.395344618
  9
$TDUUPDATE
 40
2458822.645344618
  9
$TDINDWG
 40
0.0000000116
  9
$TDUSRTIMER
 40
0.0000000116
  9
$USRTIMER
 70
     1
  9
$ANGBASE
 50
0.0
  9
$ANGDIR
 70
     0
  9
$PDMODE
 70
     0
  9
$PDSIZE
 40
-1.0
  9
$PLINEWID
 40
0.0
  9
$SPLFRAME
 70
     0
  9
$SPLINETYPE
 70
     6
  9
$SPLINESEGS
 70
     8
  9
$HANDSEED
  5
18A
  9
$SURFTAB1
 70
     6
  9
$SURFTAB2
 70
     6
  9
$SURFTYPE
 70
     6
  9
$SURFU
 70
     6
  9
$SURFV
 70
     6
  9
$UCSBASE
  2

  9
$UCSNAME
  2

  9
$UCSORG
 10
0.0
 20
0.0
 30
0.0
  9
$UCSXDIR
 10
1.0
 20
0.0
 30
0.0
  9
$UCSYDIR
 10
0.0
 20
1.0
 30
0.0
  9
$UCSORTHOREF
  2

  9
$UCSORTHOVIEW
 70
     0
  9
$UCSORGTOP
 10
0.0
 20
0.0
 30
0.0
  9
$UCSORGBOTTOM
 10
0.0
 20
0.0
 30
0.0
  9
$UCSORGLEFT
 10
0.0
 20
0.0
 30
0.0
  9
$UCSORGRIGHT
 10
0.0
 20
0.0
 30
0.0
  9
$UCSORGFRONT
 10
0.0
 20
0.0
 30
0.0
  9
$UCSORGBACK
 10
0.0
 20
0.0
 30
0.0
  9
$PUCSBASE
  2

  9
$PUCSNAME
  2

  9
$PUCSORG
 10
0.0
 20
0.0
 30
0.0
  9
$PUCSXDIR
 10
1.0
 20
0.0
 30
0.0
  9
$PUCSYDIR
 10
0.0
 20
1.0
 30
0.0
  9
$PUCSORTHOREF
  2

  9
$PUCSORTHOVIEW
 70
     0
  9
$PUCSORGTOP
 10
0.0
 20
0.0
 30
0.0
  9
$PUCSORGBOTTOM
 10
0.0
 20
0.0
 30
0.0
  9
$PUCSORGLEFT
 10
0.0
 20
0.0
 30
0.0
  9
$PUCSORGRIGHT
 10
0.0
 20
0.0
 30
0.0
  9
$PUCSORGFRONT
 10
0.0
 20
0.0
 30
0.0
  9
$PUCSORGBACK
 10
0.0
 20
0.0
 30
0.0
  9
$USERI1
 70
     0
  9
$USERI2
 70
     0
  9
$USERI3
 70
     0
  9
$USERI4
 70
     0
  9
$USERI5
 70
     0
  9
$USERR1
 40
0.0
  9
$USERR2
 40
0.0
  9
$USERR3
 40
0.0
  9
$USERR4
 40
0.0
  9
$USERR5
 40
0.0
  9
$WORLDVIEW
 70
     1
  9
$SHADEDGE
 70
     3
  9
$SHADEDIF
 70
    70
  9
$TILEMODE
 70
     1
  9
$MAXACTVP
 70
    64
  9
$PINSBASE
 10
0.0
 20
0.0
 30
0.0
  9
$PLIMCHECK
 70
     0
  9
$PEXTMIN
 10
1.0000000000E+20
 20
1.0000000000E+20
 30
1.0000000000E+20
  9
$PEXTMAX
 10
-1.0000000000E+20
 20
-1.0000000000E+20
 30
-1.0000000000E+20
  9
$PLIMMIN
 10
0.0
 20
0.0
  9
$PLIMMAX
 10
12.0
 20
9.0
  9
$UNITMODE
 70
     0
  9
$VISRETAIN
 70
     1
  9
$PLINEGEN
 70
     0
  9
$PSLTSCALE
 70
     1
  9
$TREEDEPTH
 70
  3020
  9
$CMLSTYLE
  2
Standard
  9
$CMLJUST
 70
     0
  9
$CMLSCALE
 40
1.0
  9
$PROXYGRAPHICS
 70
     1
  9
$MEASUREMENT
 70
     0
  9
$CELWEIGHT
370
    -1
  9
$ENDCAPS
280
     0
  9
$JOINSTYLE
280
     0
  9
$LWDISPLAY
290
     1
  9
$INSUNITS
 70
     1
  9
$HYPERLINKBASE
  1

  9
$STYLESHEET
  1

  9
$XEDIT
290
     1
  9
$CEPSNTYPE
380
     0
  9
$PSTYLEMODE
290
     1
  9
$FINGERPRINTGUID
  2
{112A3359-155F-4BD3-9429-D753E2D447ED}
  9
$VERSIONGUID
  2
{FAEB1C32-E019-11D5-929B-00C0DF256EC4}
  9
$EXTNAMES
290
     1
  9
$PSVPSCALE
 40
0.0
  9
$OLESTARTUP
290
     0
  9
$SORTENTS
280
   127
  9
$INDEXCTL
280
     0
  9
$HIDETEXT
280
     1
  9
$XCLIPFRAME
290
     0
  9
$HALOGAP
280
     0
  9
$OBSCOLOR
 70
   257
  9
$OBSLTYPE
280
     0
  9
$INTERSECTIONDISPLAY
280
     0
  9
$INTERSECTIONCOLOR
 70
   257
  9
$DIMASSOC
280
     2
  9
$PROJECTNAME
  1

  9
$CAMERADISPLAY
290
     0
  9
$LENSLENGTH
 40
50.0
  9
$CAMERAHEIGHT
 40
0.0
  9
$STEPSPERSEC
 40
2.0
  9
$STEPSIZE
 40
6.0
  9
$3DDWFPREC
 40
2.0
  9
$PSOLWIDTH
 40
0.25
  9
$PSOLHEIGHT
 40
4.0
  9
$LOFTANG1
 40
1.5707963268
  9
$LOFTANG2
 40
1.5707963268
  9
$LOFTMAG1
 40
0.0
  9
$LOFTMAG2
 40
0.0
  9
$LOFTPARAM
 70
     7
  9
$LOFTNORMALS
280
     1
  9
$LATITUDE
 40
37.795
  9
$LONGITUDE
 40
-122.394
  9
$NORTHDIRECTION
 40
0.0
  9
$TIMEZONE
 70
 -8000
  9
$LIGHTGLYPHDISPLAY
280
     1
  9
$TILEMODELIGHTSYNCH
280
     1
  9
$CMATERIAL
347
44
  9
$SOLIDHIST
280
     0
  9
$SHOWHIST
280
     1
  9
$DWFFRAME
280
     2
  9
$DGNFRAME
280
     2
  9
$REALWORLDSCALE
290
     1
  9
$INTERFERECOLOR
 62
   256
  9
$CSHADOW
280
     0
  9
$SHADOWPLANELOCATION
 40
0.0
  0
ENDSEC
  0
SECTION
  2
CLASSES
  0
CLASS
  1
ACDBDICTIONARYWDFLT
  2
AcDbDictionaryWithDefault
  3
ObjectDBX Classes
 90
        0
 91
        4
280
     0
281
     0
  0
CLASS
  1
VISUALSTYLE
  2
AcDbVisualStyle
  3
ObjectDBX Classes
 90
     4095
 91
        4
280
     0
281
     0
  0
CLASS
  1
MATERIAL
  2
AcDbMaterial
  3
ObjectDBX Classes
 90
     1153
 91
        4
280
     0
281
     0
  0
CLASS
  1
SCALE
  2
AcDbScale
  3
ObjectDBX Classes
 90
     1153
 91
        4
280
     0
281
     0
  0
CLASS
  1
TABLESTYLE
  2
AcDbTableStyle
  3
ObjectDBX Classes
 90
     4095
 91
        4
280
     0
281
     0
  0
CLASS
  1
MLEADERSTYLE
  2
AcDbMLeaderStyle
  3
ACDB_MLEADERSTYLE_CLASS
 90
     4095
 91
        4
280
     0
281
     0
  0
CLASS
  1
SUN
  2
AcDbSun
  3
SCENEOE
 90
     1153
 91
        4
280
     0
281
     0
  0
CLASS
  1
DICTIONARYVAR
  2
AcDbDictionaryVar
  3
ObjectDBX Classes
 90
        0
 91
        4
280
     0
281
     0
  0
CLASS
  1
CELLSTYLEMAP
  2
AcDbCellStyleMap
  3
ObjectDBX Classes
 90
     1152
 91
        4
280
     0
281
     0
  0
ENDSEC
  0
SECTION
  2
TABLES
  0
TABLE
  2
VPORT
  5
8
330
0
100
AcDbSymbolTable
 70
     1
  0
VPORT
  5
29
330
8
100
AcDbSymbolTableRecord
100
AcDbViewportTableRecord
  2
*Active
 70
     0
 10
0.0
 20
0.0
 11
1.0
 21
1.0
 12
17.0
 22
11.0
 13
0.0
 23
0.0
 14
0.5
 24
0.5
 15
0.5
 25
0.5
 16
0.0
 26
0.0
 36
1.0
 17
0.0
 27
0.0
 37
0.0
 40
22.0
 41
1.5454545455
 42
50.0
 43
0.0
 44
0.0
 50
0.0
 51
0.0
 71
     0
 72
  2000
 73
     1
 74
     3
 75
     0
 76
     0
 77
     0
 78
     0
281
     0
 65
     1
110
0.0
120
0.0
130
0.0
111
1.0
121
0.0
131
0.0
112
0.0
122
1.0
132
0.0
 79
     0
146
0.0
348
2F
 60
     3
 61
     5
292
     1
282
     1
141
0.0
142
0.0
 63
   250
361
6D
  0
ENDTAB
  0
TABLE
  2
LTYPE
  5
5
330
0
100
AcDbSymbolTable
 70
     6
  0
LTYPE
  5
14
330
5
100
AcDbSymbolTableRecord
100
AcDbLinetypeTableRecord
  2
ByBlock
 70
     0
  3

 72
    65
 73
     0
 40
0.0
  0
LTYPE
  5
15
330
5
100
AcDbSymbolTableRecord
100
AcDbLinetypeTableRecord
  2
ByLayer
 70
     0
  3

 72
    65
 73
     0
 40
0.0
  0
LTYPE
  5
16
330
5
100
AcDbSymbolTableRecord
100
AcDbLinetypeTableRecord
  2
Continuous
 70
     0
  3
Solid line
 72
    65
 73
     0
 40
0.0
  0
LTYPE
  5
6E
330
5
100
AcDbSymbolTableRecord
100
AcDbLinetypeTableRecord
  2
HIDDEN
 70
     0
  3
Hidden __ __ __ __ __ __ __ __ __ __ __ __ __ __
 72
    65
 73
     2
 40
0.075
 49
0.05
 74
     0
 49
-0.025
 74
     0
  0
LTYPE
  5
6F
330
5
100
AcDbSymbolTableRecord
100
AcDbLinetypeTableRecord
  2
PHANTOM
 70
     0
  3
Phantom ______  __  __  ______  __  __  ______
 72
    65
 73
     6
 40
0.5
 49
0.25
 74
     0
 49
-0.05
 74
     0
 49
0.05
 74
     0
 49
-0.05
 74
     0
 49
0.05
 74
     0
 49
-0.05
 74
     0
  0
LTYPE
  5
70
330
5
100
AcDbSymbolTableRecord
100
AcDbLinetypeTableRecord
  2
CENTER
 70
     0
  3
Center ____ _ ____ _ ____ _ ____ _ ____ _ ____
 72
    65
 73
     4
 40
0.4
 49
0.25
 74
     0
 49
-0.05
 74
     0
 49
0.05
 74
     0
 49
-0.05
 74
     0
  0
LTYPE
  5
71
330
5
100
AcDbSymbolTableRecord
100
AcDbLinetypeTableRecord
  2
CENTERX2
 70
     0
  3
Center (2x) ________  __  ________  __  _____
 72
    65
 73
     4
 40
0.8
 49
0.5
 74
     0
 49
-0.1
 74
     0
 49
0.1
 74
     0
 49
-0.1
 74
     0
  0
LTYPE
  5
72
330
5
100
AcDbSymbolTableRecord
100
AcDbLinetypeTableRecord
  2
DOT2
 70
     0
  3
Dot (.5x) ........................................
 72
    65
 73
     2
 40
0.025
 49
0.0
 74
     0
 49
-0.025
 74
     0
  0
ENDTAB
  0
TABLE
  2
LAYER
  5
2
330
0
100
AcDbSymbolTable
 70
     8
  0
LAYER
  5
10
330
2
100
AcDbSymbolTableRecord
100
AcDbLayerTableRecord
  2
0
 70
     0
 62
     7
  6
Continuous
370
    -3
390
F
347
46
  0
LAYER
  5
73
330
2
100
AcDbSymbolTableRecord
100
AcDbLayerTableRecord
  2
SLD-0
 70
     0
 62
   179
  6
Continuous
370
    -3
390
F
347
46
  0
LAYER
  5
74
330
2
100
AcDbSymbolTableRecord
100
AcDbLayerTableRecord
  2
OBJECTS
 70
     0
 62
     5
  6
Continuous
370
    -3
390
F
347
46
  0
LAYER
  5
75
330
2
100
AcDbSymbolTableRecord
100
AcDbLayerTableRecord
  2
DIMS
 70
     0
 62
     1
  6
Continuous
370
    -3
390
F
347
46
  0
LAYER
  5
76
330
2
100
AcDbSymbolTableRecord
100
AcDbLayerTableRecord
  2
NOTES
 70
     0
 62
     7
  6
Continuous
370
    -3
390
F
347
46
  0
LAYER
  5
77
330
2
100
AcDbSymbolTableRecord
100
AcDbLayerTableRecord
  2
IMAGES
 70
     0
 62
     7
  6
Continuous
370
    -3
390
F
347
46
  0
LAYER
  5
78
330
2
100
AcDbSymbolTableRecord
100
AcDbLayerTableRecord
  2
CENTERLINES
 70
     0
 62
     7
  6
HIDDEN
370
    -3
390
F
347
46
  0
LAYER
  5
79
330
2
100
AcDbSymbolTableRecord
100
AcDbLayerTableRecord
  2
BLOCKS
 70
     0
 62
    17
  6
Continuous
370
    -3
390
F
347
46
  0
ENDTAB
  0
TABLE
  2
STYLE
  5
3
330
0
100
AcDbSymbolTable
 70
     2
  0
STYLE
  5
11
330
3
100
AcDbSymbolTableRecord
100
AcDbTextStyleTableRecord
  2
Standard
 70
     0
 40
0.0
 41
1.0
 50
0.0
 71
     0
 42
0.2777777778
  3
txt
  4

  0
STYLE
  5
BC
330
3
100
AcDbSymbolTableRecord
100
AcDbTextStyleTableRecord
  2
SLDTEXTSTYLE0
 70
     0
 40
0.0
 41
0.605
 50
0.0
 71
     0
 42
0.2777777778
  3
TXT
  4

  0
ENDTAB
  0
TABLE
  2
VIEW
  5
6
330
0
100
AcDbSymbolTable
 70
     0
  0
ENDTAB
  0
TABLE
  2
UCS
  5
7
330
0
100
AcDbSymbolTable
 70
     0
  0
ENDTAB
  0
TABLE
  2
APPID
  5
9
330
0
100
AcDbSymbolTable
 70
     2
  0
APPID
  5
12
330
9
100
AcDbSymbolTableRecord
100
AcDbRegAppTableRecord
  2
ACAD
 70
     0
  0
APPID
  5
184
330
9
100
AcDbSymbolTableRecord
100
AcDbRegAppTableRecord
  2
ACAD_MLEADERVER
 70
     0
  0
ENDTAB
  0
TABLE
  2
DIMSTYLE
  5
A
330
0
100
AcDbSymbolTable
 70
     5
100
AcDbDimStyleTable
  0
DIMSTYLE
105
27
330
A
100
AcDbSymbolTableRecord
100
AcDbDimStyleTableRecord
  2
Standard
 70
     0
178
     0
340
11
  0
DIMSTYLE
105
DA
102
{ACAD_REACTORS
330
D9
102
}
330
A
100
AcDbSymbolTableRecord
100
AcDbDimStyleTableRecord
  2
SLDDIMSTYLE0
 70
     0
 41
0.262898763
 44
0.0
 45
0.000000001
 78
    12
 79
     3
140
0.262898763
141
0.0
147
0.0657246908
148
0.000000001
170
     1
173
     1
178
     0
271
     3
272
     3
276
     2
277
     5
279
     1
284
    12
340
BC
  0
DIMSTYLE
105
EE
102
{ACAD_REACTORS
330
ED
330
FF
102
}
330
A
100
AcDbSymbolTableRecord
100
AcDbDimStyleTableRecord
  2
SLDDIMSTYLE1
 70
     0
 41
0.262898763
 44
0.0
 45
0.000000001
 78
    12
 79
     3
140
0.262898763
147
0.0657246908
148
0.000000001
170
     1
173
     1
178
     0
271
     3
272
     3
276
     2
277
     5
284
    12
340
BC
  0
DIMSTYLE
105
111
102
{ACAD_REACTORS
330
110
330
126
102
}
330
A
100
AcDbSymbolTableRecord
100
AcDbDimStyleTableRecord
  2
SLDDIMSTYLE2
 70
     0
 41
0.262898763
 44
0.0
 45
0.000000001
 78
    12
 79
     3
140
0.262898763
147
0.0657246908
148
0.000000001
170
     1
173
     1
178
     0
271
     6
272
     3
276
     2
277
     5
284
    12
340
BC
  0
DIMSTYLE
105
151
330
A
100
AcDbSymbolTableRecord
100
AcDbDimStyleTableRecord
  2
SLDDIMSTYLE3
 70
     0
 41
0.262898763
 44
0.0
 45
0.000000001
146
0.262898763
147
0.0
173
     1
178
     0
271
     0
272
     0
276
     2
277
     5
340
11
  0
ENDTAB
  0
TABLE
  2
BLOCK_RECORD
  5
1
330
0
100
AcDbSymbolTable
 70
    15
  0
BLOCK_RECORD
  5
1F
330
1
100
AcDbSymbolTableRecord
100
AcDbBlockTableRecord
  2
*Model_Space
340
22
 70
     0
280
     1
281
     0
  0
BLOCK_RECORD
  5
1B
330
1
100
AcDbSymbolTableRecord
100
AcDbBlockTableRecord
  2
*Paper_Space
340
1E
 70
     0
280
     1
281
     0
  0
BLOCK_RECORD
  5
23
330
1
100
AcDbSymbolTableRecord
100
AcDbBlockTableRecord
  2
*Paper_Space0
340
26
 70
     0
280
     1
281
     0
  0
BLOCK_RECORD
  5
7A
330
1
100
AcDbSymbolTableRecord
100
AcDbBlockTableRecord
  2
REVEAL - .125
340
0
102
{BLKREFS
331
D8
102
}
 70
     0
280
     1
281
     0
  0
BLOCK_RECORD
  5
AC
330
1
100
AcDbSymbolTableRecord
100
AcDbBlockTableRecord
  2
SW_BLOCK_DIMENSION_0
340
0
102
{BLKREFS
331
C3
102
}
 70
     0
280
     1
281
     0
  0
BLOCK_RECORD
  5
DB
330
1
100
AcDbSymbolTableRecord
100
AcDbBlockTableRecord
  2
_D
340
0
 70
     0
280
     1
281
     0
  0
BLOCK_RECORD
  5
EF
330
1
100
AcDbSymbolTableRecord
100
AcDbBlockTableRecord
  2
_D_1
340
0
 70
     0
280
     1
281
     0
  0
BLOCK_RECORD
  5
100
330
1
100
AcDbSymbolTableRecord
100
AcDbBlockTableRecord
  2
_D_2
340
0
 70
     0
280
     1
281
     0
  0
BLOCK_RECORD
  5
112
330
1
100
AcDbSymbolTableRecord
100
AcDbBlockTableRecord
  2
_D_3
340
0
 70
     0
280
     1
281
     0
  0
BLOCK_RECORD
  5
127
330
1
100
AcDbSymbolTableRecord
100
AcDbBlockTableRecord
  2
_D_4
340
0
 70
     0
280
     1
281
     0
  0
BLOCK_RECORD
  5
13B
330
1
100
AcDbSymbolTableRecord
100
AcDbBlockTableRecord
  2
SW_NOTE_0
340
0
102
{BLKREFS
331
148
102
}
 70
     0
280
     1
281
     0
  0
BLOCK_RECORD
  5
149
330
1
100
AcDbSymbolTableRecord
100
AcDbBlockTableRecord
  2
SW_NOTE_1
340
0
102
{BLKREFS
331
150
102
}
 70
     0
280
     1
281
     0
  0
BLOCK_RECORD
  5
154
330
1
100
AcDbSymbolTableRecord
100
AcDbBlockTableRecord
  2
SW_NOTE_2
340
0
102
{BLKREFS
331
159
102
}
 70
     0
280
     1
281
     0
  0
BLOCK_RECORD
  5
15B
330
1
100
AcDbSymbolTableRecord
100
AcDbBlockTableRecord
  2
SW_NOTE_3
340
0
102
{BLKREFS
331
164
102
}
 70
     0
280
     1
281
     0
  0
BLOCK_RECORD
  5
166
330
1
100
AcDbSymbolTableRecord
100
AcDbBlockTableRecord
  2
SW_NOTE_4
340
0
102
{BLKREFS
331
16F
102
}
 70
     0
280
     1
281
     0
  0
BLOCK_RECORD
  5
171
330
1
100
AcDbSymbolTableRecord
100
AcDbBlockTableRecord
  2
SW_NOTE_5
340
0
102
{BLKREFS
331
177
102
}
 70
     0
280
     1
281
     0
  0
BLOCK_RECORD
  5
178
330
1
100
AcDbSymbolTableRecord
100
AcDbBlockTableRecord
  2
SW_NOTE_6
340
0
102
{BLKREFS
331
17D
102
}
 70
     0
280
     1
281
     0
  0
ENDTAB
  0
ENDSEC
  0
SECTION
  2
BLOCKS
  0
BLOCK
  5
20
330
1F
100
AcDbEntity
  8
0
100
AcDbBlockBegin
  2
*Model_Space
 70
     0
 10
0.0
 20
0.0
 30
0.0
  3
*Model_Space
  1

  0
ENDBLK
  5
21
330
1F
100
AcDbEntity
  8
0
100
AcDbBlockEnd
  0
BLOCK
  5
1C
330
1B
100
AcDbEntity
 67
     1
  8
0
100
AcDbBlockBegin
  2
*Paper_Space
 70
     0
 10
0.0
 20
0.0
 30
0.0
  3
*Paper_Space
  1

  0
ENDBLK
  5
1D
330
1B
100
AcDbEntity
 67
     1
  8
0
100
AcDbBlockEnd
  0
BLOCK
  5
24
330
23
100
AcDbEntity
  8
0
100
AcDbBlockBegin
  2
*Paper_Space0
 70
     0
 10
0.0
 20
0.0
 30
0.0
  3
*Paper_Space0
  1

  0
ENDBLK
  5
25
330
23
100
AcDbEntity
  8
0
100
AcDbBlockEnd
  0
BLOCK
  5
7B
330
7A
100
AcDbEntity
  8
0
100
AcDbBlockBegin
  2
REVEAL - .125
 70
     0
 10
0.0
 20
0.0
 30
0.0
  3
REVEAL - .125
  1

  0
ARC
  5
7D
330
7A
100
AcDbEntity
  8
BLOCKS
100
AcDbCircle
 10
-1.4047720451
 20
-12.8442954347
 30
0.0
 40
0.2333367804802293
100
AcDbArc
 50
0.0
 51
90.0
  0
ARC
  5
7E
330
7A
100
AcDbEntity
  8
BLOCKS
100
AcDbCircle
 10
-1.4394760169
 20
-12.1962194696
 30
0.0
 40
0.0041583245038854
100
AcDbArc
 50
0.0
 51
90.0
  0
ARC
  5
7F
330
7A
100
AcDbEntity
  8
BLOCKS
100
AcDbCircle
 10
-2.2191634439
 20
-12.7398388164
 30
0.0
 40
0.0881257319589163
100
AcDbArc
 50
200.9822712638
 51
339.0177287362
  0
ARC
  5
80
330
7A
100
AcDbEntity
  8
BLOCKS
100
AcDbCircle
 10
-1.4047720451
 20
-12.8442954347
 30
0.0
 40
0.1874525384626438
100
AcDbArc
 50
0.0
 51
90.0
  0
LINE
  5
81
330
7A
100
AcDbEntity
  8
BLOCKS
100
AcDbLine
 10
-1.4394760169
 20
-12.1920611451
 30
0.0
 11
-3.01526606
 21
-12.1920611451
 31
0.0
  0
LINE
  5
82
330
7A
100
AcDbEntity
  8
BLOCKS
100
AcDbLine
 10
-2.9855824064
 20
-12.587244826
 30
0.0
 11
-1.4353176924
 21
-12.5884178222
 31
0.0
  0
LINE
  5
83
330
7A
100
AcDbEntity
  8
BLOCKS
100
AcDbLine
 10
-1.9656725284
 20
-12.6109586542
 30
0.0
 11
-1.4047720451
 21
-12.6109586542
 31
0.0
  0
LINE
  5
84
330
7A
100
AcDbEntity
  8
BLOCKS
100
AcDbLine
 10
-1.1714352646
 20
-12.8442954347
 30
0.0
 11
-1.1714352646
 21
-13.2310110215
 31
0.0
  0
LINE
  5
85
330
7A
100
AcDbEntity
  8
BLOCKS
100
AcDbLine
 10
-1.1714352646
 20
-13.2310110215
 30
0.0
 11
-1.2173195066
 21
-13.2310110215
 31
0.0
  0
LINE
  5
86
330
7A
100
AcDbEntity
  8
BLOCKS
100
AcDbLine
 10
-1.2173195066
 20
-13.2310110215
 30
0.0
 11
-1.2173195066
 21
-12.8442954347
 31
0.0
  0
LINE
  5
87
330
7A
100
AcDbEntity
  8
BLOCKS
100
AcDbLine
 10
-1.4047720451
 20
-12.6568428962
 30
0.0
 11
-1.9656725284
 21
-12.6568428962
 31
0.0
  0
LINE
  5
88
330
7A
100
AcDbEntity
  8
BLOCKS
100
AcDbLine
 10
-1.9656725284
 20
-12.6568428962
 30
0.0
 11
-1.9656725284
 21
-12.6109586542
 31
0.0
  0
LINE
  5
89
330
7A
100
AcDbEntity
  8
BLOCKS
100
AcDbLine
 10
-1.5885264144
 20
-12.7093957625
 30
0.0
 11
-1.5358283025
 21
-12.6587686221
 31
0.0
  0
LINE
  5
8A
330
7A
100
AcDbEntity
  8
BLOCKS
100
AcDbLine
 10
-1.5358283025
 20
-12.6587686221
 30
0.0
 11
-1.4932052497
 21
-12.7031352284
 31
0.0
  0
LINE
  5
8B
330
7A
100
AcDbEntity
  8
BLOCKS
100
AcDbLine
 10
-1.4932052497
 20
-12.7031352284
 30
0.0
 11
-1.562140852
 21
-12.7693617458
 31
0.0
  0
LINE
  5
8C
330
7A
100
AcDbEntity
  8
BLOCKS
100
AcDbLine
 10
-2.8296332645
 20
-12.6419825586
 30
0.0
 11
-2.8821446813
 21
-12.5873230914
 31
0.0
  0
LINE
  5
8D
330
7A
100
AcDbEntity
  8
BLOCKS
100
AcDbLine
 10
-2.8821446813
 20
-12.5873230914
 30
0.0
 11
-2.9245601437
 21
-12.6280716779
 31
0.0
  0
LINE
  5
8E
330
7A
100
AcDbEntity
  8
BLOCKS
100
AcDbLine
 10
-2.9245601437
 20
-12.6280716779
 30
0.0
 11
-2.8624774729
 21
-12.692693924
 31
0.0
  0
LINE
  5
8F
330
7A
100
AcDbEntity
  8
BLOCKS
100
AcDbLine
 10
-2.8296332645
 20
-12.6419825586
 30
0.0
 11
-1.5885264144
 21
-12.7093957625
 31
0.0
  0
LINE
  5
90
330
7A
100
AcDbEntity
  8
BLOCKS
100
AcDbLine
 10
-1.562140852
 20
-12.7693617458
 30
0.0
 11
-2.8624774729
 21
-12.692693924
 31
0.0
  0
LINE
  5
91
330
7A
100
AcDbEntity
  8
BLOCKS
100
AcDbLine
 10
-2.1393972724
 20
-12.6794741087
 30
0.0
 11
-2.1393972724
 21
-12.7353267185
 31
0.0
  0
LINE
  5
92
330
7A
100
AcDbEntity
  8
BLOCKS
100
AcDbLine
 10
-2.2940106407
 20
-12.671075974
 30
0.0
 11
-2.2940106407
 21
-12.7262107174
 31
0.0
  0
LINE
  5
93
330
7A
100
AcDbEntity
  8
BLOCKS
100
AcDbLine
 10
-2.3014456705
 20
-12.7713947956
 30
0.0
 11
-2.1368812173
 21
-12.7713947956
 31
0.0
  0
LINE
  5
94
330
7A
100
AcDbEntity
  8
BLOCKS
100
AcDbLine
 10
-2.2566740506
 20
-12.381095059
 30
0.0
 11
-2.2566740506
 21
-12.7713947956
 31
0.0
  0
LINE
  5
95
330
7A
100
AcDbEntity
  8
BLOCKS
100
AcDbLine
 10
-2.1797821788
 20
-12.381095059
 30
0.0
 11
-2.1797821788
 21
-12.7713947956
 31
0.0
  0
LINE
  5
96
330
7A
100
AcDbEntity
  8
BLOCKS
100
AcDbLine
 10
-2.3194491289
 20
-12.7273697282
 30
0.0
 11
-2.1070425499
 21
-12.739893216
 31
0.0
  0
LINE
  5
97
330
7A
100
AcDbEntity
  8
BLOCKS
100
AcDbLine
 10
-2.2566740506
 20
-12.381095059
 30
0.0
 11
-2.2187090708
 21
-12.325905678
 31
0.0
  0
LINE
  5
98
330
7A
100
AcDbEntity
  8
BLOCKS
100
AcDbLine
 10
-2.2187090708
 20
-12.325905678
 30
0.0
 11
-2.1797821788
 21
-12.381095059
 31
0.0
  0
LINE
  5
99
330
7A
100
AcDbEntity
  8
BLOCKS
100
AcDbLine
 10
-2.108936665
 20
-12.7720186533
 30
0.0
 11
-2.3213432441
 21
-12.7594951655
 31
0.0
  0
LINE
  5
9A
330
7A
100
AcDbEntity
  8
BLOCKS
100
AcDbLine
 10
-2.1070425499
 20
-12.739893216
 30
0.0
 11
-2.108936665
 21
-12.7720186533
 31
0.0
  0
LINE
  5
9B
330
7A
100
AcDbEntity
  8
BLOCKS
100
AcDbLine
 10
-2.3194491289
 20
-12.7273697282
 30
0.0
 11
-2.3213432441
 21
-12.7594951655
 31
0.0
  0
LINE
  5
9C
330
7A
100
AcDbEntity
  8
BLOCKS
100
AcDbLine
 10
-2.1534117467
 20
-12.5878744817
 30
0.0
 11
-2.1534117467
 21
-12.3074165013
 31
0.0
  0
LINE
  5
9D
330
7A
100
AcDbEntity
  8
BLOCKS
100
AcDbLine
 10
-2.1534117467
 20
-12.3074165013
 30
0.0
 11
-2.2799487024
 21
-12.3074165013
 31
0.0
  0
LINE
  5
9E
330
7A
100
AcDbEntity
  8
BLOCKS
100
AcDbLine
 10
-2.2799487024
 20
-12.3074165013
 30
0.0
 11
-2.2799487024
 21
-12.5877787385
 31
0.0
  0
LINE
  5
9F
330
7A
100
AcDbEntity
  8
BLOCKS
  6
Continuous
100
AcDbLine
 10
-1.4353176924
 20
-12.5884178222
 30
0.0
 11
-1.4353176924
 21
-12.1962194696
 31
0.0
  0
LINE
  5
A0
330
7A
100
AcDbEntity
  8
BLOCKS
100
AcDbLine
 10
-1.9656725284
 20
-12.5880165332
 30
0.0
 11
-1.9656725284
 21
-12.6339007752
 31
0.0
  0
LINE
  5
A1
330
7A
100
AcDbEntity
  8
BLOCKS
100
AcDbLine
 10
-1.4353176924
 20
-12.5884178222
 30
0.0
 11
-1.4200334992
 21
-12.6109586542
 31
0.0
  0
SPLINE
  5
A2
330
7A
100
AcDbEntity
  8
BLOCKS
100
AcDbSpline
210
0.0
220
0.0
230
1.0
 70
     8
 71
     3
 72
     9
 73
     5
 74
     0
 42
0.000000001
 43
0.00000001
 40
0.0
 40
0.0
 40
0.0
 40
0.0
 40
0.5928291688347104
 40
1.0
 40
1.0
 40
1.0
 40
1.0
 10
-2.985582406350157
 20
-12.58724482604875
 30
0.0
 10
-3.030158058563442
 20
-12.50141038487578
 30
0.0
 10
-2.950675096239938
 20
-12.38218687093916
 30
0.0
 10
-2.968787917689462
 20
-12.22793862570682
 30
0.0
 10
-3.015266060000032
 20
-12.19206114512515
 30
0.0
  0
HATCH
  5
A3
330
7A
100
AcDbEntity
  8
BLOCKS
 62
    16
100
AcDbHatch
 10
0.0
 20
0.0
 30
0.0
210
0.0
220
0.0
230
1.0
  2
ANSI36
 70
     0
 71
     0
 91
        1
 92
        0
 93
       10
 72
     4
 94
        3
 73
     1
 74
     0
 95
        9
 96
        5
 40
0.0
 40
0.0
 40
0.0
 40
0.0
 40
0.4071708311652896
 40
1.0
 40
1.0
 40
1.0
 40
1.0
 10
-3.015266060000032
 20
-12.19206114512515
 42
1.0
 10
-2.968787917689462
 20
-12.22793862570682
 42
1.0
 10
-2.950675096239938
 20
-12.38218687093916
 42
1.0
 10
-3.030158058563441
 20
-12.50141038487578
 42
1.0
 10
-2.985582406350157
 20
-12.58724482604875
 42
1.0
 72
     1
 10
-2.985582406350157
 20
-12.58724482604875
 11
-2.279948702443812
 21
-12.58777873850265
 72
     1
 10
-2.279948702443812
 20
-12.58777873850265
 11
-2.279948702443812
 21
-12.30741650130867
 72
     1
 10
-2.279948702443812
 20
-12.30741650130867
 11
-2.153411746731021
 21
-12.30741650130867
 72
     1
 10
-2.153411746731021
 20
-12.30741650130867
 11
-2.153411746731021
 21
-12.5878744817419
 72
     1
 10
-2.153411746731021
 20
-12.5878744817419
 11
-1.965672528406843
 21
-12.58801653321449
 72
     1
 10
-1.965672528406843
 20
-12.58801653321449
 11
-1.435317692358862
 21
-12.5884178222266
 72
     1
 10
-1.435317692358862
 20
-12.5884178222266
 11
-1.435317692358862
 21
-12.19621946962904
 72
     2
 10
-1.439476016862747
 20
-12.19621946962904
 40
0.0041583245038848
 50
0.0
 51
90.0
 73
     1
 72
     1
 10
-1.439476016862747
 20
-12.19206114512515
 11
-3.015266060000032
 21
-12.19206114512515
 97
        0
 75
     0
 76
     1
 52
0.0
 41
0.5
 77
     0
 78
     1
 53
45.0
 43
0.0
 44
0.0
 45
0.0331456303681194
 46
0.1215339780164378
 79
     4
 49
0.15625
 49
-0.03125
 49
0.0
 49
-0.03125
 98
        1
 10
0.0
 20
0.0
  0
HATCH
  5
A4
330
7A
100
AcDbEntity
  8
BLOCKS
 62
    16
100
AcDbHatch
 10
0.0
 20
0.0
 30
0.0
210
0.0
220
0.0
230
1.0
  2
ANSI32
 70
     0
 71
     0
 91
        1
 92
        0
 93
        5
 72
     1
 10
-2.179782178789117
 20
-12.38109505902804
 11
-2.218709070778683
 21
-12.32590567801565
 72
     1
 10
-2.218709070778683
 20
-12.32590567801565
 11
-2.256674050591661
 21
-12.38109505902804
 72
     1
 10
-2.256674050591661
 20
-12.38109505902804
 11
-2.256674050591661
 21
-12.58779634909355
 72
     1
 10
-2.256674050591661
 20
-12.58779634909355
 11
-2.179782178789117
 21
-12.58785452875211
 72
     1
 10
-2.179782178789117
 20
-12.58785452875211
 11
-2.179782178789117
 21
-12.38109505902804
 97
        0
 75
     0
 76
     1
 52
0.0
 41
0.1666666667
 77
     0
 78
     2
 53
45.0
 43
0.0
 44
0.0
 45
-0.0441941738241592
 46
0.0441941738241592
 79
     0
 53
45.0
 43
0.0294627825
 44
0.0
 45
-0.0441941738241592
 46
0.0441941738241592
 79
     0
 98
        1
 10
0.0
 20
0.0
  0
HATCH
  5
A5
330
7A
100
AcDbEntity
  8
BLOCKS
 62
    16
100
AcDbHatch
 10
0.0
 20
0.0
 30
0.0
210
0.0
220
0.0
230
1.0
  2
ANSI32
 70
     0
 71
     0
 91
        1
 92
        0
 93
        4
 72
     1
 10
-2.179782178789117
 20
-12.67728052166976
 11
-2.179782178789117
 21
-12.58785452875211
 72
     1
 10
-2.179782178789117
 20
-12.58785452875211
 11
-2.256674050591661
 21
-12.58779634909355
 72
     1
 10
-2.256674050591661
 20
-12.58779634909355
 11
-2.256674050591661
 21
-12.67310398567544
 72
     1
 10
-2.256674050591661
 20
-12.67310398567544
 11
-2.179782178789117
 21
-12.67728052166976
 97
        0
 75
     0
 76
     1
 52
0.0
 41
0.1666666667
 77
     0
 78
     2
 53
45.0
 43
0.0
 44
0.0
 45
-0.0441941738241592
 46
0.0441941738241592
 79
     0
 53
45.0
 43
0.0294627825
 44
0.0
 45
-0.0441941738241592
 46
0.0441941738241592
 79
     0
 98
        1
 10
0.0
 20
0.0
  0
HATCH
  5
A6
330
7A
100
AcDbEntity
  8
BLOCKS
 62
    16
100
AcDbHatch
 10
0.0
 20
0.0
 30
0.0
210
0.0
220
0.0
230
1.0
  2
ANSI32
 70
     0
 71
     0
 91
        1
 92
        0
 93
        4
 72
     1
 10
-2.179782178789117
 20
-12.73294562524584
 11
-2.179782178789117
 21
-12.67728052166976
 72
     1
 10
-2.179782178789117
 20
-12.67728052166976
 11
-2.256674050591661
 21
-12.67310398567544
 72
     1
 10
-2.256674050591661
 20
-12.67310398567544
 11
-2.256674050591661
 21
-12.72841208198663
 72
     1
 10
-2.256674050591661
 20
-12.72841208198663
 11
-2.179782178789117
 21
-12.73294562524584
 97
        0
 75
     0
 76
     1
 52
0.0
 41
0.1666666667
 77
     0
 78
     2
 53
45.0
 43
0.0
 44
0.0
 45
-0.0441941738241592
 46
0.0441941738241592
 79
     0
 53
45.0
 43
0.0294627825
 44
0.0
 45
-0.0441941738241592
 46
0.0441941738241592
 79
     0
 98
        1
 10
0.0
 20
0.0
  0
HATCH
  5
A7
330
7A
100
AcDbEntity
  8
BLOCKS
 62
    16
100
AcDbHatch
 10
0.0
 20
0.0
 30
0.0
210
0.0
220
0.0
230
1.0
  2
ANSI32
 70
     0
 71
     0
 91
        1
 92
        0
 93
        4
 72
     1
 10
-2.256674050591661
 20
-12.76330805989465
 11
-2.179782178789118
 21
-12.76784160315386
 72
     1
 10
-2.179782178789118
 20
-12.76784160315386
 11
-2.179782178789118
 21
-12.73560448884958
 72
     1
 10
-2.179782178789118
 20
-12.73560448884958
 11
-2.256674050591661
 21
-12.73107094559037
 72
     1
 10
-2.256674050591661
 20
-12.73107094559037
 11
-2.256674050591661
 21
-12.76330805989465
 97
        0
 75
     0
 76
     1
 52
0.0
 41
0.1666666667
 77
     0
 78
     2
 53
45.0
 43
0.0
 44
0.0
 45
-0.0441941738241592
 46
0.0441941738241592
 79
     0
 53
45.0
 43
0.0294627825
 44
0.0
 45
-0.0441941738241592
 46
0.0441941738241592
 79
     0
 98
        1
 10
0.0
 20
0.0
  0
HATCH
  5
A8
330
7A
100
AcDbEntity
  8
BLOCKS
 62
    16
100
AcDbHatch
 10
0.0
 20
0.0
 30
0.0
210
0.0
220
0.0
230
1.0
  2
ANSI32
 70
     0
 71
     0
 91
        1
 92
        0
 93
        4
 72
     1
 10
-2.256674050591661
 20
-12.73107094559037
 11
-2.319449128927512
 21
-12.72736972819816
 72
     1
 10
-2.319449128927512
 20
-12.72736972819816
 11
-2.321343244083758
 21
-12.75949516550983
 72
     1
 10
-2.321343244083758
 20
-12.75949516550983
 11
-2.256674050591661
 21
-12.76330805989465
 72
     1
 10
-2.256674050591661
 20
-12.76330805989465
 11
-2.256674050591661
 21
-12.73107094559037
 97
        0
 75
     0
 76
     1
 52
0.0
 41
0.1666666667
 77
     0
 78
     2
 53
45.0
 43
0.0
 44
0.0
 45
-0.0441941738241592
 46
0.0441941738241592
 79
     0
 53
45.0
 43
0.0294627825
 44
0.0
 45
-0.0441941738241592
 46
0.0441941738241592
 79
     0
 98
        1
 10
0.0
 20
0.0
  0
HATCH
  5
A9
330
7A
100
AcDbEntity
  8
BLOCKS
 62
    16
100
AcDbHatch
 10
0.0
 20
0.0
 30
0.0
210
0.0
220
0.0
230
1.0
  2
ANSI32
 70
     0
 71
     0
 91
        1
 92
        0
 93
        4
 72
     1
 10
-2.108936665011524
 20
-12.77201865326204
 11
-2.107042549855277
 21
-12.73989321595037
 72
     1
 10
-2.107042549855277
 20
-12.73989321595037
 11
-2.179782178789118
 21
-12.73560448884958
 72
     1
 10
-2.179782178789118
 20
-12.73560448884958
 11
-2.179782178789118
 21
-12.76784160315386
 72
     1
 10
-2.179782178789118
 20
-12.76784160315386
 11
-2.108936665011524
 21
-12.77201865326204
 97
        0
 75
     0
 76
     1
 52
0.0
 41
0.1666666667
 77
     0
 78
     2
 53
45.0
 43
0.0
 44
0.0
 45
-0.0441941738241592
 46
0.0441941738241592
 79
     0
 53
45.0
 43
0.0294627825
 44
0.0
 45
-0.0441941738241592
 46
0.0441941738241592
 79
     0
 98
        1
 10
0.0
 20
0.0
  0
HATCH
  5
AA
330
7A
100
AcDbEntity
  8
BLOCKS
 62
    16
100
AcDbHatch
 10
0.0
 20
0.0
 30
0.0
210
0.0
220
0.0
230
1.0
  2
ANSI32
 70
     0
 71
     0
 91
        1
 92
        0
 93
        4
 72
     1
 10
-2.256674050591661
 20
-12.7713947955757
 11
-2.301445670477764
 21
-12.7713947955757
 72
     2
 10
-2.219163443908178
 20
-12.73983881636341
 40
0.0881257319589163
 50
200.9822712637967
 51
339.0177287362049
 73
     1
 72
     1
 10
-2.136881217338592
 20
-12.7713947955757
 11
-2.179782178789117
 21
-12.7713947955757
 72
     1
 10
-2.179782178789117
 20
-12.7713947955757
 11
-2.256674050591661
 21
-12.7713947955757
 97
        0
 75
     0
 76
     1
 52
0.0
 41
0.1666666667
 77
     0
 78
     2
 53
45.0
 43
0.0
 44
0.0
 45
-0.0441941738241592
 46
0.0441941738241592
 79
     0
 53
45.0
 43
0.0294627825
 44
0.0
 45
-0.0441941738241592
 46
0.0441941738241592
 79
     0
 98
        1
 10
0.0
 20
0.0
  0
HATCH
  5
AB
330
7A
100
AcDbEntity
  8
BLOCKS
 62
    16
100
AcDbHatch
 10
0.0
 20
0.0
 30
0.0
210
0.0
220
0.0
230
1.0
  2
SOLID
 70
     1
 71
     0
 91
        1
 92
        0
 93
        4
 72
     1
 10
-1.420033499233286
 20
-12.61095865422328
 11
-1.435317692358862
 21
-12.5884178222266
 72
     1
 10
-1.435317692358862
 20
-12.5884178222266
 11
-1.965672528406843
 21
-12.58801653321449
 72
     1
 10
-1.965672528406843
 20
-12.58801653321449
 11
-1.965672528406843
 21
-12.61095865422328
 72
     1
 10
-1.965672528406843
 20
-12.61095865422328
 11
-1.420033499233286
 21
-12.61095865422328
 97
        0
 75
     0
 76
     1
 98
        1
 10
0.0
 20
0.0
  0
INSERT
  5
C3
330
7A
100
AcDbEntity
  8
BLOCKS
100
AcDbBlockReference
  2
SW_BLOCK_DIMENSION_0
 10
-2.1360072298
 20
-11.8082095336
 30
0.0
  0
ENDBLK
  5
7C
330
7A
100
AcDbEntity
  8
0
100
AcDbBlockEnd
  0
BLOCK
  5
AD
330
AC
100
AcDbEntity
  8
0
100
AcDbBlockBegin
  2
SW_BLOCK_DIMENSION_0
 70
     0
 10
0.0
 20
0.0
 30
0.0
  3
SW_BLOCK_DIMENSION_0
  1

  0
SOLID
  5
AF
330
AC
100
AcDbEntity
  8
BLOCKS
 62
     0
100
AcDbTrace
 10
0.9645719652
 20
-0.0313006311
 30
0.0
 11
1.065686874
 21
-0.0468567709
 31
0.0
 12
1.065686874
 22
-0.0157444913
 32
0.0
 13
1.065686874
 23
-0.0157444913
 33
0.0
  0
SOLID
  5
B0
330
AC
100
AcDbEntity
  8
BLOCKS
 62
     0
100
AcDbTrace
 10
0.7006895374
 20
-0.0313006311
 30
0.0
 11
0.5995746286
 21
-0.0157444913
 31
0.0
 12
0.5995746286
 22
-0.0468567709
 32
0.0
 13
0.5995746286
 23
-0.0468567709
 33
0.0
  0
LINE
  5
B1
330
AC
100
AcDbEntity
  8
BLOCKS
 62
     0
100
AcDbLine
 10
0.1650270144
 20
0.0798201425
 30
0.0
 11
0.2717013988
 21
0.0798201425
 31
0.0
  0
LINE
  5
B2
330
AC
100
AcDbEntity
  8
BLOCKS
 62
     0
100
AcDbLine
 10
0.1080246921
 20
-0.0940224566
 30
0.0
 11
0.0733024703
 21
-0.0940224566
 31
0.0
  0
LINE
  5
B3
330
AC
100
AcDbEntity
  8
BLOCKS
 62
     0
100
AcDbLine
 10
0.0733024703
 20
-0.0940224566
 30
0.0
 11
0.0733024703
 21
-0.249307956
 31
0.0
  0
LINE
  5
B4
330
AC
100
AcDbEntity
  8
BLOCKS
 62
     0
100
AcDbLine
 10
0.0733024703
 20
-0.249307956
 30
0.0
 11
0.1080246921
 21
-0.249307956
 31
0.0
  0
LINE
  5
B5
330
AC
100
AcDbEntity
  8
BLOCKS
 62
     0
100
AcDbLine
 10
0.3780864406
 20
-0.0940224566
 30
0.0
 11
0.4128086624
 21
-0.0940224566
 31
0.0
  0
LINE
  5
B6
330
AC
100
AcDbEntity
  8
BLOCKS
 62
     0
100
AcDbLine
 10
0.4128086624
 20
-0.0940224566
 30
0.0
 11
0.4128086624
 21
-0.249307956
 31
0.0
  0
LINE
  5
B7
330
AC
100
AcDbEntity
  8
BLOCKS
 62
     0
100
AcDbLine
 10
0.4128086624
 20
-0.249307956
 30
0.0
 11
0.3780864406
 21
-0.249307956
 31
0.0
  0
LINE
  5
B8
330
AC
100
AcDbEntity
  8
BLOCKS
 62
     0
100
AcDbLine
 10
0.9645719652
 20
-0.9860859011
 30
0.0
 11
0.9645719652
 21
0.0936993689
 31
0.0
  0
LINE
  5
B9
330
AC
100
AcDbEntity
  8
BLOCKS
 62
     0
100
AcDbLine
 10
0.7006895374
 20
-0.338009936
 30
0.0
 11
0.7006895374
 21
0.0936993689
 31
0.0
  0
LINE
  5
BA
330
AC
100
AcDbEntity
  8
BLOCKS
 62
     0
100
AcDbLine
 10
0.9645719652
 20
-0.0313006311
 30
0.0
 11
1.159023713
 21
-0.0313006311
 31
0.0
  0
LINE
  5
BB
330
AC
100
AcDbEntity
  8
BLOCKS
 62
     0
100
AcDbLine
 10
0.7006895374
 20
-0.0313006311
 30
0.0
 11
0.4865651395
 21
-0.0313006311
 31
0.0
  0
MTEXT
  5
BD
330
AC
100
AcDbEntity
  8
BLOCKS
 62
     0
100
AcDbMText
 10
0.0390625
 20
0.1342778896
 30
0.0
 40
0.1041666667
 41
0.0
 46
0.0
 71
     1
 72
     1
  1

  7
SLDTEXTSTYLE0
 73
     1
 44
1.0
  0
MTEXT
  5
BE
330
AC
100
AcDbEntity
  8
BLOCKS
 62
     0
100
AcDbMText
 10
0.1797839581
 20
0.2052438631
 30
0.0
 40
0.1041666667
 41
0.0
 46
0.0
 71
     1
 72
     1
  1
1
  7
SLDTEXTSTYLE0
 73
     1
 44
1.0
  0
MTEXT
  5
BF
330
AC
100
AcDbEntity
  8
BLOCKS
 62
     0
100
AcDbMText
 10
0.1797839581
 20
0.0634035871
 30
0.0
 40
0.1041666667
 41
0.0
 46
0.0
 71
     1
 72
     1
  1
4
  7
SLDTEXTSTYLE0
 73
     1
 44
1.0
  0
MTEXT
  5
C0
330
AC
100
AcDbEntity
  8
BLOCKS
 62
     0
100
AcDbMText
 10
0.2864583425
 20
0.1342778896
 30
0.0
 40
0.1041666667
 41
0.0
 46
0.0
 71
     1
 72
     1
  1
"
  7
SLDTEXTSTYLE0
 73
     1
 44
1.0
  0
MTEXT
  5
C1
330
AC
100
AcDbEntity
  8
BLOCKS
 62
     0
100
AcDbMText
 10
0.1080246921
 20
-0.1150300596
 30
0.0
 40
0.1041666667
 41
0.0
 46
0.0
 71
     1
 72
     1
  1
6.70
  7
SLDTEXTSTYLE0
 73
     1
 44
1.0
  0
MTEXT
  5
C2
330
AC
100
AcDbEntity
  8
BLOCKS
 62
     0
100
AcDbMText
 10
0.4865933934
 20
0.1342778896
 30
0.0
 40
0.1041666667
 41
0.0
 46
0.0
 71
     1
 72
     1
  1

  7
SLDTEXTSTYLE0
 73
     1
 44
1.0
  0
ENDBLK
  5
AE
330
AC
100
AcDbEntity
  8
0
100
AcDbBlockEnd
  0
BLOCK
  5
DC
330
DB
100
AcDbEntity
  8
0
100
AcDbBlockBegin
  2
_D
 70
     0
 10
0.0
 20
0.0
 30
0.0
  3
_D
  1

  0
SOLID
  5
DE
330
DB
100
AcDbEntity
  8
DIMS
100
AcDbTrace
 10
32.1181127052
 20
19.5706349126
 30
0.0
 11
31.9090627295
 21
19.4061668512
 31
0.0
 12
31.9681652671
 22
19.3509364798
 32
0.0
 13
31.9681652671
 23
19.3509364798
 33
0.0
  0
LINE
  5
DF
330
DB
100
AcDbEntity
  8
DIMS
100
AcDbLine
 10
30.2426232775
 20
18.7665598226
 30
0.0
 11
30.5199766585
 21
18.7665598226
 31
0.0
  0
LINE
  5
E0
330
DB
100
AcDbEntity
  8
DIMS
100
AcDbLine
 10
29.9640160669
 20
18.3145690948
 30
0.0
 11
29.8737382856
 21
18.3145690948
 31
0.0
  0
LINE
  5
E1
330
DB
100
AcDbEntity
  8
DIMS
100
AcDbLine
 10
29.8737382856
 20
18.3145690948
 30
0.0
 11
29.8737382856
 21
17.9108268256
 31
0.0
  0
LINE
  5
E2
330
DB
100
AcDbEntity
  8
DIMS
100
AcDbLine
 10
29.8737382856
 20
17.9108268256
 30
0.0
 11
29.9640160669
 21
17.9108268256
 31
0.0
  0
LINE
  5
E3
330
DB
100
AcDbEntity
  8
DIMS
100
AcDbLine
 10
30.6661765288
 20
18.3145690948
 30
0.0
 11
30.7564543101
 21
18.3145690948
 31
0.0
  0
LINE
  5
E4
330
DB
100
AcDbEntity
  8
DIMS
100
AcDbLine
 10
30.7564543101
 20
18.3145690948
 30
0.0
 11
30.7564543101
 21
17.9108268256
 31
0.0
  0
LINE
  5
E5
330
DB
100
AcDbEntity
  8
DIMS
100
AcDbLine
 10
30.7564543101
 20
17.9108268256
 30
0.0
 11
30.6661765288
 21
17.9108268256
 31
0.0
  0
LINE
  5
E6
330
DB
100
AcDbEntity
  8
DIMS
100
AcDbLine
 10
32.1181127052
 20
19.5706349126
 30
0.0
 11
31.0967320547
 21
18.4776459143
 31
0.0
  0
LINE
  5
E7
330
DB
100
AcDbEntity
  8
DIMS
100
AcDbLine
 10
31.0967320547
 20
18.4776459143
 30
0.0
 11
30.8467320547
 21
18.4776459143
 31
0.0
  0
MTEXT
  5
E8
330
DB
100
AcDbEntity
  8
DIMS
100
AcDbMText
 10
29.9434527394
 20
18.9081499878
 30
0.0
 40
0.2708333333
 41
0.0
 46
0.0
 71
     1
 72
     1
  1
R
  7
SLDTEXTSTYLE0
 73
     1
 44
1.0
  0
MTEXT
  5
E9
330
DB
100
AcDbEntity
  8
DIMS
100
AcDbMText
 10
30.2809913293
 20
19.092661508
 30
0.0
 40
0.2708333333
 41
0.0
 46
0.0
 71
     1
 72
     1
  1
1
  7
SLDTEXTSTYLE0
 73
     1
 44
1.0
  0
MTEXT
  5
EA
330
DB
100
AcDbEntity
  8
DIMS
100
AcDbMText
 10
30.2809913293
 20
18.7238767707
 30
0.0
 40
0.2708333333
 41
0.0
 46
0.0
 71
     1
 72
     1
  1
4
  7
SLDTEXTSTYLE0
 73
     1
 44
1.0
  0
MTEXT
  5
EB
330
DB
100
AcDbEntity
  8
DIMS
100
AcDbMText
 10
30.5583447195
 20
18.9081499878
 30
0.0
 40
0.2708333333
 41
0.0
 46
0.0
 71
     1
 72
     1
  1
"
  7
SLDTEXTSTYLE0
 73
     1
 44
1.0
  0
MTEXT
  5
EC
330
DB
100
AcDbEntity
  8
DIMS
100
AcDbMText
 10
29.9640160669
 20
18.2599493292
 30
0.0
 40
0.2708333333
 41
0.0
 46
0.0
 71
     1
 72
     1
  1
6.60
  7
SLDTEXTSTYLE0
 73
     1
 44
1.0
  0
ENDBLK
  5
DD
330
DB
100
AcDbEntity
  8
0
100
AcDbBlockEnd
  0
BLOCK
  5
F0
330
EF
100
AcDbEntity
  8
0
100
AcDbBlockBegin
  2
_D_1
 70
     0
 10
0.0
 20
0.0
 30
0.0
  3
_D_1
  1

  0
SOLID
  5
F2
330
EF
100
AcDbEntity
  8
DIMS
100
AcDbTrace
 10
4.0937572254
 20
19.3906721718
 30
0.0
 11
4.0533112619
 21
19.1277734087
 31
0.0
 12
4.134203189
 22
19.1277734087
 32
0.0
 13
4.134203189
 23
19.1277734087
 33
0.0
  0
SOLID
  5
F3
330
EF
100
AcDbEntity
  8
DIMS
100
AcDbTrace
 10
4.0937572254
 20
2.3906721718
 30
0.0
 11
4.134203189
 21
2.6535709348
 31
0.0
 12
4.0533112619
 22
2.6535709348
 32
0.0
 13
4.0533112619
 23
2.6535709348
 33
0.0
  0
LINE
  5
F4
330
EF
100
AcDbEntity
  8
DIMS
100
AcDbLine
 10
3.5420596804
 20
8.6419381518
 30
0.0
 11
3.4517818991
 21
8.6419381518
 31
0.0
  0
LINE
  5
F5
330
EF
100
AcDbEntity
  8
DIMS
100
AcDbLine
 10
3.4517818991
 20
8.6419381518
 30
0.0
 11
3.4517818991
 21
8.2381958825
 31
0.0
  0
LINE
  5
F6
330
EF
100
AcDbEntity
  8
DIMS
100
AcDbLine
 10
3.4517818991
 20
8.2381958825
 30
0.0
 11
3.5420596804
 21
8.2381958825
 31
0.0
  0
LINE
  5
F7
330
EF
100
AcDbEntity
  8
DIMS
100
AcDbLine
 10
4.6454547338
 20
8.6419381518
 30
0.0
 11
4.7357325151
 21
8.6419381518
 31
0.0
  0
LINE
  5
F8
330
EF
100
AcDbEntity
  8
DIMS
100
AcDbLine
 10
4.7357325151
 20
8.6419381518
 30
0.0
 11
4.7357325151
 21
8.2381958825
 31
0.0
  0
LINE
  5
F9
330
EF
100
AcDbEntity
  8
DIMS
100
AcDbLine
 10
4.7357325151
 20
8.2381958825
 30
0.0
 11
4.6454547338
 21
8.2381958825
 31
0.0
  0
LINE
  5
FA
330
EF
100
AcDbEntity
  8
DIMS
100
AcDbLine
 10
4.0937572254
 20
19.3906721718
 30
0.0
 11
4.0937572254
 21
9.06323444
 31
0.0
  0
LINE
  5
FB
330
EF
100
AcDbEntity
  8
DIMS
100
AcDbLine
 10
4.0937572254
 20
2.3906721718
 30
0.0
 11
4.0937572254
 21
7.7742684502
 31
0.0
  0
MTEXT
  5
FC
330
EF
100
AcDbEntity
  8
DIMS
100
AcDbMText
 10
3.8289424163
 20
9.0512458552
 30
0.0
 40
0.2708333333
 41
0.0
 46
0.0
 71
     1
 72
     1
  1
17"
  7
SLDTEXTSTYLE0
 73
     1
 44
1.0
  0
MTEXT
  5
FD
330
EF
100
AcDbEntity
  8
DIMS
100
AcDbMText
 10
3.5420596804
 20
8.5873183862
 30
0.0
 40
0.2708333333
 41
0.0
 46
0.0
 71
     1
 72
     1
  1
431.80
  7
SLDTEXTSTYLE0
 73
     1
 44
1.0
  0
MTEXT
  5
FE
330
EF
100
AcDbEntity
  8
DIMS
100
AcDbMText
 10
2.8398993101
 20
8.1233909539
 30
0.0
 40
0.2708333333
 41
0.0
 46
0.0
 71
     1
 72
     1
  1
FLUSHMOUNT
  7
SLDTEXTSTYLE0
 73
     1
 44
1.0
  0
ENDBLK
  5
F1
330
EF
100
AcDbEntity
  8
0
100
AcDbBlockEnd
  0
BLOCK
  5
101
330
100
100
AcDbEntity
  8
0
100
AcDbBlockBegin
  2
_D_2
 70
     0
 10
0.0
 20
0.0
 30
0.0
  3
_D_2
  1

  0
SOLID
  5
103
330
100
100
AcDbEntity
  8
DIMS
100
AcDbTrace
 10
1.9505962015
 20
6.4990289017
 30
0.0
 11
2.2134949645
 21
6.4585829382
 31
0.0
 12
2.2134949645
 22
6.5394748653
 32
0.0
 13
2.2134949645
 23
6.5394748653
 33
0.0
  0
SOLID
  5
104
330
100
100
AcDbEntity
  8
DIMS
100
AcDbTrace
 10
31.9505962015
 20
6.4990289017
 30
0.0
 11
31.6876974385
 21
6.5394748653
 31
0.0
 12
31.6876974385
 22
6.4585829382
 32
0.0
 13
31.6876974385
 23
6.4585829382
 33
0.0
  0
LINE
  5
105
330
100
100
AcDbEntity
  8
DIMS
100
AcDbLine
 10
6.1795134177
 20
6.7222156085
 30
0.0
 11
6.0892356364
 21
6.7222156085
 31
0.0
  0
LINE
  5
106
330
100
100
AcDbEntity
  8
DIMS
100
AcDbLine
 10
6.0892356364
 20
6.7222156085
 30
0.0
 11
6.0892356364
 21
6.3184733392
 31
0.0
  0
LINE
  5
107
330
100
100
AcDbEntity
  8
DIMS
100
AcDbLine
 10
6.0892356364
 20
6.3184733392
 30
0.0
 11
6.1795134177
 21
6.3184733392
 31
0.0
  0
LINE
  5
108
330
100
100
AcDbEntity
  8
DIMS
100
AcDbLine
 10
6.7813652317
 20
6.7222156085
 30
0.0
 11
6.871643013
 21
6.7222156085
 31
0.0
  0
LINE
  5
109
330
100
100
AcDbEntity
  8
DIMS
100
AcDbLine
 10
6.871643013
 20
6.7222156085
 30
0.0
 11
6.871643013
 21
6.3184733392
 31
0.0
  0
LINE
  5
10A
330
100
100
AcDbEntity
  8
DIMS
100
AcDbLine
 10
6.871643013
 20
6.3184733392
 30
0.0
 11
6.7813652317
 21
6.3184733392
 31
0.0
  0
LINE
  5
10B
330
100
100
AcDbEntity
  8
DIMS
100
AcDbLine
 10
1.9505962015
 20
6.4990289017
 30
0.0
 11
5.1663954951
 21
6.4990289017
 31
0.0
  0
LINE
  5
10C
330
100
100
AcDbEntity
  8
DIMS
100
AcDbLine
 10
31.9505962015
 20
6.4990289017
 30
0.0
 11
7.7944831176
 21
6.4990289017
 31
0.0
  0
MTEXT
  5
10D
330
100
100
AcDbEntity
  8
DIMS
100
AcDbMText
 10
6.2156244972
 20
7.1315233119
 30
0.0
 40
0.2708333333
 41
0.0
 46
0.0
 71
     1
 72
     1
  1
30"
  7
SLDTEXTSTYLE0
 73
     1
 44
1.0
  0
MTEXT
  5
10E
330
100
100
AcDbEntity
  8
DIMS
100
AcDbMText
 10
6.1795134177
 20
6.6675958429
 30
0.0
 40
0.2708333333
 41
0.0
 46
0.0
 71
     1
 72
     1
  1
762
  7
SLDTEXTSTYLE0
 73
     1
 44
1.0
  0
MTEXT
  5
10F
330
100
100
AcDbEntity
  8
DIMS
100
AcDbMText
 10
5.226581391
 20
6.2036684105
 30
0.0
 40
0.2708333333
 41
0.0
 46
0.0
 71
     1
 72
     1
  1
FLUSHMOUNT
  7
SLDTEXTSTYLE0
 73
     1
 44
1.0
  0
ENDBLK
  5
102
330
100
100
AcDbEntity
  8
0
100
AcDbBlockEnd
  0
BLOCK
  5
113
330
112
100
AcDbEntity
  8
0
100
AcDbBlockBegin
  2
_D_3
 70
     0
 10
0.0
 20
0.0
 30
0.0
  3
_D_3
  1

  0
SOLID
  5
115
330
112
100
AcDbEntity
  8
DIMS
100
AcDbTrace
 10
32.2005962015
 20
11.8171791908
 30
0.0
 11
31.9376974385
 21
11.8576251543
 31
0.0
 12
31.9376974385
 22
11.7767332272
 32
0.0
 13
31.9376974385
 23
11.7767332272
 33
0.0
  0
SOLID
  5
116
330
112
100
AcDbEntity
  8
DIMS
100
AcDbTrace
 10
1.7005962015
 20
11.8171791908
 30
0.0
 11
1.9634949645
 21
11.7767332272
 31
0.0
 12
1.9634949645
 22
11.8576251543
 32
0.0
 13
1.9634949645
 23
11.8576251543
 33
0.0
  0
LINE
  5
117
330
112
100
AcDbEntity
  8
DIMS
100
AcDbLine
 10
24.8193153279
 20
12.3079642337
 30
0.0
 11
25.0966687089
 21
12.3079642337
 31
0.0
  0
LINE
  5
118
330
112
100
AcDbEntity
  8
DIMS
100
AcDbLine
 10
24.2698747093
 20
11.8559735059
 30
0.0
 11
24.179596928
 21
11.8559735059
 31
0.0
  0
LINE
  5
119
330
112
100
AcDbEntity
  8
DIMS
100
AcDbLine
 10
24.179596928
 20
11.8559735059
 30
0.0
 11
24.179596928
 21
11.4522312367
 31
0.0
  0
LINE
  5
11A
330
112
100
AcDbEntity
  8
DIMS
100
AcDbLine
 10
24.179596928
 20
11.4522312367
 30
0.0
 11
24.2698747093
 21
11.4522312367
 31
0.0
  0
LINE
  5
11B
330
112
100
AcDbEntity
  8
DIMS
100
AcDbLine
 10
25.3732697627
 20
11.8559735059
 30
0.0
 11
25.463547544
 21
11.8559735059
 31
0.0
  0
LINE
  5
11C
330
112
100
AcDbEntity
  8
DIMS
100
AcDbLine
 10
25.463547544
 20
11.8559735059
 30
0.0
 11
25.463547544
 21
11.4522312367
 31
0.0
  0
LINE
  5
11D
330
112
100
AcDbEntity
  8
DIMS
100
AcDbLine
 10
25.463547544
 20
11.4522312367
 30
0.0
 11
25.3732697627
 21
11.4522312367
 31
0.0
  0
LINE
  5
11E
330
112
100
AcDbEntity
  8
DIMS
100
AcDbLine
 10
32.2005962015
 20
11.8171791908
 30
0.0
 11
26.1857704996
 21
11.8171791908
 31
0.0
  0
LINE
  5
11F
330
112
100
AcDbEntity
  8
DIMS
100
AcDbLine
 10
1.7005962015
 20
11.8171791908
 30
0.0
 11
23.4573740091
 21
11.8171791908
 31
0.0
  0
MTEXT
  5
120
330
112
100
AcDbEntity
  8
DIMS
100
AcDbMText
 10
24.3797127121
 20
12.4495543989
 30
0.0
 40
0.2708333333
 41
0.0
 46
0.0
 71
     1
 72
     1
  1
30
  7
SLDTEXTSTYLE0
 73
     1
 44
1.0
  0
MTEXT
  5
121
330
112
100
AcDbEntity
  8
DIMS
100
AcDbMText
 10
24.8576833797
 20
12.6340659191
 30
0.0
 40
0.2708333333
 41
0.0
 46
0.0
 71
     1
 72
     1
  1
1
  7
SLDTEXTSTYLE0
 73
     1
 44
1.0
  0
MTEXT
  5
122
330
112
100
AcDbEntity
  8
DIMS
100
AcDbMText
 10
24.8576833797
 20
12.2652811819
 30
0.0
 40
0.2708333333
 41
0.0
 46
0.0
 71
     1
 72
     1
  1
2
  7
SLDTEXTSTYLE0
 73
     1
 44
1.0
  0
MTEXT
  5
123
330
112
100
AcDbEntity
  8
DIMS
100
AcDbMText
 10
25.1350367332
 20
12.4495543989
 30
0.0
 40
0.2708333333
 41
0.0
 46
0.0
 71
     1
 72
     1
  1
"
  7
SLDTEXTSTYLE0
 73
     1
 44
1.0
  0
MTEXT
  5
124
330
112
100
AcDbEntity
  8
DIMS
100
AcDbMText
 10
24.2698747093
 20
11.8013537403
 30
0.0
 40
0.2708333333
 41
0.0
 46
0.0
 71
     1
 72
     1
  1
774.70
  7
SLDTEXTSTYLE0
 73
     1
 44
1.0
  0
MTEXT
  5
125
330
112
100
AcDbEntity
  8
DIMS
100
AcDbMText
 10
23.5175599051
 20
11.337426363
 30
0.0
 40
0.2708333333
 41
0.0
 46
0.0
 71
     1
 72
     1
  1
UNDERMOUNT
  7
SLDTEXTSTYLE0
 73
     1
 44
1.0
  0
ENDBLK
  5
114
330
112
100
AcDbEntity
  8
0
100
AcDbBlockEnd
  0
BLOCK
  5
128
330
127
100
AcDbEntity
  8
0
100
AcDbBlockBegin
  2
_D_4
 70
     0
 10
0.0
 20
0.0
 30
0.0
  3
_D_4
  1

  0
SOLID
  5
12A
330
127
100
AcDbEntity
  8
DIMS
100
AcDbTrace
 10
27.0785433526
 20
19.6406721718
 30
0.0
 11
27.0380973891
 21
19.3777734087
 31
0.0
 12
27.1189893161
 22
19.3777734087
 32
0.0
 13
27.1189893161
 23
19.3777734087
 33
0.0
  0
SOLID
  5
12B
330
127
100
AcDbEntity
  8
DIMS
100
AcDbTrace
 10
27.0785433526
 20
2.1406721718
 30
0.0
 11
27.1189893161
 21
2.4035709348
 31
0.0
 12
27.0380973891
 22
2.4035709348
 32
0.0
 13
27.0380973891
 23
2.4035709348
 33
0.0
  0
LINE
  5
12C
330
127
100
AcDbEntity
  8
DIMS
100
AcDbLine
 10
27.0762864262
 20
14.2666989748
 30
0.0
 11
27.3536398072
 21
14.2666989748
 31
0.0
  0
LINE
  5
12D
330
127
100
AcDbEntity
  8
DIMS
100
AcDbLine
 10
26.5268458075
 20
13.8147082471
 30
0.0
 11
26.4365680263
 21
13.8147082471
 31
0.0
  0
LINE
  5
12E
330
127
100
AcDbEntity
  8
DIMS
100
AcDbLine
 10
26.4365680263
 20
13.8147082471
 30
0.0
 11
26.4365680263
 21
13.4109659778
 31
0.0
  0
LINE
  5
12F
330
127
100
AcDbEntity
  8
DIMS
100
AcDbLine
 10
26.4365680263
 20
13.4109659778
 30
0.0
 11
26.5268458075
 21
13.4109659778
 31
0.0
  0
LINE
  5
130
330
127
100
AcDbEntity
  8
DIMS
100
AcDbLine
 10
27.630240861
 20
13.8147082471
 30
0.0
 11
27.7205186423
 21
13.8147082471
 31
0.0
  0
LINE
  5
131
330
127
100
AcDbEntity
  8
DIMS
100
AcDbLine
 10
27.7205186423
 20
13.8147082471
 30
0.0
 11
27.7205186423
 21
13.4109659778
 31
0.0
  0
LINE
  5
132
330
127
100
AcDbEntity
  8
DIMS
100
AcDbLine
 10
27.7205186423
 20
13.4109659778
 30
0.0
 11
27.630240861
 21
13.4109659778
 31
0.0
  0
LINE
  5
133
330
127
100
AcDbEntity
  8
DIMS
100
AcDbLine
 10
27.0785433526
 20
19.6406721718
 30
0.0
 11
27.0785433526
 21
14.6047892633
 31
0.0
  0
LINE
  5
134
330
127
100
AcDbEntity
  8
DIMS
100
AcDbLine
 10
27.0785433526
 20
2.1406721718
 30
0.0
 11
27.0785433526
 21
12.9470386004
 31
0.0
  0
MTEXT
  5
135
330
127
100
AcDbEntity
  8
DIMS
100
AcDbMText
 10
26.6366838103
 20
14.4082891401
 30
0.0
 40
0.2708333333
 41
0.0
 46
0.0
 71
     1
 72
     1
  1
17
  7
SLDTEXTSTYLE0
 73
     1
 44
1.0
  0
MTEXT
  5
136
330
127
100
AcDbEntity
  8
DIMS
100
AcDbMText
 10
27.1146544779
 20
14.5928006602
 30
0.0
 40
0.2708333333
 41
0.0
 46
0.0
 71
     1
 72
     1
  1
1
  7
SLDTEXTSTYLE0
 73
     1
 44
1.0
  0
MTEXT
  5
137
330
127
100
AcDbEntity
  8
DIMS
100
AcDbMText
 10
27.1146544779
 20
14.224015923
 30
0.0
 40
0.2708333333
 41
0.0
 46
0.0
 71
     1
 72
     1
  1
2
  7
SLDTEXTSTYLE0
 73
     1
 44
1.0
  0
MTEXT
  5
138
330
127
100
AcDbEntity
  8
DIMS
100
AcDbMText
 10
27.3920078314
 20
14.4082891401
 30
0.0
 40
0.2708333333
 41
0.0
 46
0.0
 71
     1
 72
     1
  1
"
  7
SLDTEXTSTYLE0
 73
     1
 44
1.0
  0
MTEXT
  5
139
330
127
100
AcDbEntity
  8
DIMS
100
AcDbMText
 10
26.5268458075
 20
13.7600884815
 30
0.0
 40
0.2708333333
 41
0.0
 46
0.0
 71
     1
 72
     1
  1
444.50
  7
SLDTEXTSTYLE0
 73
     1
 44
1.0
  0
MTEXT
  5
13A
330
127
100
AcDbEntity
  8
DIMS
100
AcDbMText
 10
25.7745310033
 20
13.2961611041
 30
0.0
 40
0.2708333333
 41
0.0
 46
0.0
 71
     1
 72
     1
  1
UNDERMOUNT
  7
SLDTEXTSTYLE0
 73
     1
 44
1.0
  0
ENDBLK
  5
129
330
127
100
AcDbEntity
  8
0
100
AcDbBlockEnd
  0
BLOCK
  5
13C
330
13B
100
AcDbEntity
  8
0
100
AcDbBlockBegin
  2
SW_NOTE_0
 70
     0
 10
0.0
 20
0.0
 30
0.0
  3
SW_NOTE_0
  1

  0
MTEXT
  5
13E
330
13B
100
AcDbEntity
  8
NOTES
 62
     0
100
AcDbMText
 10
0.0
 20
0.2685557791
 30
0.0
 40
0.2083333333
 41
0.0
 46
0.0
 71
     1
 72
     1
  1
NOTES:
  7
SLDTEXTSTYLE0
 73
     1
 44
1.0
  0
MTEXT
  5
13F
330
13B
100
AcDbEntity
  8
NOTES
 62
     0
100
AcDbMText
 10
0.3937007786
 20
-0.3657399401
 30
0.0
 40
0.2083333333
 41
0.0
 46
0.0
 71
     1
 72
     1
  1
THOROUGHLY READ ALL  INSTALLATION INSTRUCTIONS
  7
SLDTEXTSTYLE0
 73
     1
 44
1.0
  0
MTEXT
  5
140
330
13B
100
AcDbEntity
  8
NOTES
 62
     0
100
AcDbMText
 10
-0.3937007874
 20
-0.3657399401
 30
0.0
 40
0.2083333333
 41
0.0
 46
0.0
 71
     1
 72
     1
  1
1.
  7
SLDTEXTSTYLE0
 73
     1
 44
1.0
  0
MTEXT
  5
141
330
13B
100
AcDbEntity
  8
NOTES
 62
     0
100
AcDbMText
 10
0.0
 20
-0.6828877997
 30
0.0
 40
0.2083333333
 41
0.0
 46
0.0
 71
     1
 72
     1
  1
BEFORE CUTTING COUNTERTOP.
  7
SLDTEXTSTYLE0
 73
     1
 44
1.0
  0
MTEXT
  5
142
330
13B
100
AcDbEntity
  8
NOTES
 62
     0
100
AcDbMText
 10
0.0
 20
-1.317183519
 30
0.0
 40
0.2083333333
 41
0.0
 46
0.0
 71
     1
 72
     1
  1
2.  DIMENSIONS ARE IN INCHES [MM].
  7
SLDTEXTSTYLE0
 73
     1
 44
1.0
  0
MTEXT
  5
143
330
13B
100
AcDbEntity
  8
NOTES
 62
     0
100
AcDbMText
 10
0.0
 20
-2.2686270978
 30
0.0
 40
0.2083333333
 41
0.0
 46
0.0
 71
     1
 72
     1
  1
PLEASE CHECK TEMPLATE AGAINST PHYSICAL SINK FOR MOST ACCURATE CUT.
  7
SLDTEXTSTYLE0
 73
     1
 44
1.0
  0
MTEXT
  5
144
330
13B
100
AcDbEntity
  8
NOTES
 62
     0
100
AcDbMText
 10
0.0
 20
-3.5372185363
 30
0.0
 40
0.2083333333
 41
0.0
 46
0.0
 71
     1
 72
     1
  1
NOTAS:
  7
SLDTEXTSTYLE0
 73
     1
 44
1.0
  0
MTEXT
  5
145
330
13B
100
AcDbEntity
  8
NOTES
 62
     0
100
AcDbMText
 10
0.0
 20
-4.1715142555
 30
0.0
 40
0.2083333333
 41
0.0
 46
0.0
 71
     1
 72
     1
  1
1.  LEA ATENTAMENTE LAS INSTRUCCIONES DE INSTALACIÓN ANTES DE CORTAR LA ENCIMERA.
  7
SLDTEXTSTYLE0
 73
     1
 44
1.0
  0
MTEXT
  5
146
330
13B
100
AcDbEntity
  8
NOTES
 62
     0
100
AcDbMText
 10
0.0
 20
-4.8058099747
 30
0.0
 40
0.2083333333
 41
0.0
 46
0.0
 71
     1
 72
     1
  1
2.  DIMENSIONES EN PULGADAS [MM].
  7
SLDTEXTSTYLE0
 73
     1
 44
1.0
  0
MTEXT
  5
147
330
13B
100
AcDbEntity
  8
NOTES
 62
     0
100
AcDbMText
 10
0.0
 20
-5.7572535536
 30
0.0
 40
0.2083333333
 41
0.0
 46
0.0
 71
     1
 72
     1
  1
POR FAVOR COMPRUEBE PLANTILLA CONTRA FREGADERO FÍSICO PARA CORTE MÁS EXACTO.
  7
SLDTEXTSTYLE0
 73
     1
 44
1.0
  0
ENDBLK
  5
13D
330
13B
100
AcDbEntity
  8
0
100
AcDbBlockEnd
  0
BLOCK
  5
14A
330
149
100
AcDbEntity
  8
0
100
AcDbBlockBegin
  2
SW_NOTE_1
 70
     0
 10
0.0
 20
0.0
 30
0.0
  3
SW_NOTE_1
  1

  0
MTEXT
  5
14C
330
149
100
AcDbEntity
  8
NOTES
 62
     0
100
AcDbMText
 10
0.0295447571
 20
0.8472803135
 30
0.0
 40
0.25
 41
0.0
 46
0.0
 71
     2
 72
     1
  1
TEMPLATE
  7
SLDTEXTSTYLE0
 73
     1
 44
1.0
  0
MTEXT
  5
14D
330
149
100
AcDbEntity
  8
NOTES
 62
     0
100
AcDbMText
 10
0.0333063761
 20
0.474576899
 30
0.0
 40
0.25
 41
0.0
 46
0.0
 71
     2
 72
     1
  1
CENTERLINE
  7
SLDTEXTSTYLE0
 73
     1
 44
1.0
  0
MTEXT
  5
14E
330
149
100
AcDbEntity
  8
NOTES
 62
     0
100
AcDbMText
 10
0.0334510071
 20
-0.27082993
 30
0.0
 40
0.25
 41
0.0
 46
0.0
 71
     2
 72
     1
  1
PLANTILLA
  7
SLDTEXTSTYLE0
 73
     1
 44
1.0
  0
MTEXT
  5
14F
330
149
100
AcDbEntity
  8
NOTES
 62
     0
100
AcDbMText
 10
0.0298341138
 20
-0.6435333445
 30
0.0
 40
0.25
 41
0.0
 46
0.0
 71
     2
 72
     1
  1
CENTRAL
  7
SLDTEXTSTYLE0
 73
     1
 44
1.0
  0
ENDBLK
  5
14B
330
149
100
AcDbEntity
  8
0
100
AcDbBlockEnd
  0
BLOCK
  5
155
330
154
100
AcDbEntity
  8
0
100
AcDbBlockBegin
  2
SW_NOTE_2
 70
     0
 10
0.0
 20
0.0
 30
0.0
  3
SW_NOTE_2
  1

  0
MTEXT
  5
157
330
154
100
AcDbEntity
  8
DIMS
 62
     0
100
AcDbMText
 10
0.3698446869
 20
0.2389296066
 30
0.0
 40
0.2083333333
 41
0.0
 46
0.0
 71
     2
 72
     1
  1
R 0"
  7
SLDTEXTSTYLE0
 73
     1
 44
1.0
  0
MTEXT
  5
158
330
154
100
AcDbEntity
  8
DIMS
 62
     0
100
AcDbMText
 10
0.3726899617
 20
-0.078218253
 30
0.0
 40
0.2083333333
 41
0.0
 46
0.0
 71
     2
 72
     1
  1
[0.00]
  7
SLDTEXTSTYLE0
 73
     1
 44
1.0
  0
ENDBLK
  5
156
330
154
100
AcDbEntity
  8
0
100
AcDbBlockEnd
  0
BLOCK
  5
15C
330
15B
100
AcDbEntity
  8
0
100
AcDbBlockBegin
  2
SW_NOTE_3
 70
     0
 10
0.0
 20
0.0
 30
0.0
  3
SW_NOTE_3
  1

  0
MTEXT
  5
15E
330
15B
100
AcDbEntity
  8
NOTES
 62
     0
100
AcDbMText
 10
0.0237367439
 20
1.0325586883
 30
0.0
 40
0.2083333333
 41
0.0
 46
0.0
 71
     1
 72
     1
  1
FOR FLUSHMOUNT
  7
SLDTEXTSTYLE0
 73
     1
 44
1.0
  0
MTEXT
  5
15F
330
15B
100
AcDbEntity
  8
NOTES
 62
     0
100
AcDbMText
 10
0.0237367439
 20
0.7154108287
 30
0.0
 40
0.2083333333
 41
0.0
 46
0.0
 71
     1
 72
     1
  1
INSTALLATION CUT
  7
SLDTEXTSTYLE0
 73
     1
 44
1.0
  0
MTEXT
  5
160
330
15B
100
AcDbEntity
  8
NOTES
 62
     0
100
AcDbMText
 10
0.0237367439
 20
0.398262969
 30
0.0
 40
0.2083333333
 41
0.0
 46
0.0
 71
     1
 72
     1
  1
ALONG THIS LINE
  7
SLDTEXTSTYLE0
 73
     1
 44
1.0
  0
MTEXT
  5
161
330
15B
100
AcDbEntity
  8
NOTES
 62
     0
100
AcDbMText
 10
0.0237367439
 20
-0.2360327502
 30
0.0
 40
0.2083333333
 41
0.0
 46
0.0
 71
     1
 72
     1
  1
PARA LA INSTALACIÓN
  7
SLDTEXTSTYLE0
 73
     1
 44
1.0
  0
MTEXT
  5
162
330
15B
100
AcDbEntity
  8
NOTES
 62
     0
100
AcDbMText
 10
0.0237367439
 20
-0.5531806098
 30
0.0
 40
0.2083333333
 41
0.0
 46
0.0
 71
     1
 72
     1
  1
INFERIOR CORTE A LO
  7
SLDTEXTSTYLE0
 73
     1
 44
1.0
  0
MTEXT
  5
163
330
15B
100
AcDbEntity
  8
NOTES
 62
     0
100
AcDbMText
 10
0.0237367439
 20
-0.8703284694
 30
0.0
 40
0.2083333333
 41
0.0
 46
0.0
 71
     1
 72
     1
  1
LARGO DE ESTA LÍNEA
  7
SLDTEXTSTYLE0
 73
     1
 44
1.0
  0
ENDBLK
  5
15D
330
15B
100
AcDbEntity
  8
0
100
AcDbBlockEnd
  0
BLOCK
  5
167
330
166
100
AcDbEntity
  8
0
100
AcDbBlockBegin
  2
SW_NOTE_4
 70
     0
 10
0.0
 20
0.0
 30
0.0
  3
SW_NOTE_4
  1

  0
MTEXT
  5
169
330
166
100
AcDbEntity
  8
NOTES
 62
     0
100
AcDbMText
 10
0.0230744962
 20
1.0333368119
 30
0.0
 40
0.2083333333
 41
0.0
 46
0.0
 71
     1
 72
     1
  1
FOR UNDERMOUNT
  7
SLDTEXTSTYLE0
 73
     1
 44
1.0
  0
MTEXT
  5
16A
330
166
100
AcDbEntity
  8
NOTES
 62
     0
100
AcDbMText
 10
0.0230744962
 20
0.7161889523
 30
0.0
 40
0.2083333333
 41
0.0
 46
0.0
 71
     1
 72
     1
  1
INSTALLATION CUT
  7
SLDTEXTSTYLE0
 73
     1
 44
1.0
  0
MTEXT
  5
16B
330
166
100
AcDbEntity
  8
NOTES
 62
     0
100
AcDbMText
 10
0.0230744962
 20
0.3990410926
 30
0.0
 40
0.2083333333
 41
0.0
 46
0.0
 71
     1
 72
     1
  1
ALONG THIS LINE
  7
SLDTEXTSTYLE0
 73
     1
 44
1.0
  0
MTEXT
  5
16C
330
166
100
AcDbEntity
  8
NOTES
 62
     0
100
AcDbMText
 10
0.0230744962
 20
-0.2352546266
 30
0.0
 40
0.2083333333
 41
0.0
 46
0.0
 71
     1
 72
     1
  1
PARA LA INSTALACIÓN
  7
SLDTEXTSTYLE0
 73
     1
 44
1.0
  0
MTEXT
  5
16D
330
166
100
AcDbEntity
  8
NOTES
 62
     0
100
AcDbMText
 10
0.0230744962
 20
-0.5524024862
 30
0.0
 40
0.2083333333
 41
0.0
 46
0.0
 71
     1
 72
     1
  1
INFERIOR CORTE A LO
  7
SLDTEXTSTYLE0
 73
     1
 44
1.0
  0
MTEXT
  5
16E
330
166
100
AcDbEntity
  8
NOTES
 62
     0
100
AcDbMText
 10
0.0230744962
 20
-0.8695503458
 30
0.0
 40
0.2083333333
 41
0.0
 46
0.0
 71
     1
 72
     1
  1
LARGO DE ESTA LÍNEA
  7
SLDTEXTSTYLE0
 73
     1
 44
1.0
  0
ENDBLK
  5
168
330
166
100
AcDbEntity
  8
0
100
AcDbBlockEnd
  0
BLOCK
  5
172
330
171
100
AcDbEntity
  8
0
100
AcDbBlockBegin
  2
SW_NOTE_5
 70
     0
 10
0.0
 20
0.0
 30
0.0
  3
SW_NOTE_5
  1

  0
MTEXT
  5
174
330
171
100
AcDbEntity
  8
NOTES
 62
     0
100
AcDbMText
 10
6.8619791667
 20
1.0742231165
 30
0.0
 40
0.8333333333
 41
0.0
 46
0.0
 71
     2
 72
     1
  1
TEMPLATE #: 1000005511
  7
SLDTEXTSTYLE0
 73
     1
 44
1.0
  0
MTEXT
  5
175
330
171
100
AcDbEntity
  8
NOTES
 62
     0
100
AcDbMText
 10
6.8406169856
 20
-0.4953140568
 30
0.0
 40
0.4166666667
 41
0.0
 46
0.0
 71
     2
 72
     1
  1
FLUSH AND 1/4" REVEAL TEMPLATE
  7
SLDTEXTSTYLE0
 73
     1
 44
1.0
  0
MTEXT
  5
176
330
171
100
AcDbEntity
  8
NOTES
 62
     0
100
AcDbMText
 10
6.8287523337
 20
-1.2082952403
 30
0.0
 40
0.4166666667
 41
0.0
 46
0.0
 71
     2
 72
     1
  1
30" X 17" W/ 0" RADIUS
  7
SLDTEXTSTYLE0
 73
     1
 44
1.0
  0
ENDBLK
  5
173
330
171
100
AcDbEntity
  8
0
100
AcDbBlockEnd
  0
BLOCK
  5
179
330
178
100
AcDbEntity
  8
0
100
AcDbBlockBegin
  2
SW_NOTE_6
 70
     0
 10
0.0
 20
0.0
 30
0.0
  3
SW_NOTE_6
  1

  0
MTEXT
  5
17B
330
178
100
AcDbEntity
  8
DIMS
 62
     0
100
AcDbMText
 10
0.0221540217
 20
0.240706907
 30
0.0
 40
0.2083333333
 41
0.0
 46
0.0
 71
     1
 72
     1
  1
1/4" REVEAL
  7
SLDTEXTSTYLE0
 73
     1
 44
1.0
  0
MTEXT
  5
17C
330
178
100
AcDbEntity
  8
DIMS
 62
     0
100
AcDbMText
 10
0.0221540217
 20
-0.0764409526
 30
0.0
 40
0.2083333333
 41
0.0
 46
0.0
 71
     1
 72
     1
  1
[6.35 REVELADO]
  7
SLDTEXTSTYLE0
 73
     1
 44
1.0
  0
ENDBLK
  5
17A
330
178
100
AcDbEntity
  8
0
100
AcDbBlockEnd
  0
ENDSEC
  0
SECTION
  2
ENTITIES
  0
LINE
  5
C4
330
1F
100
AcDbEntity
  8
DIMS
100
AcDbLine
 10
1.7005962015
 20
19.3806721718
 30
0.0
 11
1.7005962015
 21
2.4006721718
 31
0.0
  0
LINE
  5
C5
330
1F
100
AcDbEntity
  8
DIMS
100
AcDbLine
 10
31.9405866746
 20
19.6406721718
 30
0.0
 11
1.9606057283
 21
19.6406721718
 31
0.0
  0
LINE
  5
C6
330
1F
100
AcDbEntity
  8
DIMS
100
AcDbLine
 10
32.2005962015
 20
2.4006721718
 30
0.0
 11
32.2005962015
 21
19.3806626447
 31
0.0
  0
LINE
  5
C7
330
1F
100
AcDbEntity
  8
DIMS
100
AcDbLine
 10
1.9606057283
 20
2.1406721718
 30
0.0
 11
31.9405866746
 21
2.1406721718
 31
0.0
  0
LINE
  5
C8
330
1F
100
AcDbEntity
  8
OBJECTS
  6
CENTERX2
100
AcDbLine
 10
31.9505962015
 20
2.4006721718
 30
0.0
 11
31.9505962015
 21
19.3806721718
 31
0.0
  0
LINE
  5
C9
330
1F
100
AcDbEntity
  8
OBJECTS
  6
CENTERX2
100
AcDbLine
 10
1.9606057283
 20
2.3906721718
 30
0.0
 11
31.9405866746
 21
2.3906721718
 31
0.0
  0
LINE
  5
CA
330
1F
100
AcDbEntity
  8
OBJECTS
  6
CENTERX2
100
AcDbLine
 10
1.9505962015
 20
19.3806721718
 30
0.0
 11
1.9505962015
 21
2.4006721718
 31
0.0
  0
LINE
  5
CB
330
1F
100
AcDbEntity
  8
OBJECTS
  6
CENTERX2
100
AcDbLine
 10
31.9405866746
 20
19.3906721718
 30
0.0
 11
1.9606057283
 21
19.3906721718
 31
0.0
  0
LINE
  5
CC
330
1F
100
AcDbEntity
  8
OBJECTS
  6
CENTERX2
100
AcDbLine
 10
16.9505962015
 20
19.6406721718
 30
0.0
 11
16.9505962015
 21
17.5940075915
 31
0.0
  0
LINE
  5
CD
330
1F
100
AcDbEntity
  8
OBJECTS
  6
CENTERX2
100
AcDbLine
 10
1.7005962015
 20
10.8906721718
 30
0.0
 11
3.7472607817
 21
10.8906721718
 31
0.0
  0
LINE
  5
CE
330
1F
100
AcDbEntity
  8
OBJECTS
  6
CENTERX2
100
AcDbLine
 10
16.9505962015
 20
2.1406721718
 30
0.0
 11
16.9505962015
 21
4.187336752
 31
0.0
  0
LINE
  5
CF
330
1F
100
AcDbEntity
  8
OBJECTS
  6
CENTERX2
100
AcDbLine
 10
32.2005962015
 20
10.8906674082
 30
0.0
 11
30.1539316212
 21
10.8906674082
 31
0.0
  0
ARC
  5
D0
330
1F
100
AcDbEntity
  8
DIMS
100
AcDbCircle
 10
1.9606057283
 20
2.4006816988
 30
0.0
 40
0.2600095270261757
100
AcDbArc
 50
180.0020993784
 51
270.0
  0
ARC
  5
D1
330
1F
100
AcDbEntity
  8
DIMS
100
AcDbCircle
 10
1.9606057283
 20
19.3806626447
 30
0.0
 40
0.2600095270261749
100
AcDbArc
 50
90.0
 51
179.9979006216
  0
ARC
  5
D2
330
1F
100
AcDbEntity
  8
DIMS
100
AcDbCircle
 10
31.9405866745
 20
19.3806626447
 30
0.0
 40
0.260009527026174
100
AcDbArc
 50
0.0
 51
89.9999999615
  0
ARC
  5
D3
330
1F
100
AcDbEntity
  8
DIMS
100
AcDbCircle
 10
31.9405866746
 20
2.4006816988
 30
0.0
 40
0.2600095270261765
100
AcDbArc
 50
270.0
 51
359.9979006216
  0
ELLIPSE
  5
D4
330
1F
100
AcDbEntity
  8
OBJECTS
  6
CENTERX2
100
AcDbEllipse
 10
31.9405866746
 20
19.3806721718
 30
0.0
 11
0.0100095268516327
 21
0.0
 31
0.0
210
0.0
220
0.0
230
1.0
 40
0.9990482216
 41
0.0
 42
1.570796326795251
  0
ELLIPSE
  5
D5
330
1F
100
AcDbEntity
  8
OBJECTS
  6
CENTERX2
100
AcDbEllipse
 10
31.9405866746
 20
2.4006721718
 30
0.0
 11
0.01000952685163625
 21
0.0
 31
0.0
210
0.0
220
0.0
230
1.0
 40
0.9990482216
 41
4.712388980384704
 42
6.283185307179586
  0
ELLIPSE
  5
D6
330
1F
100
AcDbEntity
  8
OBJECTS
  6
CENTERX2
100
AcDbEllipse
 10
1.9606057283
 20
2.4006721718
 30
0.0
 11
-0.01000952685163381
 21
0.0
 31
0.0
210
0.0
220
0.0
230
1.0
 40
0.9990482216
 41
0.0
 42
1.570796326794897
  0
ELLIPSE
  5
D7
330
1F
100
AcDbEntity
  8
OBJECTS
  6
CENTERX2
100
AcDbEllipse
 10
1.9606057283
 20
19.3806721718
 30
0.0
 11
-0.01000952685163381
 21
0.0
 31
0.0
210
0.0
220
0.0
230
1.0
 40
0.9990482216
 41
4.712388980384926
 42
6.283185307179586
  0
INSERT
  5
D8
330
1F
100
AcDbEntity
  8
0
  6
Continuous
 62
     7
100
AcDbBlockReference
  2
REVEAL - .125
 10
22.617778565
 20
15.9005507985
 30
0.0
  0
DIMENSION
  5
D9
330
1F
100
AcDbEntity
  8
DIMS
100
AcDbDimension
  2
_D
 10
31.9405866745
 20
19.3806626447
 30
0.0
 11
30.3150962795
 21
18.4776459143
 31
0.0
 70
   164
  1
<>
 71
     1
 42
-1.0
 73
     0
 74
     0
 75
     0
  3
SLDDIMSTYLE0
100
AcDbRadialDimension
 15
32.1181127052
 25
19.5706349126
 35
0.0
 40
0.0
  0
DIMENSION
  5
ED
330
1F
100
AcDbEntity
  8
DIMS
100
AcDbDimension
  2
_D_1
 10
4.0937572254
 20
2.3906721718
 30
0.0
 11
4.0937572254
 21
8.4187514451
 31
0.0
 70
   160
  1
<>\PFLUSHMOUNT
 71
     2
 42
-1.0
 73
     0
 74
     0
 75
     0
  3
SLDDIMSTYLE1
100
AcDbAlignedDimension
 13
1.9606057283
 23
19.3906721718
 33
0.0
 14
1.9606057283
 24
2.3906721718
 34
0.0
 50
90.0
100
AcDbRotatedDimension
  0
DIMENSION
  5
FF
330
1F
100
AcDbEntity
  8
DIMS
100
AcDbDimension
  2
_D_2
 10
31.9505962015
 20
6.4990289017
 30
0.0
 11
6.4804393064
 21
6.4990289017
 31
0.0
 70
   160
  1
<>\PFLUSHMOUNT
 71
     2
 42
-1.0
 73
     0
 74
     0
 75
     0
  3
SLDDIMSTYLE1
100
AcDbAlignedDimension
 13
1.9505962015
 23
2.4006721718
 33
0.0
 14
31.9505962015
 24
2.4006721718
 34
0.0
 50
0.0
100
AcDbRotatedDimension
  0
DIMENSION
  5
110
330
1F
100
AcDbEntity
  8
DIMS
100
AcDbDimension
  2
_D_3
 10
1.7005962015
 20
11.8171791908
 30
0.0
 11
24.8215722543
 21
11.8171791908
 31
0.0
 70
   160
  1
<>\PUNDERMOUNT
 71
     2
 42
-1.0
 73
     0
 74
     0
 75
     0
  3
SLDDIMSTYLE2
100
AcDbAlignedDimension
 13
32.2005962015
 23
19.3806626447
 33
0.0
 14
1.7005962015
 24
19.3806721718
 34
0.0
 50
0.0
100
AcDbRotatedDimension
  0
DIMENSION
  5
126
330
1F
100
AcDbEntity
  8
DIMS
100
AcDbDimension
  2
_D_4
 10
27.0785433526
 20
2.1406721718
 30
0.0
 11
27.0785433526
 21
13.7759139319
 31
0.0
 70
   160
  1
<>\PUNDERMOUNT
 71
     2
 42
-1.0
 73
     0
 74
     0
 75
     0
  3
SLDDIMSTYLE2
100
AcDbAlignedDimension
 13
31.9405866746
 23
19.6406721718
 33
0.0
 14
31.9405866746
 24
2.1406721718
 34
0.0
 50
90.0
100
AcDbRotatedDimension
  0
INSERT
  5
148
330
1F
100
AcDbEntity
  8
NOTES
100
AcDbBlockReference
  2
SW_NOTE_0
 10
6.4804393064
 20
18.4741040467
 30
0.0
  0
INSERT
  5
150
102
{ACAD_REACTORS
330
152
330
153
102
}
330
1F
100
AcDbEntity
  8
NOTES
100
AcDbBlockReference
  2
SW_NOTE_1
 10
24.3396977834
 20
17.4733272397
 30
0.0
  0
LEADER
  5
152
330
1F
100
AcDbEntity
  8
NOTES
100
AcDbLeader
  3
SLDDIMSTYLE3
 73
     2
 76
     3
 10
16.9505962015
 20
18.6878286465
 30
0.0
 10
23.0341422773
 20
17.4733272397
 30
0.0
 10
24.3396977834
 20
17.4733272397
 30
0.0
340
150
  0
LEADER
  5
153
330
1F
100
AcDbEntity
  8
NOTES
100
AcDbLeader
  3
SLDDIMSTYLE3
 73
     2
 76
     3
 10
30.9317063132
 20
10.8906674082
 30
0.0
 10
25.6846233683
 20
17.4733272397
 30
0.0
 10
24.3790678622
 20
17.4733272397
 30
0.0
340
150
212
0.03937007874015208
222
0.0
232
0.0
  0
INSERT
  5
159
102
{ACAD_REACTORS
330
15A
102
}
330
1F
100
AcDbEntity
  8
DIMS
100
AcDbBlockReference
  2
SW_NOTE_2
 10
2.8327650104
 20
3.294360475
 30
0.0
  0
LEADER
  5
15A
330
1F
100
AcDbEntity
  8
DIMS
100
AcDbLeader
  3
SLDDIMSTYLE3
 73
     2
 76
     3
 10
1.9606057283
 20
2.4006816988
 30
0.0
 10
2.5827650104
 20
3.294360475
 30
0.0
 10
2.8327650104
 20
3.294360475
 30
0.0
340
159
  0
INSERT
  5
164
102
{ACAD_REACTORS
330
165
102
}
330
1F
100
AcDbEntity
  8
NOTES
100
AcDbBlockReference
  2
SW_NOTE_3
 10
9.3881707706
 20
4.0444337962
 30
0.0
  0
LEADER
  5
165
330
1F
100
AcDbEntity
  8
NOTES
100
AcDbLeader
  3
SLDDIMSTYLE3
 73
     2
 76
     3
 10
7.9332023121
 20
2.3906721718
 30
0.0
 10
9.1385311502
 20
4.0444337962
 30
0.0
 10
9.3881707706
 20
4.0444337962
 30
0.0
340
164
  0
INSERT
  5
16F
102
{ACAD_REACTORS
330
170
102
}
330
1F
100
AcDbEntity
  8
NOTES
100
AcDbBlockReference
  2
SW_NOTE_4
 10
23.6205680215
 20
4.1491172426
 30
0.0
  0
LEADER
  5
170
330
1F
100
AcDbEntity
  8
NOTES
100
AcDbLeader
  3
SLDDIMSTYLE3
 73
     2
 76
     3
 10
22.6528342571
 20
2.1406721718
 30
0.0
 10
23.3709284011
 20
4.1491172426
 30
0.0
 10
23.6205680215
 20
4.1491172426
 30
0.0
340
16F
  0
INSERT
  5
177
330
1F
100
AcDbEntity
  8
NOTES
100
AcDbBlockReference
  2
SW_NOTE_5
 10
9.2111018469
 20
9.5511835387
 30
0.0
  0
INSERT
  5
17D
102
{ACAD_REACTORS
330
17E
102
}
330
1F
100
AcDbEntity
  8
DIMS
100
AcDbBlockReference
  2
SW_NOTE_6
 10
19.4423330754
 20
4.8418548995
 30
0.0
  0
LEADER
  5
17E
330
1F
100
AcDbEntity
  8
DIMS
100
AcDbLeader
  3
SLDDIMSTYLE3
 73
     2
 76
     3
 10
17.7134104046
 20
2.1406721718
 30
0.0
 10
19.1923330754
 20
4.8418548995
 30
0.0
 10
19.4423330754
 20
4.8418548995
 30
0.0
340
17D
  0
MTEXT
  5
17F
330
1F
100
AcDbEntity
  8
NOTES
100
AcDbMText
 10
29.4911676301
 20
3.1173213527
 30
0.0
 40
0.2083333333
 41
0.0
 46
0.0
 71
     1
 72
     1
  1
REV_A  11/19
  7
SLDTEXTSTYLE0
 73
     1
 44
1.0
  0
ENDSEC
  0
SECTION
  2
OBJECTS
  0
DICTIONARY
  5
C
330
0
100
AcDbDictionary
281
     1
  3
ACAD_DETAILVIEWSTYLE
350
188
  3
ACAD_GROUP
350
D
  3
ACAD_LAYOUT
350
1A
  3
ACAD_MATERIAL
350
43
  3
ACAD_MLEADERSTYLE
350
6B
  3
ACAD_MLINESTYLE
350
17
  3
ACAD_PLOTSETTINGS
350
19
  3
ACAD_PLOTSTYLENAME
350
E
  3
ACAD_SCALELIST
350
47
  3
ACAD_SECTIONVIEWSTYLE
350
189
  3
ACAD_TABLESTYLE
350
69
  3
ACAD_VISUALSTYLE
350
2A
  3
ACDB_RECOMPOSE_DATA
350
185
  3
AcDbVariableDictionary
350
180
  0
SUN
  5
6D
330
29
100
AcDbSun
 90
        1
290
     0
 63
     7
421
 16777215
 40
1.0
291
     1
 91
  2455826
 92
 54000000
292
     0
 70
     2
 71
   256
280
     1
  0
DICTIONARY
  5
188
102
{ACAD_REACTORS
330
C
102
}
330
C
100
AcDbDictionary
281
     1
  0
DICTIONARY
  5
D
102
{ACAD_REACTORS
330
C
102
}
330
C
100
AcDbDictionary
281
     1
  0
DICTIONARY
  5
1A
102
{ACAD_REACTORS
330
C
102
}
330
C
100
AcDbDictionary
281
     1
  3
Layout1
350
1E
  3
Layout2
350
26
  3
Model
350
22
  0
DICTIONARY
  5
43
102
{ACAD_REACTORS
330
C
102
}
330
C
100
AcDbDictionary
281
     1
  3
ByBlock
350
45
  3
ByLayer
350
44
  3
Global
350
46
  0
DICTIONARY
  5
6B
102
{ACAD_REACTORS
330
C
102
}
330
C
100
AcDbDictionary
281
     1
  3
Standard
350
6C
  0
DICTIONARY
  5
17
102
{ACAD_REACTORS
330
C
102
}
330
C
100
AcDbDictionary
281
     1
  3
Standard
350
18
  0
DICTIONARY
  5
19
102
{ACAD_REACTORS
330
C
102
}
330
C
100
AcDbDictionary
281
     1
  0
ACDBDICTIONARYWDFLT
  5
E
102
{ACAD_REACTORS
330
C
102
}
330
C
100
AcDbDictionary
281
     1
  3
Normal
350
F
100
AcDbDictionaryWithDefault
340
F
  0
DICTIONARY
  5
47
102
{ACAD_REACTORS
330
C
102
}
330
C
100
AcDbDictionary
281
     1
  3
A0
350
48
  3
A1
350
49
  3
A2
350
4A
  3
A3
350
4B
  3
A4
350
4C
  3
A5
350
4D
  3
A6
350
4E
  3
A7
350
4F
  3
A8
350
50
  3
A9
350
51
  3
B0
350
52
  3
B1
350
53
  3
B2
350
54
  3
B3
350
55
  3
B4
350
56
  3
B5
350
57
  3
B6
350
58
  3
B7
350
59
  3
B8
350
5A
  3
B9
350
5B
  3
C0
350
5C
  3
C1
350
5D
  3
C2
350
5E
  3
C3
350
5F
  3
C4
350
60
  3
C5
350
61
  3
C6
350
62
  3
C7
350
63
  3
C8
350
64
  3
C9
350
65
  3
D0
350
66
  3
D1
350
67
  3
D2
350
68
  0
DICTIONARY
  5
189
102
{ACAD_REACTORS
330
C
102
}
330
C
100
AcDbDictionary
281
     1
  0
DICTIONARY
  5
69
102
{ACAD_REACTORS
330
C
102
}
330
C
100
AcDbDictionary
281
     1
  3
Standard
350
6A
  0
DICTIONARY
  5
2A
102
{ACAD_REACTORS
330
C
102
}
330
C
100
AcDbDictionary
281
     1
  3
2dWireframe
350
2F
  3
Basic
350
32
  3
Brighten
350
36
  3
ColorChange
350
3A
  3
Conceptual
350
34
  3
Dim
350
35
  3
EdgeColorOff
350
3D
  3
Facepattern
350
39
  3
Flat
350
2B
  3
FlatWithEdges
350
2C
  3
Gouraud
350
2D
  3
GouraudWithEdges
350
2E
  3
Hidden
350
31
  3
JitterOff
350
3B
  3
Linepattern
350
38
  3
OverhangOff
350
3C
  3
Realistic
350
33
  3
Shaded
350
42
  3
Shaded with edges
350
41
  3
Shades of Gray
350
3E
  3
Sketchy
350
3F
  3
Thicken
350
37
  3
Wireframe
350
30
  3
X-Ray
350
40
  0
XRECORD
  5
185
102
{ACAD_REACTORS
330
C
102
}
330
C
100
AcDbXrecord
280
     1
 90
        1
330
6A
  0
DICTIONARY
  5
180
102
{ACAD_REACTORS
330
C
102
}
330
C
100
AcDbDictionary
281
     1
  3
CANNOSCALE
350
181
  3
CMLEADERSTYLE
350
187
  3
CTABLESTYLE
350
186
  0
LAYOUT
  5
1E
102
{ACAD_REACTORS
330
1A
102
}
330
1A
100
AcDbPlotSettings
  1

  2
none_device
  4

  6

 40
0.0
 41
0.0
 42
0.0
 43
0.0
 44
0.0
 45
0.0
 46
0.0
 47
0.0
 48
0.0
 49
0.0
140
0.0
141
0.0
142
1.0
143
1.0
 70
   688
 72
     0
 73
     0
 74
     5
  7

 75
    16
 76
     0
 77
     2
 78
   300
147
1.0
148
0.0
149
0.0
100
AcDbLayout
  1
Layout1
 70
     1
 71
     1
 10
0.0
 20
0.0
 11
12.0
 21
9.0
 12
0.0
 22
0.0
 32
0.0
 14
1.0000000000E+20
 24
1.0000000000E+20
 34
1.0000000000E+20
 15
-1.0000000000E+20
 25
-1.0000000000E+20
 35
-1.0000000000E+20
146
0.0
 13
0.0
 23
0.0
 33
0.0
 16
1.0
 26
0.0
 36
0.0
 17
0.0
 27
1.0
 37
0.0
 76
     0
330
1B
  0
LAYOUT
  5
26
102
{ACAD_REACTORS
330
1A
102
}
330
1A
100
AcDbPlotSettings
  1

  2
none_device
  4

  6

 40
0.0
 41
0.0
 42
0.0
 43
0.0
 44
0.0
 45
0.0
 46
0.0
 47
0.0
 48
0.0
 49
0.0
140
0.0
141
0.0
142
1.0
143
1.0
 70
   688
 72
     0
 73
     0
 74
     5
  7

 75
    16
 76
     0
 77
     2
 78
   300
147
1.0
148
0.0
149
0.0
100
AcDbLayout
  1
Layout2
 70
     1
 71
     2
 10
0.0
 20
0.0
 11
0.0
 21
0.0
 12
0.0
 22
0.0
 32
0.0
 14
0.0
 24
0.0
 34
0.0
 15
0.0
 25
0.0
 35
0.0
146
0.0
 13
0.0
 23
0.0
 33
0.0
 16
1.0
 26
0.0
 36
0.0
 17
0.0
 27
1.0
 37
0.0
 76
     0
330
23
  0
LAYOUT
  5
22
102
{ACAD_REACTORS
330
1A
102
}
330
1A
100
AcDbPlotSettings
  1

  2
none_device
  4
Letter_(8.50_x_11.00_Inches)
  6

 40
6.35
 41
6.35
 42
6.35000508
 43
6.35000508
 44
215.9
 45
279.4
 46
0.0
 47
0.0
 48
0.0
 49
0.0
140
0.0
141
0.0
142
1.0
143
1.0
 70
  1712
 72
     0
 73
     0
 74
     0
  7

 75
     0
 76
     0
 77
     2
 78
   300
147
1.0
148
0.0
149
0.0
100
AcDbLayout
  1
Model
 70
     1
 71
     0
 10
0.0
 20
0.0
 11
34.0
 21
22.0
 12
0.0
 22
0.0
 32
0.0
 14
0.0
 24
0.0
 34
0.0
 15
34.0
 25
22.0
 35
0.0
146
0.0
 13
0.0
 23
0.0
 33
0.0
 16
1.0
 26
0.0
 36
0.0
 17
0.0
 27
1.0
 37
0.0
 76
     0
330
1F
331
29
  0
MATERIAL
  5
45
102
{ACAD_REACTORS
330
43
102
}
330
43
100
AcDbMaterial
  1
ByBlock
 72
     1
 94
      127
  0
MATERIAL
  5
44
102
{ACAD_REACTORS
330
43
102
}
330
43
100
AcDbMaterial
  1
ByLayer
 72
     1
 94
      127
  0
MATERIAL
  5
46
102
{ACAD_REACTORS
330
43
102
}
330
43
100
AcDbMaterial
  1
Global
 72
     1
 94
      127
  0
MLEADERSTYLE
  5
6C
102
{ACAD_REACTORS
330
6B
102
}
330
6B
100
AcDbMLeaderStyle
170
     2
171
     1
172
     0
 90
        2
 40
0.0
 41
0.0
173
     1
 91
-1056964608
340
14
 92
       -2
290
     1
 42
0.09
291
     1
 43
0.36
  3
Standard
341
0
 44
0.18
300

342
11
174
     1
178
     6
175
     1
176
     0
 93
-1056964608
 45
0.18
292
     0
297
     0
 46
0.18
343
0
 94
-1056964608
 47
1.0
 49
1.0
140
1.0
293
     1
141
0.0
294
     1
177
     0
142
1.0
295
     0
296
     0
143
0.125
1001
ACAD_MLEADERVER
1070
     2
  0
MLINESTYLE
  5
18
102
{ACAD_REACTORS
330
17
102
}
330
17
100
AcDbMlineStyle
  2
Standard
 70
     0
  3

 62
   256
 51
90.0
 52
90.0
 71
     2
 49
0.5
 62
   256
  6
BYLAYER
 49
-0.5
 62
   256
  6
BYLAYER
  0
ACDBPLACEHOLDER
  5
F
102
{ACAD_REACTORS
330
E
102
}
330
E
  0
SCALE
  5
48
102
{ACAD_REACTORS
330
47
102
}
330
47
100
AcDbScale
 70
     0
300
1:1
140
1.0
141
1.0
290
     1
  0
SCALE
  5
49
102
{ACAD_REACTORS
330
47
102
}
330
47
100
AcDbScale
 70
     0
300
1:2
140
1.0
141
2.0
290
     0
  0
SCALE
  5
4A
102
{ACAD_REACTORS
330
47
102
}
330
47
100
AcDbScale
 70
     0
300
1:4
140
1.0
141
4.0
290
     0
  0
SCALE
  5
4B
102
{ACAD_REACTORS
330
47
102
}
330
47
100
AcDbScale
 70
     0
300
1:5
140
1.0
141
5.0
290
     0
  0
SCALE
  5
4C
102
{ACAD_REACTORS
330
47
102
}
330
47
100
AcDbScale
 70
     0
300
1:8
140
1.0
141
8.0
290
     0
  0
SCALE
  5
4D
102
{ACAD_REACTORS
330
47
102
}
330
47
100
AcDbScale
 70
     0
300
1:10
140
1.0
141
10.0
290
     0
  0
SCALE
  5
4E
102
{ACAD_REACTORS
330
47
102
}
330
47
100
AcDbScale
 70
     0
300
1:16
140
1.0
141
16.0
290
     0
  0
SCALE
  5
4F
102
{ACAD_REACTORS
330
47
102
}
330
47
100
AcDbScale
 70
     0
300
1:20
140
1.0
141
20.0
290
     0
  0
SCALE
  5
50
102
{ACAD_REACTORS
330
47
102
}
330
47
100
AcDbScale
 70
     0
300
1:30
140
1.0
141
30.0
290
     0
  0
SCALE
  5
51
102
{ACAD_REACTORS
330
47
102
}
330
47
100
AcDbScale
 70
     0
300
1:40
140
1.0
141
40.0
290
     0
  0
SCALE
  5
52
102
{ACAD_REACTORS
330
47
102
}
330
47
100
AcDbScale
 70
     0
300
1:50
140
1.0
141
50.0
290
     0
  0
SCALE
  5
53
102
{ACAD_REACTORS
330
47
102
}
330
47
100
AcDbScale
 70
     0
300
1:100
140
1.0
141
100.0
290
     0
  0
SCALE
  5
54
102
{ACAD_REACTORS
330
47
102
}
330
47
100
AcDbScale
 70
     0
300
2:1
140
2.0
141
1.0
290
     0
  0
SCALE
  5
55
102
{ACAD_REACTORS
330
47
102
}
330
47
100
AcDbScale
 70
     0
300
4:1
140
4.0
141
1.0
290
     0
  0
SCALE
  5
56
102
{ACAD_REACTORS
330
47
102
}
330
47
100
AcDbScale
 70
     0
300
8:1
140
8.0
141
1.0
290
     0
  0
SCALE
  5
57
102
{ACAD_REACTORS
330
47
102
}
330
47
100
AcDbScale
 70
     0
300
10:1
140
10.0
141
1.0
290
     0
  0
SCALE
  5
58
102
{ACAD_REACTORS
330
47
102
}
330
47
100
AcDbScale
 70
     0
300
100:1
140
100.0
141
1.0
290
     0
  0
SCALE
  5
59
102
{ACAD_REACTORS
330
47
102
}
330
47
100
AcDbScale
 70
     0
300
1/128" = 1'-0"
140
0.0078125
141
12.0
290
     0
  0
SCALE
  5
5A
102
{ACAD_REACTORS
330
47
102
}
330
47
100
AcDbScale
 70
     0
300
1/64" = 1'-0"
140
0.015625
141
12.0
290
     0
  0
SCALE
  5
5B
102
{ACAD_REACTORS
330
47
102
}
330
47
100
AcDbScale
 70
     0
300
1/32" = 1'-0"
140
0.03125
141
12.0
290
     0
  0
SCALE
  5
5C
102
{ACAD_REACTORS
330
47
102
}
330
47
100
AcDbScale
 70
     0
300
1/16" = 1'-0"
140
0.0625
141
12.0
290
     0
  0
SCALE
  5
5D
102
{ACAD_REACTORS
330
47
102
}
330
47
100
AcDbScale
 70
     0
300
3/32" = 1'-0"
140
0.09375
141
12.0
290
     0
  0
SCALE
  5
5E
102
{ACAD_REACTORS
330
47
102
}
330
47
100
AcDbScale
 70
     0
300
1/8" = 1'-0"
140
0.125
141
12.0
290
     0
  0
SCALE
  5
5F
102
{ACAD_REACTORS
330
47
102
}
330
47
100
AcDbScale
 70
     0
300
3/16" = 1'-0"
140
0.1875
141
12.0
290
     0
  0
SCALE
  5
60
102
{ACAD_REACTORS
330
47
102
}
330
47
100
AcDbScale
 70
     0
300
1/4" = 1'-0"
140
0.25
141
12.0
290
     0
  0
SCALE
  5
61
102
{ACAD_REACTORS
330
47
102
}
330
47
100
AcDbScale
 70
     0
300
3/8" = 1'-0"
140
0.375
141
12.0
290
     0
  0
SCALE
  5
62
102
{ACAD_REACTORS
330
47
102
}
330
47
100
AcDbScale
 70
     0
300
1/2" = 1'-0"
140
0.5
141
12.0
290
     0
  0
SCALE
  5
63
102
{ACAD_REACTORS
330
47
102
}
330
47
100
AcDbScale
 70
     0
300
3/4" = 1'-0"
140
0.75
141
12.0
290
     0
  0
SCALE
  5
64
102
{ACAD_REACTORS
330
47
102
}
330
47
100
AcDbScale
 70
     0
300
1" = 1'-0"
140
1.0
141
12.0
290
     0
  0
SCALE
  5
65
102
{ACAD_REACTORS
330
47
102
}
330
47
100
AcDbScale
 70
     0
300
1-1/2" = 1'-0"
140
1.5
141
12.0
290
     0
  0
SCALE
  5
66
102
{ACAD_REACTORS
330
47
102
}
330
47
100
AcDbScale
 70
     0
300
3" = 1'-0"
140
3.0
141
12.0
290
     0
  0
SCALE
  5
67
102
{ACAD_REACTORS
330
47
102
}
330
47
100
AcDbScale
 70
     0
300
6" = 1'-0"
140
6.0
141
12.0
290
     0
  0
SCALE
  5
68
102
{ACAD_REACTORS
330
47
102
}
330
47
100
AcDbScale
 70
     0
300
1'-0" = 1'-0"
140
12.0
141
12.0
290
     0
  0
TABLESTYLE
  5
6A
102
{ACAD_REACTORS
330
69
102
}
102
{ACAD_XDICTIONARY
360
182
102
}
330
69
100
AcDbTableStyle
  3
Standard
 70
     0
 71
     0
 40
0.06
 41
0.06
280
     0
281
     0
  7
Standard
140
0.18
170
     2
 62
     0
 63
   257
283
     0
 90
        4
 91
        0
  1

274
    -2
284
     1
 64
     0
275
    -2
285
     1
 65
     0
276
    -2
286
     1
 66
     0
277
    -2
287
     1
 67
     0
278
    -2
288
     1
 68
     0
279
    -2
289
     1
 69
     0
  7
Standard
140
0.25
170
     5
 62
     0
 63
   257
283
     0
 90
        4
 91
        0
  1

274
    -2
284
     1
 64
     0
275
    -2
285
     1
 65
     0
276
    -2
286
     1
 66
     0
277
    -2
287
     1
 67
     0
278
    -2
288
     1
 68
     0
279
    -2
289
     1
 69
     0
  7
Standard
140
0.18
170
     5
 62
     0
 63
   257
283
     0
 90
        4
 91
        0
  1

274
    -2
284
     1
 64
     0
275
    -2
285
     1
 65
     0
276
    -2
286
     1
 66
     0
277
    -2
287
     1
 67
     0
278
    -2
288
     1
 68
     0
279
    -2
289
     1
 69
     0
  0
VISUALSTYLE
  5
2F
102
{ACAD_REACTORS
330
2A
102
}
330
2A
100
AcDbVisualStyle
  2
2dWireframe
 70
     4
 71
     0
 72
     2
 73
     0
 90
        0
 40
0.6
 41
30.0
 62
     5
 63
     7
421
 16777215
 74
     1
 91
        4
 64
     7
 65
   257
 75
     1
175
     1
 42
1.0
 92
        0
 66
   257
 43
1.0
 76
     1
 77
     6
 78
     2
 67
     7
 79
     5
170
     0
171
     0
290
     0
174
     0
 93
        1
 44
0.0
173
     0
291
     0
 45
0.0
  0
VISUALSTYLE
  5
32
102
{ACAD_REACTORS
330
2A
102
}
330
2A
100
AcDbVisualStyle
  2
Basic
 70
     7
 71
     1
 72
     0
 73
     1
 90
        0
 40
0.6
 41
30.0
 62
     5
 63
     7
421
 16777215
 74
     0
 91
        4
 64
     7
 65
   257
 75
     1
175
     1
 42
1.0
 92
        8
 66
     7
 43
1.0
 76
     1
 77
     6
 78
     2
 67
     7
 79
     5
170
     0
171
     0
290
     0
174
     0
 93
        1
 44
0.0
173
     0
291
     1
 45
0.0
  0
VISUALSTYLE
  5
36
102
{ACAD_REACTORS
330
2A
102
}
330
2A
100
AcDbVisualStyle
  2
Brighten
 70
    12
 71
     2
 72
     2
 73
     0
 90
        0
 40
0.6
 41
30.0
 62
     5
 63
     7
421
 16777215
 74
     1
 91
        4
 64
     7
 65
   257
 75
     1
175
     1
 42
1.0
 92
        8
 66
     7
 43
1.0
 76
     1
 77
     6
 78
     2
 67
     7
 79
     5
170
     0
171
     0
290
     0
174
     0
 93
        1
 44
50.0
173
     0
291
     1
 45
0.0
  0
VISUALSTYLE
  5
3A
102
{ACAD_REACTORS
330
2A
102
}
330
2A
100
AcDbVisualStyle
  2
ColorChange
 70
    16
 71
     2
 72
     2
 73
     3
 90
        0
 40
0.6
 41
30.0
 62
     5
 63
     8
421
  8421504
 74
     1
 91
        4
 64
     7
 65
   257
 75
     1
175
     1
 42
1.0
 92
        8
 66
     8
424
  8421504
 43
1.0
 76
     1
 77
     6
 78
     2
 67
     7
 79
     5
170
     0
171
     0
290
     0
174
     0
 93
        1
 44
0.0
173
     0
291
     1
 45
0.0
  0
VISUALSTYLE
  5
34
102
{ACAD_REACTORS
330
2A
102
}
330
2A
100
AcDbVisualStyle
  2
Conceptual
 70
     9
 71
     3
 72
     2
 73
     0
 90
        0
 40
0.6
 41
30.0
 62
     5
 63
     7
421
 16777215
 74
     2
 91
        2
 64
     7
 65
   257
 75
     1
175
     1
 42
179.0
 92
        8
 66
     7
 43
1.0
 76
     1
 77
     6
 78
     2
 67
     7
 79
     3
170
     0
171
     0
290
     0
174
     0
 93
        1
 44
0.0
173
     0
291
     0
 45
0.0
  0
VISUALSTYLE
  5
35
102
{ACAD_REACTORS
330
2A
102
}
330
2A
100
AcDbVisualStyle
  2
Dim
 70
    11
 71
     2
 72
     2
 73
     0
 90
        0
 40
0.6
 41
30.0
 62
     5
 63
     7
421
 16777215
 74
     1
 91
        4
 64
     7
 65
   257
 75
     1
175
     1
 42
1.0
 92
        8
 66
     7
 43
1.0
 76
     1
 77
     6
 78
     2
 67
     7
 79
     5
170
     0
171
     0
290
     0
174
     0
 93
        1
 44
-50.0
173
     0
291
     1
 45
0.0
  0
VISUALSTYLE
  5
3D
102
{ACAD_REACTORS
330
2A
102
}
330
2A
100
AcDbVisualStyle
  2
EdgeColorOff
 70
    22
 71
     2
 72
     2
 73
     0
 90
        0
 40
0.6
 41
30.0
 62
     5
 63
     7
421
 16777215
 74
     1
 91
        4
 64
     7
 65
   257
 75
     1
175
     1
 42
1.0
 92
        8
 66
     7
 43
1.0
 76
     1
 77
     6
 78
     2
 67
     7
 79
     5
170
     0
171
     0
290
     0
174
     0
 93
        1
 44
0.0
173
     0
291
     1
 45
0.0
  0
VISUALSTYLE
  5
39
102
{ACAD_REACTORS
330
2A
102
}
330
2A
100
AcDbVisualStyle
  2
Facepattern
 70
    15
 71
     2
 72
     2
 73
     0
 90
        0
 40
0.6
 41
30.0
 62
     5
 63
     7
421
 16777215
 74
     1
 91
        4
 64
     7
 65
   257
 75
     1
175
     1
 42
1.0
 92
        8
 66
     7
 43
1.0
 76
     1
 77
     6
 78
     2
 67
     7
 79
     5
170
     0
171
     0
290
     0
174
     0
 93
        1
 44
0.0
173
     0
291
     1
 45
0.0
  0
VISUALSTYLE
  5
2B
102
{ACAD_REACTORS
330
2A
102
}
330
2A
100
AcDbVisualStyle
  2
Flat
 70
     0
 71
     2
 72
     1
 73
     1
 90
        2
 40
0.6
 41
30.0
 62
     5
 63
     7
421
 16777215
 74
     0
 91
        0
 64
     7
 65
   257
 75
     1
175
     1
 42
1.0
 92
        8
 66
     7
 43
1.0
 76
     1
 77
     6
 78
     2
 67
     7
 79
     5
170
     0
171
     0
290
     0
174
     0
 93
       13
 44
0.0
173
     0
291
     1
 45
0.0
  0
VISUALSTYLE
  5
2C
102
{ACAD_REACTORS
330
2A
102
}
330
2A
100
AcDbVisualStyle
  2
FlatWithEdges
 70
     1
 71
     2
 72
     1
 73
     1
 90
        2
 40
0.6
 41
30.0
 62
     5
 63
     7
421
 16777215
 74
     1
 91
        0
 64
     7
 65
   257
 75
     1
175
     1
 42
1.0
 92
        0
 66
   257
 43
1.0
 76
     1
 77
     6
 78
     2
 67
     7
 79
     5
170
     0
171
     0
290
     0
174
     0
 93
       13
 44
0.0
173
     0
291
     1
 45
0.0
  0
VISUALSTYLE
  5
2D
102
{ACAD_REACTORS
330
2A
102
}
330
2A
100
AcDbVisualStyle
  2
Gouraud
 70
     2
 71
     2
 72
     2
 73
     1
 90
        2
 40
0.6
 41
30.0
 62
     5
 63
     7
421
 16777215
 74
     0
 91
        0
 64
     7
 65
   257
 75
     1
175
     1
 42
1.0
 92
        0
 66
     7
 43
1.0
 76
     1
 77
     6
 78
     2
 67
     7
 79
     5
170
     0
171
     0
290
     0
174
     0
 93
       13
 44
0.0
173
     0
291
     1
 45
0.0
  0
VISUALSTYLE
  5
2E
102
{ACAD_REACTORS
330
2A
102
}
330
2A
100
AcDbVisualStyle
  2
GouraudWithEdges
 70
     3
 71
     2
 72
     2
 73
     1
 90
        2
 40
0.6
 41
30.0
 62
     5
 63
     7
421
 16777215
 74
     1
 91
        0
 64
     7
 65
   257
 75
     1
175
     1
 42
1.0
 92
        0
 66
   257
 43
1.0
 76
     1
 77
     6
 78
     2
 67
     7
 79
     5
170
     0
171
     0
290
     0
174
     0
 93
       13
 44
0.0
173
     0
291
     1
 45
0.0
  0
VISUALSTYLE
  5
31
102
{ACAD_REACTORS
330
2A
102
}
330
2A
100
AcDbVisualStyle
  2
Hidden
 70
     6
 71
     1
 72
     2
 73
     2
 90
        0
 40
0.6
 41
30.0
 62
     5
 63
     7
421
 16777215
 74
     2
 91
        2
 64
     7
 65
   257
 75
     2
175
     1
 42
40.0
 92
        0
 66
   257
 43
1.0
 76
     1
 77
     6
 78
     2
 67
     7
 79
     3
170
     0
171
     0
290
     0
174
     0
 93
        1
 44
0.0
173
     0
291
     0
 45
0.0
  0
VISUALSTYLE
  5
3B
102
{ACAD_REACTORS
330
2A
102
}
330
2A
100
AcDbVisualStyle
  2
JitterOff
 70
    20
 71
     2
 72
     2
 73
     0
 90
        0
 40
0.6
 41
30.0
 62
     5
 63
     7
421
 16777215
 74
     1
 91
        4
 64
     7
 65
   257
 75
     1
175
     1
 42
1.0
 92
       10
 66
     7
 43
1.0
 76
     1
 77
     6
 78
     2
 67
     7
 79
     5
170
     0
171
     0
290
     0
174
     0
 93
        1
 44
0.0
173
     0
291
     1
 45
0.0
  0
VISUALSTYLE
  5
38
102
{ACAD_REACTORS
330
2A
102
}
330
2A
100
AcDbVisualStyle
  2
Linepattern
 70
    14
 71
     2
 72
     2
 73
     0
 90
        0
 40
0.6
 41
30.0
 62
     5
 63
     7
421
 16777215
 74
     1
 91
        4
 64
     7
 65
   257
 75
     7
175
     7
 42
1.0
 92
        8
 66
     7
 43
1.0
 76
     1
 77
     6
 78
     2
 67
     7
 79
     5
170
     0
171
     0
290
     0
174
     0
 93
        1
 44
0.0
173
     0
291
     1
 45
0.0
  0
VISUALSTYLE
  5
3C
102
{ACAD_REACTORS
330
2A
102
}
330
2A
100
AcDbVisualStyle
  2
OverhangOff
 70
    21
 71
     2
 72
     2
 73
     0
 90
        0
 40
0.6
 41
30.0
 62
     5
 63
     7
421
 16777215
 74
     1
 91
        4
 64
     7
 65
   257
 75
     1
175
     1
 42
1.0
 92
        9
 66
     7
 43
1.0
 76
     1
 77
     6
 78
     2
 67
     7
 79
     5
170
     0
171
     0
290
     0
174
     0
 93
        1
 44
0.0
173
     0
291
     1
 45
0.0
  0
VISUALSTYLE
  5
33
102
{ACAD_REACTORS
330
2A
102
}
330
2A
100
AcDbVisualStyle
  2
Realistic
 70
     8
 71
     2
 72
     3
 73
     0
 90
        2
 40
0.6
 41
30.0
 62
     5
 63
     7
421
 16777215
 74
     0
 91
        0
 64
     7
 65
   257
 75
     1
175
     1
 42
1.0
 92
        8
 66
   257
 43
1.0
 76
     1
 77
     6
 78
     2
 67
     7
 79
     3
170
     0
171
     0
290
     0
174
     0
 93
       13
 44
0.0
173
     0
291
     0
 45
0.0
  0
VISUALSTYLE
  5
42
102
{ACAD_REACTORS
330
2A
102
}
330
2A
100
AcDbVisualStyle
  2
Shaded
 70
    27
 71
     2
 72
     2
 73
     1
 90
        2
 40
0.6
 41
30.0
 62
     5
 63
     7
421
 16777215
 74
     0
 91
        4
 64
     7
 65
   257
 75
     1
175
     1
 42
1.0
 92
        8
 66
   257
 43
1.0
 76
     1
 77
     6
 78
     2
 67
     8
425
  7895160
 79
     3
170
     0
171
     0
290
     0
174
     0
 93
        5
 44
0.0
173
     0
291
     0
 45
0.0
  0
VISUALSTYLE
  5
41
102
{ACAD_REACTORS
330
2A
102
}
330
2A
100
AcDbVisualStyle
  2
Shaded with edges
 70
    26
 71
     2
 72
     2
 73
     1
 90
        2
 40
0.6
 41
30.0
 62
     5
 63
     7
421
 16777215
 74
     1
 91
       10
 64
     7
 65
   257
 75
     2
175
     1
 42
1.0
 92
        8
 66
   257
 43
1.0
 76
     1
 77
     6
 78
     2
 67
     7
 79
     3
170
     0
171
     0
290
     0
174
     0
 93
        5
 44
0.0
173
     0
291
     0
 45
0.0
  0
VISUALSTYLE
  5
3E
102
{ACAD_REACTORS
330
2A
102
}
330
2A
100
AcDbVisualStyle
  2
Shades of Gray
 70
    23
 71
     2
 72
     2
 73
     3
 90
        0
 40
0.6
 41
30.0
 62
     5
 63
     7
421
 16777215
 74
     2
 91
        2
 64
     7
 65
     7
 75
     1
175
     1
 42
40.0
 92
        8
 66
     7
 43
1.0
 76
     1
 77
     6
 78
     2
 67
     7
 79
     3
170
     0
171
     0
290
     0
174
     0
 93
        1
 44
0.0
173
     0
291
     0
 45
0.0
  0
VISUALSTYLE
  5
3F
102
{ACAD_REACTORS
330
2A
102
}
330
2A
100
AcDbVisualStyle
  2
Sketchy
 70
    24
 71
     1
 72
     2
 73
     2
 90
        0
 40
0.6
 41
30.0
 62
     5
 63
     7
421
 16777215
 74
     2
 91
        2
 64
     7
 65
     7
 75
     1
175
     1
 42
40.0
 92
       11
 66
     7
 43
1.0
 76
     1
 77
     6
 78
     2
 67
     7
 79
     6
170
     0
171
     0
290
     0
174
     0
 93
        1
 44
0.0
173
     0
291
     0
 45
0.0
  0
VISUALSTYLE
  5
37
102
{ACAD_REACTORS
330
2A
102
}
330
2A
100
AcDbVisualStyle
  2
Thicken
 70
    13
 71
     2
 72
     2
 73
     0
 90
        0
 40
0.6
 41
30.0
 62
     5
 63
     7
421
 16777215
 74
     1
 91
        4
 64
     7
 65
   257
 75
     1
175
     1
 42
1.0
 92
       12
 66
     7
 43
1.0
 76
     1
 77
     6
 78
     2
 67
     7
 79
     5
170
     0
171
     0
290
     0
174
     0
 93
        1
 44
0.0
173
     0
291
     1
 45
0.0
  0
VISUALSTYLE
  5
30
102
{ACAD_REACTORS
330
2A
102
}
330
2A
100
AcDbVisualStyle
  2
Wireframe
 70
     5
 71
     0
 72
     2
 73
     0
 90
        0
 40
0.6
 41
30.0
 62
     5
 63
     7
421
 16777215
 74
     1
 91
        4
 64
     7
 65
   257
 75
     1
175
     1
 42
1.0
 92
        0
 66
   257
 43
1.0
 76
     1
 77
     6
 78
     2
 67
     7
 79
     3
170
     0
171
     0
290
     0
174
     0
 93
        1
 44
0.0
173
     0
291
     0
 45
0.0
  0
VISUALSTYLE
  5
40
102
{ACAD_REACTORS
330
2A
102
}
330
2A
100
AcDbVisualStyle
  2
X-Ray
 70
    25
 71
     2
 72
     2
 73
     1
 90
        1
 40
0.5
 41
30.0
 62
     5
 63
     7
421
 16777215
 74
     1
 91
        0
 64
     7
 65
   257
 75
     1
175
     1
 42
1.0
 92
        8
 66
     7
 43
1.0
 76
     1
 77
     6
 78
     2
 67
     7
 79
     3
170
     0
171
     0
290
     0
174
     0
 93
       13
 44
0.0
173
     0
291
     0
 45
0.0
  0
DICTIONARYVAR
  5
181
102
{ACAD_REACTORS
330
180
102
}
330
180
100
DictionaryVariables
280
     0
  1
1:1
  0
DICTIONARYVAR
  5
187
102
{ACAD_REACTORS
330
180
102
}
330
180
100
DictionaryVariables
280
     0
  1
Standard
  0
DICTIONARYVAR
  5
186
102
{ACAD_REACTORS
330
180
102
}
330
180
100
DictionaryVariables
280
     0
  1
Standard
  0
DICTIONARY
  5
182
330
6A
100
AcDbDictionary
280
     1
281
     1
  3
ACAD_ROUNDTRIP_2008_TABLESTYLE_CELLSTYLEMAP
360
183
  0
CELLSTYLEMAP
  5
183
102
{ACAD_REACTORS
330
182
102
}
330
182
100
AcDbCellStyleMap
 90
        3
300
CELLSTYLE
  1
TABLEFORMAT_BEGIN
 90
        5
170
     1
 91
        0
 92
    32768
 62
   257
 93
        1
300
CONTENTFORMAT
  1
CONTENTFORMAT_BEGIN
 90
        0
 91
        0
 92
        4
 93
        0
300

 40
0.0
140
1.0
 94
        5
 62
     0
340
11
144
0.25
309
CONTENTFORMAT_END
171
     1
301
MARGIN
  1
CELLMARGIN_BEGIN
 40
0.06
 40
0.06
 40
0.06
 40
0.06
 40
0.06
 40
0.06
309
CELLMARGIN_END
 94
        6
 95
        1
302
GRIDFORMAT
  1
GRIDFORMAT_BEGIN
 90
        0
 91
        1
 62
     0
 92
       -2
340
14
 93
        0
 40
0.045
309
GRIDFORMAT_END
 95
        2
302
GRIDFORMAT
  1
GRIDFORMAT_BEGIN
 90
        0
 91
        1
 62
     0
 92
       -2
340
14
 93
        0
 40
0.045
309
GRIDFORMAT_END
 95
        4
302
GRIDFORMAT
  1
GRIDFORMAT_BEGIN
 90
        0
 91
        1
 62
     0
 92
       -2
340
14
 93
        0
 40
0.045
309
GRIDFORMAT_END
 95
        8
302
GRIDFORMAT
  1
GRIDFORMAT_BEGIN
 90
        0
 91
        1
 62
     0
 92
       -2
340
14
 93
        0
 40
0.045
309
GRIDFORMAT_END
 95
       16
302
GRIDFORMAT
  1
GRIDFORMAT_BEGIN
 90
        0
 91
        1
 62
     0
 92
       -2
340
14
 93
        0
 40
0.045
309
GRIDFORMAT_END
 95
       32
302
GRIDFORMAT
  1
GRIDFORMAT_BEGIN
 90
        0
 91
        1
 62
     0
 92
       -2
340
14
 93
        0
 40
0.045
309
GRIDFORMAT_END
309
TABLEFORMAT_END
  1
CELLSTYLE_BEGIN
 90
        1
 91
        1
300
_TITLE
309
CELLSTYLE_END
300
CELLSTYLE
  1
TABLEFORMAT_BEGIN
 90
        5
170
     1
 91
        0
 92
        0
 62
   257
 93
        1
300
CONTENTFORMAT
  1
CONTENTFORMAT_BEGIN
 90
        0
 91
        0
 92
        4
 93
        0
300

 40
0.0
140
1.0
 94
        5
 62
     0
340
11
144
0.18
309
CONTENTFORMAT_END
171
     1
301
MARGIN
  1
CELLMARGIN_BEGIN
 40
0.06
 40
0.06
 40
0.06
 40
0.06
 40
0.06
 40
0.06
309
CELLMARGIN_END
 94
        6
 95
        1
302
GRIDFORMAT
  1
GRIDFORMAT_BEGIN
 90
        0
 91
        1
 62
     0
 92
       -2
340
14
 93
        0
 40
0.045
309
GRIDFORMAT_END
 95
        2
302
GRIDFORMAT
  1
GRIDFORMAT_BEGIN
 90
        0
 91
        1
 62
     0
 92
       -2
340
14
 93
        0
 40
0.045
309
GRIDFORMAT_END
 95
        4
302
GRIDFORMAT
  1
GRIDFORMAT_BEGIN
 90
        0
 91
        1
 62
     0
 92
       -2
340
14
 93
        0
 40
0.045
309
GRIDFORMAT_END
 95
        8
302
GRIDFORMAT
  1
GRIDFORMAT_BEGIN
 90
        0
 91
        1
 62
     0
 92
       -2
340
14
 93
        0
 40
0.045
309
GRIDFORMAT_END
 95
       16
302
GRIDFORMAT
  1
GRIDFORMAT_BEGIN
 90
        0
 91
        1
 62
     0
 92
       -2
340
14
 93
        0
 40
0.045
309
GRIDFORMAT_END
 95
       32
302
GRIDFORMAT
  1
GRIDFORMAT_BEGIN
 90
        0
 91
        1
 62
     0
 92
       -2
340
14
 93
        0
 40
0.045
309
GRIDFORMAT_END
309
TABLEFORMAT_END
  1
CELLSTYLE_BEGIN
 90
        2
 91
        1
300
_HEADER
309
CELLSTYLE_END
300
CELLSTYLE
  1
TABLEFORMAT_BEGIN
 90
        5
170
     1
 91
        0
 92
        0
 62
   257
 93
        1
300
CONTENTFORMAT
  1
CONTENTFORMAT_BEGIN
 90
        0
 91
        0
 92
        4
 93
        0
300

 40
0.0
140
1.0
 94
        2
 62
     0
340
11
144
0.18
309
CONTENTFORMAT_END
171
     1
301
MARGIN
  1
CELLMARGIN_BEGIN
 40
0.06
 40
0.06
 40
0.06
 40
0.06
 40
0.06
 40
0.06
309
CELLMARGIN_END
 94
        6
 95
        1
302
GRIDFORMAT
  1
GRIDFORMAT_BEGIN
 90
        0
 91
        1
 62
     0
 92
       -2
340
14
 93
        0
 40
0.045
309
GRIDFORMAT_END
 95
        2
302
GRIDFORMAT
  1
GRIDFORMAT_BEGIN
 90
        0
 91
        1
 62
     0
 92
       -2
340
14
 93
        0
 40
0.045
309
GRIDFORMAT_END
 95
        4
302
GRIDFORMAT
  1
GRIDFORMAT_BEGIN
 90
        0
 91
        1
 62
     0
 92
       -2
340
14
 93
        0
 40
0.045
309
GRIDFORMAT_END
 95
        8
302
GRIDFORMAT
  1
GRIDFORMAT_BEGIN
 90
        0
 91
        1
 62
     0
 92
       -2
340
14
 93
        0
 40
0.045
309
GRIDFORMAT_END
 95
       16
302
GRIDFORMAT
  1
GRIDFORMAT_BEGIN
 90
        0
 91
        1
 62
     0
 92
       -2
340
14
 93
        0
 40
0.045
309
GRIDFORMAT_END
 95
       32
302
GRIDFORMAT
  1
GRIDFORMAT_BEGIN
 90
        0
 91
        1
 62
     0
 92
       -2
340
14
 93
        0
 40
0.045
309
GRIDFORMAT_END
309
TABLEFORMAT_END
  1
CELLSTYLE_BEGIN
 90
        3
 91
        2
300
_DATA
309
CELLSTYLE_END
  0
ENDSEC
  0
EOF
