  0
SECTION
  2
HEADER
  9
$ACADVER
  1
AC1015
  9
$ACADMAINTVER
 70
     6
  9
$DWGCODEPAGE
  3
ANSI_1252
  9
$INSBASE
 10
0.0
 20
0.0
 30
0.0
  9
$EXTMIN
 10
0.0
 20
0.0
 30
0.0
  9
$EXTMAX
 10
34.0
 20
22.0
 30
0.0
  9
$LIMMIN
 10
0.0
 20
0.0
  9
$LIMMAX
 10
34.0
 20
22.0
  9
$ORTHOMODE
 70
     0
  9
$REGENMODE
 70
     1
  9
$FILLMODE
 70
     1
  9
$QTEXTMODE
 70
     0
  9
$MIRRTEXT
 70
     1
  9
$LTSCALE
 40
1.0
  9
$ATTMODE
 70
     1
  9
$TEXTSIZE
 40
0.2222222222
  9
$TRACEWID
 40
0.05
  9
$TEXTSTYLE
  7
STANDARD
  9
$CLAYER
  8
0
  9
$CELTYPE
  6
ByLayer
  9
$CECOLOR
 62
   256
  9
$CELTSCALE
 40
1.0
  9
$DISPSILH
 70
     0
  9
$DIMSCALE
 40
1.0
  9
$DIMASZ
 40
0.2022298177
  9
$DIMEXO
 40
0.05
  9
$DIMDLI
 40
0.38
  9
$DIMRND
 40
0.0
  9
$DIMDLE
 40
0.0
  9
$DIMEXE
 40
0.125
  9
$DIMTP
 40
0.0
  9
$DIMTM
 40
0.0
  9
$DIMTXT
 40
0.2777777778
  9
$DIMCEN
 40
0.09
  9
$DIMTSZ
 40
0.0
  9
$DIMTOL
 70
     0
  9
$DIMLIM
 70
     0
  9
$DIMTIH
 70
     1
  9
$DIMTOH
 70
     1
  9
$DIMSE1
 70
     0
  9
$DIMSE2
 70
     0
  9
$DIMTAD
 70
     0
  9
$DIMZIN
 70
     0
  9
$DIMBLK
  1

  9
$DIMASO
 70
     1
  9
$DIMSHO
 70
     1
  9
$DIMPOST
  1

  9
$DIMAPOST
  1

  9
$DIMALT
 70
     0
  9
$DIMALTD
 70
     2
  9
$DIMALTF
 40
25.4
  9
$DIMLFAC
 40
1.0
  9
$DIMTOFL
 70
     0
  9
$DIMTVP
 40
0.0
  9
$DIMTIX
 70
     0
  9
$DIMSOXD
 70
     0
  9
$DIMSAH
 70
     0
  9
$DIMBLK1
  1

  9
$DIMBLK2
  1

  9
$DIMSTYLE
  2
Standard
  9
$DIMCLRD
 70
     0
  9
$DIMCLRE
 70
     0
  9
$DIMCLRT
 70
     0
  9
$DIMTFAC
 40
1.0
  9
$DIMGAP
 40
0.06
  9
$DIMJUST
 70
     0
  9
$DIMSD1
 70
     0
  9
$DIMSD2
 70
     0
  9
$DIMTOLJ
 70
     1
  9
$DIMTZIN
 70
     0
  9
$DIMALTZ
 70
     0
  9
$DIMALTTZ
 70
     0
  9
$DIMUPT
 70
     0
  9
$DIMDEC
 70
     2
  9
$DIMTDEC
 70
     2
  9
$DIMALTU
 70
     2
  9
$DIMALTTD
 70
     2
  9
$DIMTXSTY
  7
STANDARD
  9
$DIMAUNIT
 70
     0
  9
$DIMADEC
 70
     0
  9
$DIMALTRND
 40
0.0
  9
$DIMAZIN
 70
     0
  9
$DIMDSEP
 70
    46
  9
$DIMATFIT
 70
     3
  9
$DIMFRAC
 70
     0
  9
$DIMLDRBLK
  1

  9
$DIMLUNIT
 70
     2
  9
$DIMLWD
 70
    -2
  9
$DIMLWE
 70
    -2
  9
$DIMTMOVE
 70
     0
  9
$LUNITS
 70
     2
  9
$LUPREC
 70
     2
  9
$SKETCHINC
 40
0.1
  9
$FILLETRAD
 40
0.5
  9
$AUNITS
 70
     0
  9
$AUPREC
 70
     0
  9
$MENU
  1
.
  9
$ELEVATION
 40
0.0
  9
$PELEVATION
 40
0.0
  9
$THICKNESS
 40
0.0
  9
$LIMCHECK
 70
     0
  9
$CHAMFERA
 40
0.0
  9
$CHAMFERB
 40
0.0
  9
$CHAMFERC
 40
0.0
  9
$CHAMFERD
 40
0.0
  9
$SKPOLY
 70
     0
  9
$TDCREATE
 40
2458914.55383213
  9
$TDUCREATE
 40
2458914.80383213
  9
$TDUPDATE
 40
2458914.553833912
  9
$TDUUPDATE
 40
2458914.803833912
  9
$TDINDWG
 40
0.0000000116
  9
$TDUSRTIMER
 40
0.0000000116
  9
$USRTIMER
 70
     1
  9
$ANGBASE
 50
0.0
  9
$ANGDIR
 70
     0
  9
$PDMODE
 70
     0
  9
$PDSIZE
 40
-1.0
  9
$PLINEWID
 40
0.0
  9
$SPLFRAME
 70
     0
  9
$SPLINETYPE
 70
     6
  9
$SPLINESEGS
 70
     8
  9
$HANDSEED
  5
267
  9
$SURFTAB1
 70
     6
  9
$SURFTAB2
 70
     6
  9
$SURFTYPE
 70
     6
  9
$SURFU
 70
     6
  9
$SURFV
 70
     6
  9
$UCSBASE
  2

  9
$UCSNAME
  2

  9
$UCSORG
 10
0.0
 20
0.0
 30
0.0
  9
$UCSXDIR
 10
1.0
 20
0.0
 30
0.0
  9
$UCSYDIR
 10
0.0
 20
1.0
 30
0.0
  9
$UCSORTHOREF
  2

  9
$UCSORTHOVIEW
 70
     0
  9
$UCSORGTOP
 10
0.0
 20
0.0
 30
0.0
  9
$UCSORGBOTTOM
 10
0.0
 20
0.0
 30
0.0
  9
$UCSORGLEFT
 10
0.0
 20
0.0
 30
0.0
  9
$UCSORGRIGHT
 10
0.0
 20
0.0
 30
0.0
  9
$UCSORGFRONT
 10
0.0
 20
0.0
 30
0.0
  9
$UCSORGBACK
 10
0.0
 20
0.0
 30
0.0
  9
$PUCSBASE
  2

  9
$PUCSNAME
  2

  9
$PUCSORG
 10
0.0
 20
0.0
 30
0.0
  9
$PUCSXDIR
 10
1.0
 20
0.0
 30
0.0
  9
$PUCSYDIR
 10
0.0
 20
1.0
 30
0.0
  9
$PUCSORTHOREF
  2

  9
$PUCSORTHOVIEW
 70
     0
  9
$PUCSORGTOP
 10
0.0
 20
0.0
 30
0.0
  9
$PUCSORGBOTTOM
 10
0.0
 20
0.0
 30
0.0
  9
$PUCSORGLEFT
 10
0.0
 20
0.0
 30
0.0
  9
$PUCSORGRIGHT
 10
0.0
 20
0.0
 30
0.0
  9
$PUCSORGFRONT
 10
0.0
 20
0.0
 30
0.0
  9
$PUCSORGBACK
 10
0.0
 20
0.0
 30
0.0
  9
$USERI1
 70
     0
  9
$USERI2
 70
     0
  9
$USERI3
 70
     0
  9
$USERI4
 70
     0
  9
$USERI5
 70
     0
  9
$USERR1
 40
0.0
  9
$USERR2
 40
0.0
  9
$USERR3
 40
0.0
  9
$USERR4
 40
0.0
  9
$USERR5
 40
0.0
  9
$WORLDVIEW
 70
     1
  9
$SHADEDGE
 70
     3
  9
$SHADEDIF
 70
    70
  9
$TILEMODE
 70
     1
  9
$MAXACTVP
 70
    64
  9
$PINSBASE
 10
0.0
 20
0.0
 30
0.0
  9
$PLIMCHECK
 70
     0
  9
$PEXTMIN
 10
1.0000000000E+20
 20
1.0000000000E+20
 30
1.0000000000E+20
  9
$PEXTMAX
 10
-1.0000000000E+20
 20
-1.0000000000E+20
 30
-1.0000000000E+20
  9
$PLIMMIN
 10
0.0
 20
0.0
  9
$PLIMMAX
 10
12.0
 20
9.0
  9
$UNITMODE
 70
     0
  9
$VISRETAIN
 70
     1
  9
$PLINEGEN
 70
     0
  9
$PSLTSCALE
 70
     1
  9
$TREEDEPTH
 70
  3020
  9
$CMLSTYLE
  2
Standard
  9
$CMLJUST
 70
     0
  9
$CMLSCALE
 40
1.0
  9
$PROXYGRAPHICS
 70
     1
  9
$MEASUREMENT
 70
     0
  9
$CELWEIGHT
370
    -1
  9
$ENDCAPS
280
     0
  9
$JOINSTYLE
280
     0
  9
$LWDISPLAY
290
     1
  9
$INSUNITS
 70
     1
  9
$HYPERLINKBASE
  1

  9
$STYLESHEET
  1

  9
$XEDIT
290
     1
  9
$CEPSNTYPE
380
     0
  9
$PSTYLEMODE
290
     1
  9
$FINGERPRINTGUID
  2
{A726B984-97AD-4642-8929-3E03BCC6D5D6}
  9
$VERSIONGUID
  2
{FAEB1C32-E019-11D5-929B-00C0DF256EC4}
  9
$EXTNAMES
290
     1
  9
$PSVPSCALE
 40
0.0
  9
$OLESTARTUP
290
     0
  0
ENDSEC
  0
SECTION
  2
CLASSES
  0
CLASS
  1
ACDBDICTIONARYWDFLT
  2
AcDbDictionaryWithDefault
  3
ObjectDBX Classes
 90
        0
280
     0
281
     0
  0
CLASS
  1
VISUALSTYLE
  2
AcDbVisualStyle
  3
ObjectDBX Classes
 90
     4095
280
     0
281
     0
  0
CLASS
  1
MATERIAL
  2
AcDbMaterial
  3
ObjectDBX Classes
 90
     1153
280
     0
281
     0
  0
CLASS
  1
SCALE
  2
AcDbScale
  3
ObjectDBX Classes
 90
     1153
280
     0
281
     0
  0
CLASS
  1
TABLESTYLE
  2
AcDbTableStyle
  3
ObjectDBX Classes
 90
     4095
280
     0
281
     0
  0
CLASS
  1
MLEADERSTYLE
  2
AcDbMLeaderStyle
  3
ACDB_MLEADERSTYLE_CLASS
 90
     4095
280
     0
281
     0
  0
CLASS
  1
SUN
  2
AcDbSun
  3
SCENEOE
 90
     1153
280
     0
281
     0
  0
CLASS
  1
ACDBPLACEHOLDER
  2
AcDbPlaceHolder
  3
ObjectDBX Classes
 90
        0
280
     0
281
     0
  0
CLASS
  1
LAYOUT
  2
AcDbLayout
  3
ObjectDBX Classes
 90
        0
280
     0
281
     0
  0
ENDSEC
  0
SECTION
  2
TABLES
  0
TABLE
  2
VPORT
  5
8
330
0
100
AcDbSymbolTable
 70
     1
  0
VPORT
  5
29
330
8
100
AcDbSymbolTableRecord
100
AcDbViewportTableRecord
  2
*Active
 70
     0
 10
0.0
 20
0.0
 11
1.0
 21
1.0
 12
17.0
 22
11.0
 13
0.0
 23
0.0
 14
0.5
 24
0.5
 15
0.5
 25
0.5
 16
0.0
 26
0.0
 36
1.0
 17
0.0
 27
0.0
 37
0.0
 40
22.0
 41
1.5454545455
 42
50.0
 43
0.0
 44
0.0
 50
0.0
 51
0.0
 71
     0
 72
  2000
 73
     1
 74
     3
 75
     0
 76
     0
 77
     0
 78
     0
281
     0
 65
     1
110
0.0
120
0.0
130
0.0
111
1.0
121
0.0
131
0.0
112
0.0
122
1.0
132
0.0
 79
     0
146
0.0
  0
ENDTAB
  0
TABLE
  2
LTYPE
  5
5
330
0
100
AcDbSymbolTable
 70
     6
  0
LTYPE
  5
14
330
5
100
AcDbSymbolTableRecord
100
AcDbLinetypeTableRecord
  2
ByBlock
 70
     0
  3

 72
    65
 73
     0
 40
0.0
  0
LTYPE
  5
15
330
5
100
AcDbSymbolTableRecord
100
AcDbLinetypeTableRecord
  2
ByLayer
 70
     0
  3

 72
    65
 73
     0
 40
0.0
  0
LTYPE
  5
16
330
5
100
AcDbSymbolTableRecord
100
AcDbLinetypeTableRecord
  2
Continuous
 70
     0
  3
Solid line
 72
    65
 73
     0
 40
0.0
  0
LTYPE
  5
6E
330
5
100
AcDbSymbolTableRecord
100
AcDbLinetypeTableRecord
  2
HIDDEN
 70
     0
  3
Hidden __ __ __ __ __ __ __ __ __ __ __ __ __ __
 72
    65
 73
     2
 40
0.075
 49
0.05
 74
     0
 49
-0.025
 74
     0
  0
LTYPE
  5
6F
330
5
100
AcDbSymbolTableRecord
100
AcDbLinetypeTableRecord
  2
PHANTOM
 70
     0
  3
Phantom ______  __  __  ______  __  __  ______
 72
    65
 73
     6
 40
0.5
 49
0.25
 74
     0
 49
-0.05
 74
     0
 49
0.05
 74
     0
 49
-0.05
 74
     0
 49
0.05
 74
     0
 49
-0.05
 74
     0
  0
LTYPE
  5
70
330
5
100
AcDbSymbolTableRecord
100
AcDbLinetypeTableRecord
  2
CENTER
 70
     0
  3
Center ____ _ ____ _ ____ _ ____ _ ____ _ ____
 72
    65
 73
     4
 40
0.4
 49
0.25
 74
     0
 49
-0.05
 74
     0
 49
0.05
 74
     0
 49
-0.05
 74
     0
  0
LTYPE
  5
71
330
5
100
AcDbSymbolTableRecord
100
AcDbLinetypeTableRecord
  2
CENTERX2
 70
     0
  3
Center (2x) ________  __  ________  __  _____
 72
    65
 73
     4
 40
0.8
 49
0.5
 74
     0
 49
-0.1
 74
     0
 49
0.1
 74
     0
 49
-0.1
 74
     0
  0
LTYPE
  5
72
330
5
100
AcDbSymbolTableRecord
100
AcDbLinetypeTableRecord
  2
DOT2
 70
     0
  3
Dot (.5x) ........................................
 72
    65
 73
     2
 40
0.025
 49
0.0
 74
     0
 49
-0.025
 74
     0
  0
ENDTAB
  0
TABLE
  2
LAYER
  5
2
330
0
100
AcDbSymbolTable
 70
     7
  0
LAYER
  5
10
330
2
100
AcDbSymbolTableRecord
100
AcDbLayerTableRecord
  2
0
 70
     0
 62
     7
  6
Continuous
370
    -3
390
F
  0
LAYER
  5
73
330
2
100
AcDbSymbolTableRecord
100
AcDbLayerTableRecord
  2
DIM
 70
     0
 62
     1
  6
Continuous
370
    -3
390
F
  0
LAYER
  5
74
330
2
100
AcDbSymbolTableRecord
100
AcDbLayerTableRecord
  2
NOTES
 70
     0
 62
     7
  6
Continuous
370
    -3
390
F
  0
LAYER
  5
75
330
2
100
AcDbSymbolTableRecord
100
AcDbLayerTableRecord
  2
SLD-0
 70
     0
 62
     7
  6
Continuous
370
    -3
390
F
  0
LAYER
  5
76
330
2
100
AcDbSymbolTableRecord
100
AcDbLayerTableRecord
  2
BLOCKS
 70
     0
 62
    16
  6
Continuous
370
    -3
390
F
  0
LAYER
  5
77
330
2
100
AcDbSymbolTableRecord
100
AcDbLayerTableRecord
  2
CENTERLINES
 70
     0
 62
     7
  6
Continuous
370
    -3
390
F
  0
LAYER
  5
78
330
2
100
AcDbSymbolTableRecord
100
AcDbLayerTableRecord
  2
OBJECTS
 70
     0
 62
    56
  6
CENTER
370
    -3
390
F
  0
ENDTAB
  0
TABLE
  2
STYLE
  5
3
330
0
100
AcDbSymbolTable
 70
     3
  0
STYLE
  5
11
330
3
100
AcDbSymbolTableRecord
100
AcDbTextStyleTableRecord
  2
STANDARD
 70
     0
 40
0.0
 41
1.0
 50
0.0
 71
     0
 42
0.2222222222
  3
ARIAL.TTF
  4

1001
ACAD
1000
ARIAL
1071
       34
  0
STYLE
  5
BB
330
3
100
AcDbSymbolTableRecord
100
AcDbTextStyleTableRecord
  2
SLDTEXTSTYLE0
 70
     0
 40
0.0
 41
0.948
 50
0.0
 71
     0
 42
0.2222222222
  3
ARIAL.TTF
  4

1001
ACAD
1000
Arial
1071
      290
  0
STYLE
  5
244
330
3
100
AcDbSymbolTableRecord
100
AcDbTextStyleTableRecord
  2
SLDTEXTSTYLE1
 70
     0
 40
0.0
 41
0.948
 50
0.0
 71
     0
 42
0.2222222222
  3
ARIALBD.TTF
  4

1001
ACAD
1000
Arial
1071
 33554722
  0
ENDTAB
  0
TABLE
  2
VIEW
  5
6
330
0
100
AcDbSymbolTable
 70
     0
  0
ENDTAB
  0
TABLE
  2
UCS
  5
7
330
0
100
AcDbSymbolTable
 70
     0
  0
ENDTAB
  0
TABLE
  2
APPID
  5
9
330
0
100
AcDbSymbolTable
 70
     1
  0
APPID
  5
12
330
9
100
AcDbSymbolTableRecord
100
AcDbRegAppTableRecord
  2
ACAD
 70
     0
  0
ENDTAB
  0
TABLE
  2
DIMSTYLE
  5
A
330
0
100
AcDbSymbolTable
 70
     7
100
AcDbDimStyleTable
  0
DIMSTYLE
105
27
330
A
100
AcDbSymbolTableRecord
100
AcDbDimStyleTableRecord
  2
Standard
 70
     0
178
     0
340
11
  0
DIMSTYLE
105
15C
102
{ACAD_REACTORS
330
15B
330
170
330
195
330
219
102
}
330
A
100
AcDbSymbolTableRecord
100
AcDbDimStyleTableRecord
  2
SLDDIMSTYLE0
 70
     0
 41
0.2022298177
 44
0.0
 45
0.000000001
 78
    12
 79
     3
140
0.2022298177
147
0.0505574544
148
0.000000001
170
     1
171
     1
173
     1
178
     0
271
     6
272
     2
274
     1
276
     2
277
     5
284
    12
340
BB
  0
DIMSTYLE
105
185
102
{ACAD_REACTORS
330
184
330
1A9
330
1B9
102
}
330
A
100
AcDbSymbolTableRecord
100
AcDbDimStyleTableRecord
  2
SLDDIMSTYLE1
 70
     0
 41
0.2022298177
 44
0.0
 45
0.000000001
 78
    12
 79
     3
140
0.2022298177
147
0.0505574544
148
0.000000001
170
     1
171
     1
173
     1
178
     0
271
     2
272
     2
274
     1
276
     2
277
     5
284
    12
340
BB
  0
DIMSTYLE
105
1CA
102
{ACAD_REACTORS
330
1C9
102
}
330
A
100
AcDbSymbolTableRecord
100
AcDbDimStyleTableRecord
  2
SLDDIMSTYLE2
 70
     0
 41
0.2022298177
 44
0.0
 45
0.000000001
 78
    12
 79
     3
140
0.2022298177
147
0.0505574544
148
0.000000001
170
     1
171
     1
172
     1
173
     1
178
     0
271
     6
272
     2
274
     1
276
     2
277
     5
284
    12
289
     0
340
BB
  0
DIMSTYLE
105
1DE
102
{ACAD_REACTORS
330
1DD
330
206
102
}
330
A
100
AcDbSymbolTableRecord
100
AcDbDimStyleTableRecord
  2
SLDDIMSTYLE3
 70
     0
 41
0.2022298177
 44
0.0
 45
0.000000001
 78
    12
 79
     3
140
0.2022298177
141
0.0
147
0.0505574544
148
0.000000001
170
     1
171
     1
173
     1
178
     0
271
     2
272
     2
274
     1
276
     2
277
     5
279
     1
284
    12
340
BB
  0
DIMSTYLE
105
1F2
102
{ACAD_REACTORS
330
1F1
102
}
330
A
100
AcDbSymbolTableRecord
100
AcDbDimStyleTableRecord
  2
SLDDIMSTYLE4
 70
     0
 41
0.2022298177
 44
0.0
 45
0.000000001
 78
    12
 79
     3
140
0.2022298177
141
0.0
147
0.0505574544
148
0.000000001
170
     1
171
     1
173
     1
178
     0
271
     2
272
     2
274
     1
276
     2
277
     5
279
     1
284
    12
340
BB
  0
DIMSTYLE
105
233
330
A
100
AcDbSymbolTableRecord
100
AcDbDimStyleTableRecord
  2
SLDDIMSTYLE5
 70
     0
 41
0.2022298177
 44
0.0
 45
0.000000001
146
0.2022298177
147
0.0
173
     1
178
     0
271
     0
272
     0
276
     2
277
     5
340
11
  0
ENDTAB
  0
TABLE
  2
BLOCK_RECORD
  5
1
330
0
100
AcDbSymbolTable
 70
    23
  0
BLOCK_RECORD
  5
1F
330
1
100
AcDbSymbolTableRecord
100
AcDbBlockTableRecord
  2
*Model_Space
340
22
  0
BLOCK_RECORD
  5
1B
330
1
100
AcDbSymbolTableRecord
100
AcDbBlockTableRecord
  2
*Paper_Space
340
1E
  0
BLOCK_RECORD
  5
23
330
1
100
AcDbSymbolTableRecord
100
AcDbBlockTableRecord
  2
*Paper_Space0
340
26
  0
BLOCK_RECORD
  5
79
330
1
100
AcDbSymbolTableRecord
100
AcDbBlockTableRecord
  2
REVEAL- .500
340
0
102
{BLKREFS
331
158
102
}
  0
BLOCK_RECORD
  5
AB
330
1
100
AcDbSymbolTableRecord
100
AcDbBlockTableRecord
  2
SW_BLOCK_DIMENSION_0
340
0
102
{BLKREFS
331
C0
102
}
  0
BLOCK_RECORD
  5
C1
330
1
100
AcDbSymbolTableRecord
100
AcDbBlockTableRecord
  2
OVERHANG - .125
340
0
102
{BLKREFS
331
15A
102
}
  0
BLOCK_RECORD
  5
F3
330
1
100
AcDbSymbolTableRecord
100
AcDbBlockTableRecord
  2
SW_BLOCK_DIMENSION_1
340
0
102
{BLKREFS
331
107
102
}
  0
BLOCK_RECORD
  5
108
330
1
100
AcDbSymbolTableRecord
100
AcDbBlockTableRecord
  2
REVEAL - 0 (FLUSH)
340
0
102
{BLKREFS
331
159
102
}
  0
BLOCK_RECORD
  5
15D
330
1
100
AcDbSymbolTableRecord
100
AcDbBlockTableRecord
  2
_D
340
0
  0
BLOCK_RECORD
  5
171
330
1
100
AcDbSymbolTableRecord
100
AcDbBlockTableRecord
  2
_D_1
340
0
  0
BLOCK_RECORD
  5
186
330
1
100
AcDbSymbolTableRecord
100
AcDbBlockTableRecord
  2
_D_2
340
0
  0
BLOCK_RECORD
  5
196
330
1
100
AcDbSymbolTableRecord
100
AcDbBlockTableRecord
  2
_D_3
340
0
  0
BLOCK_RECORD
  5
1AA
330
1
100
AcDbSymbolTableRecord
100
AcDbBlockTableRecord
  2
_D_4
340
0
  0
BLOCK_RECORD
  5
1BA
330
1
100
AcDbSymbolTableRecord
100
AcDbBlockTableRecord
  2
_D_5
340
0
  0
BLOCK_RECORD
  5
1CB
330
1
100
AcDbSymbolTableRecord
100
AcDbBlockTableRecord
  2
_D_6
340
0
  0
BLOCK_RECORD
  5
1DF
330
1
100
AcDbSymbolTableRecord
100
AcDbBlockTableRecord
  2
_D_7
340
0
  0
BLOCK_RECORD
  5
1F3
330
1
100
AcDbSymbolTableRecord
100
AcDbBlockTableRecord
  2
_D_8
340
0
  0
BLOCK_RECORD
  5
207
330
1
100
AcDbSymbolTableRecord
100
AcDbBlockTableRecord
  2
_D_9
340
0
  0
BLOCK_RECORD
  5
21A
330
1
100
AcDbSymbolTableRecord
100
AcDbBlockTableRecord
  2
_D_10
340
0
  0
BLOCK_RECORD
  5
22D
330
1
100
AcDbSymbolTableRecord
100
AcDbBlockTableRecord
  2
SW_NOTE_0
340
0
102
{BLKREFS
331
232
102
}
  0
BLOCK_RECORD
  5
235
330
1
100
AcDbSymbolTableRecord
100
AcDbBlockTableRecord
  2
SW_NOTE_1
340
0
102
{BLKREFS
331
23A
102
}
  0
BLOCK_RECORD
  5
23C
330
1
100
AcDbSymbolTableRecord
100
AcDbBlockTableRecord
  2
SW_NOTE_2
340
0
102
{BLKREFS
331
241
102
}
  0
BLOCK_RECORD
  5
246
330
1
100
AcDbSymbolTableRecord
100
AcDbBlockTableRecord
  2
SW_NOTE_3
340
0
102
{BLKREFS
331
24D
102
}
  0
BLOCK_RECORD
  5
250
330
1
100
AcDbSymbolTableRecord
100
AcDbBlockTableRecord
  2
SW_NOTE_4
340
0
102
{BLKREFS
331
260
102
}
  0
BLOCK_RECORD
  5
261
330
1
100
AcDbSymbolTableRecord
100
AcDbBlockTableRecord
  2
SW_NOTE_5
340
0
102
{BLKREFS
331
266
102
}
  0
ENDTAB
  0
ENDSEC
  0
SECTION
  2
BLOCKS
  0
BLOCK
  5
20
330
1F
100
AcDbEntity
  8
0
100
AcDbBlockBegin
  2
*Model_Space
 70
     0
 10
0.0
 20
0.0
 30
0.0
  3
*Model_Space
  1

  0
ENDBLK
  5
21
330
1F
100
AcDbEntity
  8
0
100
AcDbBlockEnd
  0
BLOCK
  5
1C
330
1B
100
AcDbEntity
 67
     1
  8
0
100
AcDbBlockBegin
  2
*Paper_Space
 70
     0
 10
0.0
 20
0.0
 30
0.0
  3
*Paper_Space
  1

  0
ENDBLK
  5
1D
330
1B
100
AcDbEntity
 67
     1
  8
0
100
AcDbBlockEnd
  0
BLOCK
  5
24
330
23
100
AcDbEntity
  8
0
100
AcDbBlockBegin
  2
*Paper_Space0
 70
     0
 10
0.0
 20
0.0
 30
0.0
  3
*Paper_Space0
  1

  0
ENDBLK
  5
25
330
23
100
AcDbEntity
  8
0
100
AcDbBlockEnd
  0
BLOCK
  5
7A
330
79
100
AcDbEntity
  8
0
100
AcDbBlockBegin
  2
REVEAL- .500
 70
     0
 10
0.0
 20
0.0
 30
0.0
  3
REVEAL- .500
  1

  0
ARC
  5
7C
330
79
100
AcDbEntity
  8
BLOCKS
100
AcDbCircle
 10
20.1601934329
 20
28.8878838846
 30
0.0
 40
0.2338576391325233
100
AcDbArc
 50
0.0
 51
90.0
  0
ARC
  5
7D
330
79
100
AcDbEntity
  8
BLOCKS
100
AcDbCircle
 10
19.8280715192
 20
29.4726468145
 30
0.0
 40
0.0659795528056719
100
AcDbArc
 50
0.0
 51
90.0
  0
ARC
  5
7E
330
79
100
AcDbEntity
  8
BLOCKS
100
AcDbCircle
 10
19.0470381676
 20
28.990848696
 30
0.0
 40
0.0881257319589152
100
AcDbArc
 50
200.9822712638
 51
339.0177287362
  0
ARC
  5
7F
330
79
100
AcDbEntity
  8
BLOCKS
100
AcDbCircle
 10
20.1601934329
 20
28.8878838846
 30
0.0
 40
0.1878262552218324
100
AcDbArc
 50
0.0
 51
90.0
  0
LINE
  5
80
330
79
100
AcDbEntity
  8
BLOCKS
100
AcDbLine
 10
19.8280715192
 20
29.5386263673
 30
0.0
 11
18.2509355515
 21
29.5386263673
 31
0.0
  0
LINE
  5
81
330
79
100
AcDbEntity
  8
BLOCKS
100
AcDbLine
 10
18.2806192052
 20
29.1434426864
 30
0.0
 11
19.894051072
 21
29.1434426864
 31
0.0
  0
LINE
  5
82
330
79
100
AcDbEntity
  8
BLOCKS
100
AcDbLine
 10
19.3470309437
 20
29.1217415238
 30
0.0
 11
20.1601934329
 21
29.1217415238
 31
0.0
  0
LINE
  5
83
330
79
100
AcDbEntity
  8
BLOCKS
100
AcDbLine
 10
20.394051072
 20
28.8878838846
 30
0.0
 11
20.394051072
 21
28.4971795949
 31
0.0
  0
LINE
  5
84
330
79
100
AcDbEntity
  8
BLOCKS
100
AcDbLine
 10
20.394051072
 20
28.4971795949
 30
0.0
 11
20.3480196881
 21
28.4971795949
 31
0.0
  0
LINE
  5
85
330
79
100
AcDbEntity
  8
BLOCKS
100
AcDbLine
 10
20.3480196881
 20
28.4971795949
 30
0.0
 11
20.3480196881
 21
28.8878838846
 31
0.0
  0
LINE
  5
86
330
79
100
AcDbEntity
  8
BLOCKS
100
AcDbLine
 10
20.1601934329
 20
29.0757101398
 30
0.0
 11
19.3470309437
 21
29.0757101398
 31
0.0
  0
LINE
  5
87
330
79
100
AcDbEntity
  8
BLOCKS
100
AcDbLine
 10
19.3470309437
 20
29.0757101398
 30
0.0
 11
19.3470309437
 21
29.1217415238
 31
0.0
  0
LINE
  5
88
330
79
100
AcDbEntity
  8
BLOCKS
100
AcDbLine
 10
19.679261078
 20
29.0223488565
 30
0.0
 11
19.7319208682
 21
29.073015856
 31
0.0
  0
LINE
  5
89
330
79
100
AcDbEntity
  8
BLOCKS
100
AcDbLine
 10
19.7319208682
 20
29.073015856
 30
0.0
 11
19.7745573648
 21
29.0287024176
 31
0.0
  0
LINE
  5
8A
330
79
100
AcDbEntity
  8
BLOCKS
100
AcDbLine
 10
19.7745573648
 20
29.0287024176
 30
0.0
 11
19.705650009
 21
28.9624027047
 31
0.0
  0
LINE
  5
8B
330
79
100
AcDbEntity
  8
BLOCKS
100
AcDbLine
 10
18.4381035755
 20
29.0888229672
 30
0.0
 11
18.385550816
 21
29.1434426864
 31
0.0
  0
LINE
  5
8C
330
79
100
AcDbEntity
  8
BLOCKS
100
AcDbLine
 10
18.385550816
 20
29.1434426864
 30
0.0
 11
18.3431444562
 21
29.1026410993
 31
0.0
  0
LINE
  5
8D
330
79
100
AcDbEntity
  8
BLOCKS
100
AcDbLine
 10
18.3431444562
 20
29.1026410993
 30
0.0
 11
18.4052557657
 21
29.0380868815
 31
0.0
  0
LINE
  5
8E
330
79
100
AcDbEntity
  8
BLOCKS
100
AcDbLine
 10
18.4381035755
 20
29.0888229672
 30
0.0
 11
19.679261078
 21
29.0223488565
 31
0.0
  0
LINE
  5
8F
330
79
100
AcDbEntity
  8
BLOCKS
100
AcDbLine
 10
19.705650009
 20
28.9624027047
 30
0.0
 11
18.4052557657
 21
29.0380868815
 31
0.0
  0
LINE
  5
90
330
79
100
AcDbEntity
  8
BLOCKS
100
AcDbLine
 10
19.1283677378
 20
29.0518536895
 30
0.0
 11
19.1283677378
 21
28.9960010797
 31
0.0
  0
LINE
  5
91
330
79
100
AcDbEntity
  8
BLOCKS
100
AcDbLine
 10
18.9737480593
 20
29.0601348348
 30
0.0
 11
18.9737480593
 21
29.0050000915
 31
0.0
  0
LINE
  5
92
330
79
100
AcDbEntity
  8
BLOCKS
100
AcDbLine
 10
18.964755941
 20
28.9592927168
 30
0.0
 11
19.1293203942
 21
28.9592927168
 31
0.0
  0
LINE
  5
93
330
79
100
AcDbEntity
  8
BLOCKS
100
AcDbLine
 10
19.0095275609
 20
29.3495924534
 30
0.0
 11
19.0095275609
 21
28.9592927168
 31
0.0
  0
LINE
  5
94
330
79
100
AcDbEntity
  8
BLOCKS
100
AcDbLine
 10
19.0864194327
 20
29.3495924534
 30
0.0
 11
19.0864194327
 21
28.9592927168
 31
0.0
  0
LINE
  5
95
330
79
100
AcDbEntity
  8
BLOCKS
100
AcDbLine
 10
18.9467524826
 20
29.0033177842
 30
0.0
 11
19.1591684741
 21
28.9909549723
 31
0.0
  0
LINE
  5
96
330
79
100
AcDbEntity
  8
BLOCKS
100
AcDbLine
 10
19.0095275609
 20
29.3495924534
 30
0.0
 11
19.0474925407
 21
29.4047818344
 31
0.0
  0
LINE
  5
97
330
79
100
AcDbEntity
  8
BLOCKS
100
AcDbLine
 10
19.0474925407
 20
29.4047818344
 30
0.0
 11
19.0864194327
 21
29.3495924534
 31
0.0
  0
LINE
  5
98
330
79
100
AcDbEntity
  8
BLOCKS
100
AcDbLine
 10
19.1572986604
 20
28.9588281114
 30
0.0
 11
18.9448826689
 21
28.9711909233
 31
0.0
  0
LINE
  5
99
330
79
100
AcDbEntity
  8
BLOCKS
100
AcDbLine
 10
19.1591684741
 20
28.9909549723
 30
0.0
 11
19.1572986604
 21
28.9588281114
 31
0.0
  0
LINE
  5
9A
330
79
100
AcDbEntity
  8
BLOCKS
100
AcDbLine
 10
18.9467524826
 20
29.0033177842
 30
0.0
 11
18.9448826689
 21
28.9711909233
 31
0.0
  0
LINE
  5
9B
330
79
100
AcDbEntity
  8
BLOCKS
100
AcDbLine
 10
19.1142839592
 20
29.1434426864
 30
0.0
 11
19.1142839592
 21
29.4238049236
 31
0.0
  0
LINE
  5
9C
330
79
100
AcDbEntity
  8
BLOCKS
100
AcDbLine
 10
19.1142839592
 20
29.4238049236
 30
0.0
 11
18.9877469673
 21
29.4238049236
 31
0.0
  0
LINE
  5
9D
330
79
100
AcDbEntity
  8
BLOCKS
100
AcDbLine
 10
18.9877469673
 20
29.4238049236
 30
0.0
 11
18.9877469673
 21
29.1434426864
 31
0.0
  0
LINE
  5
9E
330
79
100
AcDbEntity
  8
BLOCKS
  6
Continuous
100
AcDbLine
 10
19.894051072
 20
29.1434426864
 30
0.0
 11
19.894051072
 21
29.4726468145
 31
0.0
  0
LINE
  5
9F
330
79
100
AcDbEntity
  8
BLOCKS
100
AcDbLine
 10
19.3020232313
 20
29.1434426864
 30
0.0
 11
19.3470309437
 21
29.0987258318
 31
0.0
  0
LINE
  5
A0
330
79
100
AcDbEntity
  8
BLOCKS
100
AcDbLine
 10
19.894051072
 20
29.1434426864
 30
0.0
 11
19.9068063572
 21
29.1217415238
 31
0.0
  0
SPLINE
  5
A1
330
79
100
AcDbEntity
  8
BLOCKS
100
AcDbSpline
210
0.0
220
0.0
230
1.0
 70
     8
 71
     3
 72
     9
 73
     5
 74
     0
 42
0.000000001
 43
0.00000001
 40
0.0
 40
0.0
 40
0.0
 40
0.0
 40
0.5928291688347104
 40
1.0
 40
1.0
 40
1.0
 40
1.0
 10
18.28061920517429
 20
29.14344268635683
 30
0.0
 10
18.23604355296101
 20
29.22927712752978
 30
0.0
 10
18.31552651528452
 20
29.34850064146643
 30
0.0
 10
18.29741369383499
 20
29.50274888669875
 30
0.0
 10
18.25093555152442
 20
29.53862636728042
 30
0.0
  0
HATCH
  5
A2
330
79
100
AcDbEntity
  8
BLOCKS
 62
    16
100
AcDbHatch
 10
0.0
 20
0.0
 30
0.0
210
0.0
220
0.0
230
1.0
  2
ANSI36
 70
     0
 71
     0
 91
        1
 92
        0
 93
       10
 72
     4
 94
        3
 73
     1
 74
     0
 95
        9
 96
        5
 40
0.0
 40
0.0
 40
0.0
 40
0.0
 40
0.4071708311652896
 40
1.0
 40
1.0
 40
1.0
 40
1.0
 10
18.25093555152442
 20
29.53862636728042
 42
1.0
 10
18.29741369383499
 20
29.50274888669875
 42
1.0
 10
18.31552651528452
 20
29.34850064146643
 42
1.0
 10
18.23604355296101
 20
29.22927712752978
 42
1.0
 10
18.28061920517429
 20
29.14344268635683
 42
1.0
 72
     1
 10
18.28061920517429
 20
29.14344268635683
 11
18.98774696730679
 21
29.14344268635683
 72
     1
 10
18.98774696730679
 20
29.14344268635683
 11
18.98774696730679
 21
29.42380492355081
 72
     1
 10
18.98774696730679
 20
29.42380492355081
 11
19.11428395924128
 21
29.42380492355081
 72
     1
 10
19.11428395924128
 20
29.42380492355081
 11
19.11428395924128
 21
29.14344268635683
 72
     1
 10
19.11428395924128
 20
29.14344268635683
 11
19.30202323130653
 21
29.14344268635683
 72
     1
 10
19.30202323130653
 20
29.14344268635683
 11
19.89405107202551
 21
29.14344268635683
 72
     1
 10
19.89405107202551
 20
29.14344268635683
 11
19.89405107202551
 21
29.47264681447475
 72
     2
 10
19.82807151921984
 20
29.47264681447475
 40
0.0659795528056717
 50
0.0
 51
90.0
 73
     1
 72
     1
 10
19.82807151921984
 20
29.53862636728042
 11
18.25093555152442
 21
29.53862636728042
 97
        0
 75
     0
 76
     1
 52
0.0
 41
0.5
 77
     0
 78
     1
 53
45.0
 43
0.0
 44
0.0
 45
0.0331456303681194
 46
0.1215339780164378
 79
     4
 49
0.15625
 49
-0.03125
 49
0.0
 49
-0.03125
 98
        1
 10
0.0
 20
0.0
  0
HATCH
  5
A3
330
79
100
AcDbEntity
  8
BLOCKS
 62
    16
100
AcDbHatch
 10
0.0
 20
0.0
 30
0.0
210
0.0
220
0.0
230
1.0
  2
ANSI32
 70
     0
 71
     0
 91
        1
 92
        0
 93
        5
 72
     1
 10
19.08641943273533
 20
29.34959245337754
 11
19.04749254074577
 21
29.40478183438993
 72
     1
 10
19.04749254074577
 20
29.40478183438993
 11
19.00952756093279
 21
29.34959245337754
 72
     1
 10
19.00952756093279
 20
29.34959245337754
 11
19.00952756093279
 21
29.14344268635683
 72
     1
 10
19.00952756093279
 20
29.14344268635683
 11
19.08641943273533
 21
29.14344268635683
 72
     1
 10
19.08641943273533
 20
29.14344268635683
 11
19.08641943273533
 21
29.34959245337754
 97
        0
 75
     0
 76
     1
 52
0.0
 41
0.1666666667
 77
     0
 78
     2
 53
45.0
 43
0.0
 44
0.0
 45
-0.0441941738241592
 46
0.0441941738241592
 79
     0
 53
45.0
 43
0.0294627825
 44
0.0
 45
-0.0441941738241592
 46
0.0441941738241592
 79
     0
 98
        1
 10
0.0
 20
0.0
  0
HATCH
  5
A4
330
79
100
AcDbEntity
  8
BLOCKS
 62
    16
100
AcDbHatch
 10
0.0
 20
0.0
 30
0.0
210
0.0
220
0.0
230
1.0
  2
ANSI32
 70
     0
 71
     0
 91
        1
 92
        0
 93
        4
 72
     1
 10
19.08641943273533
 20
29.05410036351303
 11
19.08641943273533
 21
29.14344268635683
 72
     1
 10
19.08641943273533
 20
29.14344268635683
 11
19.00952756093279
 21
29.14344268635683
 72
     1
 10
19.00952756093279
 20
29.14344268635683
 11
19.00952756093279
 21
29.05821855059726
 72
     1
 10
19.00952756093279
 20
29.05821855059726
 11
19.08641943273533
 21
29.05410036351303
 97
        0
 75
     0
 76
     1
 52
0.0
 41
0.1666666667
 77
     0
 78
     2
 53
45.0
 43
0.0
 44
0.0
 45
-0.0441941738241592
 46
0.0441941738241592
 79
     0
 53
45.0
 43
0.0294627825
 44
0.0
 45
-0.0441941738241592
 46
0.0441941738241592
 79
     0
 98
        1
 10
0.0
 20
0.0
  0
HATCH
  5
A5
330
79
100
AcDbEntity
  8
BLOCKS
 62
    16
100
AcDbHatch
 10
0.0
 20
0.0
 30
0.0
210
0.0
220
0.0
230
1.0
  2
ANSI32
 70
     0
 71
     0
 91
        1
 92
        0
 93
        4
 72
     1
 10
19.08641943273533
 20
28.99844251081363
 11
19.08641943273533
 21
29.05410036351303
 72
     1
 10
19.08641943273533
 20
29.05410036351303
 11
19.00952756093279
 21
29.05821855059726
 72
     1
 10
19.00952756093279
 20
29.05821855059726
 11
19.00952756093279
 21
29.00291769059305
 72
     1
 10
19.00952756093279
 20
29.00291769059305
 11
19.08641943273533
 21
28.99844251081363
 97
        0
 75
     0
 76
     1
 52
0.0
 41
0.1666666667
 77
     0
 78
     2
 53
45.0
 43
0.0
 44
0.0
 45
-0.0441941738241592
 46
0.0441941738241592
 79
     0
 53
45.0
 43
0.0294627825
 44
0.0
 45
-0.0441941738241592
 46
0.0441941738241592
 79
     0
 98
        1
 10
0.0
 20
0.0
  0
HATCH
  5
A6
330
79
100
AcDbEntity
  8
BLOCKS
 62
    16
100
AcDbHatch
 10
0.0
 20
0.0
 30
0.0
210
0.0
220
0.0
230
1.0
  2
ANSI32
 70
     0
 71
     0
 91
        1
 92
        0
 93
        4
 72
     1
 10
19.00952756093279
 20
28.96742852935006
 11
19.08641943273534
 21
28.96295334957064
 72
     1
 10
19.08641943273534
 20
28.96295334957064
 11
19.08641943273534
 21
28.99518903540131
 72
     1
 10
19.08641943273534
 20
28.99518903540131
 11
19.0095275609328
 21
28.99966421518074
 72
     1
 10
19.0095275609328
 20
28.99966421518074
 11
19.00952756093279
 21
28.96742852935006
 97
        0
 75
     0
 76
     1
 52
0.0
 41
0.1666666667
 77
     0
 78
     2
 53
45.0
 43
0.0
 44
0.0
 45
-0.0441941738241592
 46
0.0441941738241592
 79
     0
 53
45.0
 43
0.0294627825
 44
0.0
 45
-0.0441941738241592
 46
0.0441941738241592
 79
     0
 98
        1
 10
0.0
 20
0.0
  0
HATCH
  5
A7
330
79
100
AcDbEntity
  8
BLOCKS
 62
    16
100
AcDbHatch
 10
0.0
 20
0.0
 30
0.0
210
0.0
220
0.0
230
1.0
  2
ANSI32
 70
     0
 71
     0
 91
        1
 92
        0
 93
        4
 72
     1
 10
19.0095275609328
 20
28.99966421518074
 11
18.94675248259694
 21
29.00331778420741
 72
     1
 10
18.94675248259694
 20
29.00331778420741
 11
18.94488266885844
 21
28.97119092330762
 72
     1
 10
18.94488266885844
 20
28.97119092330762
 11
19.00952756093279
 21
28.96742852935006
 72
     1
 10
19.00952756093279
 20
28.96742852935006
 11
19.0095275609328
 21
28.99966421518074
 97
        0
 75
     0
 76
     1
 52
0.0
 41
0.1666666667
 77
     0
 78
     2
 53
45.0
 43
0.0
 44
0.0
 45
-0.0441941738241592
 46
0.0441941738241592
 79
     0
 53
45.0
 43
0.0294627825
 44
0.0
 45
-0.0441941738241592
 46
0.0441941738241592
 79
     0
 98
        1
 10
0.0
 20
0.0
  0
HATCH
  5
A8
330
79
100
AcDbEntity
  8
BLOCKS
 62
    16
100
AcDbHatch
 10
0.0
 20
0.0
 30
0.0
210
0.0
220
0.0
230
1.0
  2
ANSI32
 70
     0
 71
     0
 91
        1
 92
        0
 93
        4
 72
     1
 10
19.15729866039344
 20
28.95882811137627
 11
19.15916847413194
 21
28.99095497227606
 72
     1
 10
19.15916847413194
 20
28.99095497227606
 11
19.08641943273534
 21
28.99518903540131
 72
     1
 10
19.08641943273534
 20
28.99518903540131
 11
19.08641943273534
 21
28.96295334957064
 72
     1
 10
19.08641943273534
 20
28.96295334957064
 11
19.15729866039344
 21
28.95882811137627
 97
        0
 75
     0
 76
     1
 52
0.0
 41
0.1666666667
 77
     0
 78
     2
 53
45.0
 43
0.0
 44
0.0
 45
-0.0441941738241592
 46
0.0441941738241592
 79
     0
 53
45.0
 43
0.0294627825
 44
0.0
 45
-0.0441941738241592
 46
0.0441941738241592
 79
     0
 98
        1
 10
0.0
 20
0.0
  0
HATCH
  5
A9
330
79
100
AcDbEntity
  8
BLOCKS
 62
    16
100
AcDbHatch
 10
0.0
 20
0.0
 30
0.0
210
0.0
220
0.0
230
1.0
  2
ANSI32
 70
     0
 71
     0
 91
        1
 92
        0
 93
        4
 72
     1
 10
19.00952756093279
 20
28.95929271682988
 11
18.96475594104669
 21
28.95929271682988
 72
     2
 10
19.04703816761627
 20
28.99084869604216
 40
0.0881257319589163
 50
200.9822712637957
 51
339.0177287362059
 73
     1
 72
     1
 10
19.12932039418586
 20
28.95929271682988
 11
19.08641943273533
 21
28.95929271682988
 72
     1
 10
19.08641943273533
 20
28.95929271682988
 11
19.00952756093279
 21
28.95929271682988
 97
        0
 75
     0
 76
     1
 52
0.0
 41
0.1666666667
 77
     0
 78
     2
 53
45.0
 43
0.0
 44
0.0
 45
-0.0441941738241592
 46
0.0441941738241592
 79
     0
 53
45.0
 43
0.0294627825
 44
0.0
 45
-0.0441941738241592
 46
0.0441941738241592
 79
     0
 98
        1
 10
0.0
 20
0.0
  0
HATCH
  5
AA
330
79
100
AcDbEntity
  8
BLOCKS
 62
    16
100
AcDbHatch
 10
0.0
 20
0.0
 30
0.0
210
0.0
220
0.0
230
1.0
  2
SOLID
 70
     1
 71
     0
 91
        1
 92
        0
 93
        5
 72
     1
 10
19.90680635715495
 20
29.12174152375217
 11
19.89405107202551
 21
29.14344268635683
 72
     1
 10
19.89405107202551
 20
29.14344268635683
 11
19.30202323130653
 21
29.14344268635683
 72
     1
 10
19.30202323130653
 20
29.14344268635683
 11
19.34703094371573
 21
29.09872583179682
 72
     1
 10
19.34703094371573
 20
29.09872583179682
 11
19.34703094371572
 21
29.12174152375217
 72
     1
 10
19.34703094371572
 20
29.12174152375217
 11
19.90680635715495
 21
29.12174152375217
 97
        0
 75
     0
 76
     1
 98
        1
 10
0.0
 20
0.0
  0
INSERT
  5
C0
330
79
100
AcDbEntity
  8
BLOCKS
100
AcDbBlockReference
  2
SW_BLOCK_DIMENSION_0
 10
18.8731592339
 20
30.4268174472
 30
0.0
  0
ENDBLK
  5
7B
330
79
100
AcDbEntity
  8
0
100
AcDbBlockEnd
  0
BLOCK
  5
AC
330
AB
100
AcDbEntity
  8
0
100
AcDbBlockBegin
  2
SW_BLOCK_DIMENSION_0
 70
     0
 10
0.0
 20
0.0
 30
0.0
  3
SW_BLOCK_DIMENSION_0
  1

  0
SOLID
  5
AE
330
AB
100
AcDbEntity
  8
BLOCKS
 62
     0
100
AcDbTrace
 10
1.5208918382
 20
-0.2045332093
 30
0.0
 11
1.3186620205
 21
-0.1734209297
 31
0.0
 12
1.3186620205
 22
-0.2356454889
 32
0.0
 13
1.3186620205
 23
-0.2356454889
 33
0.0
  0
SOLID
  5
AF
330
AB
100
AcDbEntity
  8
BLOCKS
 62
     0
100
AcDbTrace
 10
1.0208918382
 20
-0.2045332093
 30
0.0
 11
1.2231216559
 21
-0.2356454889
 31
0.0
 12
1.2231216559
 22
-0.1734209297
 32
0.0
 13
1.2231216559
 23
-0.1734209297
 33
0.0
  0
LINE
  5
B0
330
AB
100
AcDbEntity
  8
BLOCKS
 62
     0
100
AcDbLine
 10
-0.0295138874
 20
0.0177083379
 30
0.0
 11
0.1838348813
 21
0.0177083379
 31
0.0
  0
LINE
  5
B1
330
AB
100
AcDbEntity
  8
BLOCKS
 62
     0
100
AcDbLine
 10
-0.0277777774
 20
-0.3299768602
 30
0.0
 11
-0.097222221
 21
-0.3299768602
 31
0.0
  0
LINE
  5
B2
330
AB
100
AcDbEntity
  8
BLOCKS
 62
     0
100
AcDbLine
 10
-0.097222221
 20
-0.3299768602
 30
0.0
 11
-0.097222221
 21
-0.6405478591
 31
0.0
  0
LINE
  5
B3
330
AB
100
AcDbEntity
  8
BLOCKS
 62
     0
100
AcDbLine
 10
-0.097222221
 20
-0.6405478591
 30
0.0
 11
-0.0277777774
 21
-0.6405478591
 31
0.0
  0
LINE
  5
B4
330
AB
100
AcDbEntity
  8
BLOCKS
 62
     0
100
AcDbLine
 10
0.2808642104
 20
-0.3299768602
 30
0.0
 11
0.350308654
 21
-0.3299768602
 31
0.0
  0
LINE
  5
B5
330
AB
100
AcDbEntity
  8
BLOCKS
 62
     0
100
AcDbLine
 10
0.350308654
 20
-0.3299768602
 30
0.0
 11
0.350308654
 21
-0.6405478591
 31
0.0
  0
LINE
  5
B6
330
AB
100
AcDbEntity
  8
BLOCKS
 62
     0
100
AcDbLine
 10
0.350308654
 20
-0.6405478591
 30
0.0
 11
0.2808642104
 21
-0.6405478591
 31
0.0
  0
LINE
  5
B7
330
AB
100
AcDbEntity
  8
BLOCKS
 62
     0
100
AcDbLine
 10
1.5208918382
 20
-1.4889335626
 30
0.0
 11
1.5208918382
 21
-0.0795332093
 31
0.0
  0
LINE
  5
B8
330
AB
100
AcDbEntity
  8
BLOCKS
 62
     0
100
AcDbLine
 10
1.0208918382
 20
-0.9041706328
 30
0.0
 11
1.0208918382
 21
-0.0795332093
 31
0.0
  0
LINE
  5
B9
330
AB
100
AcDbEntity
  8
BLOCKS
 62
     0
100
AcDbLine
 10
1.5208918382
 20
-0.2045332093
 30
0.0
 11
1.0208918382
 21
-0.2045332093
 31
0.0
  0
LINE
  5
BA
330
AB
100
AcDbEntity
  8
BLOCKS
 62
     0
100
AcDbLine
 10
1.0208918382
 20
-0.2045332093
 30
0.0
 11
0.4660625494
 21
-0.2045332093
 31
0.0
  0
MTEXT
  5
BC
330
AB
100
AcDbEntity
  8
BLOCKS
 62
     0
100
AcDbMText
 10
0.0
 20
0.2685557791
 30
0.0
 40
0.2083333333
 41
0.0
 71
     1
 72
     1
  1
1
  7
SLDTEXTSTYLE0
 73
     1
 44
1.0
  0
MTEXT
  5
BD
330
AB
100
AcDbEntity
  8
BLOCKS
 62
     0
100
AcDbMText
 10
0.0
 20
-0.0151247729
 30
0.0
 40
0.2083333333
 41
0.0
 71
     1
 72
     1
  1
2
  7
SLDTEXTSTYLE0
 73
     1
 44
1.0
  0
MTEXT
  5
BE
330
AB
100
AcDbEntity
  8
BLOCKS
 62
     0
100
AcDbMText
 10
0.2133487687
 20
0.1266238321
 30
0.0
 40
0.2083333333
 41
0.0
 71
     1
 72
     1
  1
"
  7
SLDTEXTSTYLE0
 73
     1
 44
1.0
  0
MTEXT
  5
BF
330
AB
100
AcDbEntity
  8
BLOCKS
 62
     0
100
AcDbMText
 10
-0.0277777774
 20
-0.3719920662
 30
0.0
 40
0.2083333333
 41
0.0
 71
     1
 72
     1
  1
13
  7
SLDTEXTSTYLE0
 73
     1
 44
1.0
  0
ENDBLK
  5
AD
330
AB
100
AcDbEntity
  8
0
100
AcDbBlockEnd
  0
BLOCK
  5
C2
330
C1
100
AcDbEntity
  8
0
100
AcDbBlockBegin
  2
OVERHANG - .125
 70
     0
 10
0.0
 20
0.0
 30
0.0
  3
OVERHANG - .125
  1

  0
ARC
  5
C4
330
C1
100
AcDbEntity
  8
0
  6
Continuous
 62
    16
370
    18
100
AcDbCircle
 10
21.0247390722
 20
26.9140495115
 30
0.0
 40
0.0659795528056719
100
AcDbArc
 50
0.0
 51
90.0
  0
ARC
  5
C5
330
C1
100
AcDbEntity
  8
0
  6
Continuous
 62
    16
370
    18
100
AcDbCircle
 10
20.0403577083
 20
26.4212514943
 30
0.0
 40
0.0881257319589152
100
AcDbArc
 50
200.9822712638
 51
339.0177287362
  0
ARC
  5
C6
330
C1
100
AcDbEntity
  8
0
  6
Continuous
 62
    16
370
    18
100
AcDbCircle
 10
20.731618625
 20
26.3139893982
 30
0.0
 40
0.1880000000000024
100
AcDbArc
 50
0.0
 51
90.0
  0
ARC
  5
C7
330
C1
100
AcDbEntity
  8
0
  6
Continuous
 62
    16
370
    18
100
AcDbCircle
 10
20.731618625
 20
26.3139893982
 30
0.0
 40
0.2341000000000015
100
AcDbArc
 50
0.0
 51
90.0
  0
ARC
  5
C8
330
C1
100
AcDbEntity
  8
BLOCKS
100
AcDbCircle
 10
21.3249668066
 20
26.3001927866
 30
0.0
 40
0.3686452378780193
100
AcDbArc
 50
129.4518716023
 51
170.6861521435
  0
LINE
  5
C9
330
C1
100
AcDbEntity
  8
0
  6
Continuous
 62
    16
370
    18
100
AcDbLine
 10
19.4314231162
 20
26.5192257655
 30
0.0
 11
19.3788703567
 21
26.5738454846
 31
0.0
  0
LINE
  5
CA
330
C1
100
AcDbEntity
  8
0
  6
Continuous
 62
    16
370
    18
100
AcDbLine
 10
20.0408120814
 20
26.8351846327
 30
0.0
 11
20.0797389734
 21
26.7799952517
 31
0.0
  0
LINE
  5
CB
330
C1
100
AcDbEntity
  8
0
  6
Continuous
 62
    16
370
    18
100
AcDbLine
 10
19.3788703567
 20
26.5738454846
 30
0.0
 11
19.3364639969
 21
26.5330438976
 31
0.0
  0
LINE
  5
CC
330
C1
100
AcDbEntity
  8
0
  6
Continuous
 62
    16
370
    18
100
AcDbLine
 10
20.6725806187
 20
26.4527516548
 30
0.0
 11
20.7252404088
 21
26.5034186543
 31
0.0
  0
LINE
  5
CD
330
C1
100
AcDbEntity
  8
0
  6
Continuous
 62
    16
370
    18
100
AcDbLine
 10
20.0797389734
 20
26.7799952517
 30
0.0
 11
20.0797389734
 21
26.3896955151
 31
0.0
  0
LINE
  5
CE
330
C1
100
AcDbEntity
  8
0
  6
Continuous
 62
    16
370
    18
100
AcDbLine
 10
19.9814774532
 20
26.8652076206
 30
0.0
 11
19.9814774532
 21
26.5848453834
 31
0.0
  0
LINE
  5
CF
330
C1
100
AcDbEntity
  8
0
  6
Continuous
 62
    16
370
    18
100
AcDbLine
 10
20.7678769055
 20
26.4591052159
 30
0.0
 11
20.6989695496
 21
26.392805503
 31
0.0
  0
LINE
  5
D0
330
C1
100
AcDbEntity
  8
0
  6
Continuous
 62
    16
370
    18
100
AcDbLine
 10
21.0247390722
 20
26.9800290643
 30
0.0
 11
19.2446660374
 21
26.9800290643
 31
0.0
  0
LINE
  5
D1
330
C1
100
AcDbEntity
  8
0
  6
Continuous
 62
    16
370
    18
100
AcDbLine
 10
19.9670675999
 20
26.4905376331
 30
0.0
 11
19.9670675999
 21
26.4354028898
 31
0.0
  0
LINE
  5
D2
330
C1
100
AcDbEntity
  8
0
  6
Continuous
 62
    16
370
    18
100
AcDbLine
 10
20.1524880148
 20
26.4213577706
 30
0.0
 11
20.1506182011
 21
26.3892309097
 31
0.0
  0
LINE
  5
D3
330
C1
100
AcDbEntity
  8
0
  6
Continuous
 62
    16
370
    18
100
AcDbLine
 10
19.3364639969
 20
26.5330438976
 30
0.0
 11
19.3985753063
 21
26.4684896798
 31
0.0
  0
LINE
  5
D4
330
C1
100
AcDbEntity
  8
0
  6
Continuous
 62
    16
370
    18
100
AcDbLine
 10
20.2906117643
 20
26.5019893982
 30
0.0
 11
20.2906117643
 21
26.5480893982
 31
0.0
  0
LINE
  5
D5
330
C1
100
AcDbEntity
  8
0
  6
Continuous
 62
    16
370
    18
100
AcDbLine
 10
19.4314231162
 20
26.5192257655
 30
0.0
 11
20.6725806187
 21
26.4527516548
 31
0.0
  0
LINE
  5
D6
330
C1
100
AcDbEntity
  8
0
  6
Continuous
 62
    16
370
    18
100
AcDbLine
 10
19.9400720233
 20
26.4337205825
 30
0.0
 11
20.1524880148
 21
26.4213577706
 31
0.0
  0
LINE
  5
D7
330
C1
100
AcDbEntity
  8
0
  6
Continuous
 62
    16
370
    18
100
AcDbLine
 10
21.090718625
 20
26.5848453834
 30
0.0
 11
21.090718625
 21
26.9140495115
 31
0.0
  0
LINE
  5
D8
330
C1
100
AcDbEntity
  8
0
  6
Continuous
 62
    16
370
    18
100
AcDbLine
 10
20.731618625
 20
26.5019893982
 30
0.0
 11
20.2906117643
 21
26.5019893982
 31
0.0
  0
LINE
  5
D9
330
C1
100
AcDbEntity
  8
0
  6
Continuous
 62
    16
370
    18
100
AcDbLine
 10
20.919618625
 20
25.9230893982
 30
0.0
 11
20.919618625
 21
26.3139893982
 31
0.0
  0
LINE
  5
DA
330
C1
100
AcDbEntity
  8
0
  6
Continuous
 62
    16
370
    18
100
AcDbLine
 10
19.9580754817
 20
26.3896955151
 30
0.0
 11
20.1226399348
 21
26.3896955151
 31
0.0
  0
LINE
  5
DB
330
C1
100
AcDbEntity
  8
0
  6
Continuous
 62
    16
370
    18
100
AcDbLine
 10
20.1506182011
 20
26.3892309097
 30
0.0
 11
19.9382022095
 21
26.4015937216
 31
0.0
  0
LINE
  5
DC
330
C1
100
AcDbEntity
  8
0
  6
Continuous
 62
    16
370
    18
100
AcDbLine
 10
20.965718625
 20
25.9230893982
 30
0.0
 11
20.919618625
 21
25.9230893982
 31
0.0
  0
LINE
  5
DD
330
C1
100
AcDbEntity
  8
0
  6
Continuous
 62
    16
370
    18
100
AcDbLine
 10
20.965718625
 20
26.3139893982
 30
0.0
 11
20.965718625
 21
25.9230893982
 31
0.0
  0
LINE
  5
DE
330
C1
100
AcDbEntity
  8
0
  6
Continuous
 62
    16
370
    18
100
AcDbLine
 10
20.6989695496
 20
26.392805503
 30
0.0
 11
19.3985753063
 21
26.4684896798
 31
0.0
  0
LINE
  5
DF
330
C1
100
AcDbEntity
  8
0
  6
Continuous
 62
    16
370
    18
100
AcDbLine
 10
19.2743496911
 20
26.5848453834
 30
0.0
 11
21.090718625
 21
26.5848453834
 31
0.0
  0
LINE
  5
E0
330
C1
100
AcDbEntity
  8
0
  6
Continuous
 62
    16
370
    18
100
AcDbLine
 10
20.0028471016
 20
26.7799952517
 30
0.0
 11
20.0408120814
 21
26.8351846327
 31
0.0
  0
LINE
  5
E1
330
C1
100
AcDbEntity
  8
0
  6
Continuous
 62
    16
370
    18
100
AcDbLine
 10
20.2906117643
 20
26.5480893982
 30
0.0
 11
20.731618625
 21
26.5480893982
 31
0.0
  0
LINE
  5
E2
330
C1
100
AcDbEntity
  8
0
  6
Continuous
 62
    16
370
    18
100
AcDbLine
 10
20.0028471016
 20
26.7799952517
 30
0.0
 11
20.0028471016
 21
26.3896955151
 31
0.0
  0
LINE
  5
E3
330
C1
100
AcDbEntity
  8
0
  6
Continuous
 62
    16
370
    18
100
AcDbLine
 10
20.1080144451
 20
26.8652076206
 30
0.0
 11
19.9814774532
 21
26.8652076206
 31
0.0
  0
LINE
  5
E4
330
C1
100
AcDbEntity
  8
0
  6
Continuous
 62
    16
370
    18
100
AcDbLine
 10
20.7252404088
 20
26.5034186543
 30
0.0
 11
20.7678769055
 21
26.4591052159
 31
0.0
  0
LINE
  5
E5
330
C1
100
AcDbEntity
  8
0
  6
Continuous
 62
    16
370
    18
100
AcDbLine
 10
19.9400720233
 20
26.4337205825
 30
0.0
 11
19.9382022095
 21
26.4015937216
 31
0.0
  0
LINE
  5
E6
330
C1
100
AcDbEntity
  8
0
  6
Continuous
 62
    16
370
    18
100
AcDbLine
 10
20.1080144451
 20
26.5848453834
 30
0.0
 11
20.1080144451
 21
26.8652076206
 31
0.0
  0
LINE
  5
E7
330
C1
100
AcDbEntity
  8
0
  6
Continuous
 62
    16
370
    18
100
AcDbLine
 10
20.1216872784
 20
26.4822564878
 30
0.0
 11
20.1216872784
 21
26.426403878
 31
0.0
  0
LINE
  5
E8
330
C1
100
AcDbEntity
  8
BLOCKS
100
AcDbLine
 10
20.2906117643
 20
26.5480893982
 30
0.0
 11
20.2368944426
 21
26.5848453834
 31
0.0
  0
SPLINE
  5
E9
330
C1
100
AcDbEntity
  8
0
  6
Continuous
 62
    16
370
    18
100
AcDbSpline
210
0.0
220
0.0
230
1.0
 70
     8
 71
     3
 72
     9
 73
     5
 74
     0
 42
0.000000001
 43
0.00000001
 40
0.0
 40
0.0
 40
0.0
 40
0.0
 40
0.5928291688347104
 40
1.0
 40
1.0
 40
1.0
 40
1.0
 10
19.27434969107827
 20
26.58484538338648
 30
0.0
 10
19.22977403886498
 20
26.67067982455944
 30
0.0
 10
19.3092570011885
 20
26.78990333849608
 30
0.0
 10
19.29114417973896
 20
26.94415158372841
 30
0.0
 10
19.24466603742839
 20
26.98002906431008
 30
0.0
  0
HATCH
  5
EA
330
C1
100
AcDbEntity
  8
BLOCKS
 62
    16
100
AcDbHatch
 10
0.0
 20
0.0
 30
0.0
210
0.0
220
0.0
230
1.0
  2
ANSI36
 70
     0
 71
     0
 91
        1
 92
        0
 93
       10
 72
     4
 94
        3
 73
     1
 74
     0
 95
        9
 96
        5
 40
0.0
 40
0.0
 40
0.0
 40
0.0
 40
0.4071708311652896
 40
1.0
 40
1.0
 40
1.0
 40
1.0
 10
19.24466603742839
 20
26.98002906431008
 42
1.0
 10
19.29114417973896
 20
26.9441515837284
 42
1.0
 10
19.3092570011885
 20
26.78990333849607
 42
1.0
 10
19.22977403886498
 20
26.67067982455945
 42
1.0
 10
19.27434969107827
 20
26.58484538338648
 42
1.0
 72
     1
 10
19.27434969107827
 20
26.58484538338648
 11
19.98147745321076
 21
26.58484538338648
 72
     1
 10
19.98147745321076
 20
26.58484538338648
 11
19.98147745321076
 21
26.86520762058046
 72
     1
 10
19.98147745321076
 20
26.86520762058046
 11
20.10801444514525
 21
26.86520762058046
 72
     1
 10
20.10801444514525
 20
26.86520762058046
 11
20.10801444514525
 21
26.58484538338648
 72
     1
 10
20.10801444514525
 20
26.58484538338648
 11
20.23689444261453
 21
26.58484538338649
 72
     1
 10
20.23689444261453
 20
26.58484538338649
 11
21.0907186249667
 21
26.58484538338648
 72
     1
 10
21.0907186249667
 20
26.58484538338648
 11
21.0907186249667
 21
26.9140495115044
 72
     2
 10
21.02473907216103
 20
26.9140495115044
 40
0.0659795528056717
 50
0.0
 51
90.0
 73
     1
 72
     1
 10
21.02473907216103
 20
26.98002906431007
 11
19.24466603742839
 21
26.98002906431008
 97
        0
 75
     0
 76
     1
 52
0.0
 41
0.5
 77
     0
 78
     1
 53
45.0
 43
0.0
 44
0.0
 45
0.0331456303681194
 46
0.1215339780164378
 79
     4
 49
0.15625
 49
-0.03125
 49
0.0
 49
-0.03125
 98
        1
 10
0.0
 20
0.0
  0
HATCH
  5
EB
330
C1
100
AcDbEntity
  8
BLOCKS
 62
    16
100
AcDbHatch
 10
0.0
 20
0.0
 30
0.0
210
0.0
220
0.0
230
1.0
  2
ANSI32
 70
     0
 71
     0
 91
        1
 92
        0
 93
        4
 72
     1
 10
20.07973897339712
 20
26.58484538338648
 11
20.00284710159458
 21
26.58484538338648
 72
     1
 10
20.00284710159458
 20
26.58484538338648
 11
20.00284710159458
 21
26.48862134888004
 72
     1
 10
20.00284710159458
 20
26.48862134888004
 11
20.07973897339712
 21
26.4845031617958
 72
     1
 10
20.07973897339712
 20
26.4845031617958
 11
20.07973897339712
 21
26.58484538338648
 97
        0
 75
     0
 76
     1
 52
0.0
 41
0.2
 77
     0
 78
     2
 53
45.0
 43
0.0
 44
0.0
 45
-0.0530330085889911
 46
0.0530330085889911
 79
     0
 53
45.0
 43
0.035355339
 44
0.0
 45
-0.0530330085889911
 46
0.0530330085889911
 79
     0
 98
        1
 10
0.0
 20
0.0
  0
HATCH
  5
EC
330
C1
100
AcDbEntity
  8
BLOCKS
 62
    16
100
AcDbHatch
 10
0.0
 20
0.0
 30
0.0
210
0.0
220
0.0
230
1.0
  2
ANSI32
 70
     0
 71
     0
 91
        1
 92
        0
 93
        5
 72
     1
 10
20.04081208140756
 20
26.8351846326727
 11
20.00284710159458
 21
26.77999525166031
 72
     1
 10
20.00284710159458
 20
26.77999525166031
 11
20.00284710159458
 21
26.58484538338648
 72
     1
 10
20.00284710159458
 20
26.58484538338648
 11
20.07973897339712
 21
26.58484538338648
 72
     1
 10
20.07973897339712
 20
26.58484538338648
 11
20.07973897339712
 21
26.77999525166031
 72
     1
 10
20.07973897339712
 20
26.77999525166031
 11
20.04081208140756
 21
26.8351846326727
 97
        0
 75
     0
 76
     1
 52
0.0
 41
0.2
 77
     0
 78
     2
 53
45.0
 43
0.0
 44
0.0
 45
-0.0530330085889911
 46
0.0530330085889911
 79
     0
 53
45.0
 43
0.035355339
 44
0.0
 45
-0.0530330085889911
 46
0.0530330085889911
 79
     0
 98
        1
 10
0.0
 20
0.0
  0
HATCH
  5
ED
330
C1
100
AcDbEntity
  8
BLOCKS
 62
    16
100
AcDbHatch
 10
0.0
 20
0.0
 30
0.0
210
0.0
220
0.0
230
1.0
  2
ANSI32
 70
     0
 71
     0
 91
        1
 92
        0
 93
        4
 72
     1
 10
20.07973897339712
 20
26.4845031617958
 11
20.00284710159458
 21
26.48862134888004
 72
     1
 10
20.00284710159458
 20
26.48862134888004
 11
20.00284710159458
 21
26.43332048887584
 72
     1
 10
20.00284710159458
 20
26.43332048887584
 11
20.07973897339712
 21
26.42884530909641
 72
     1
 10
20.07973897339712
 20
26.42884530909641
 11
20.07973897339712
 21
26.4845031617958
 97
        0
 75
     0
 76
     1
 52
0.0
 41
0.2
 77
     0
 78
     2
 53
45.0
 43
0.0
 44
0.0
 45
-0.0530330085889911
 46
0.0530330085889911
 79
     0
 53
45.0
 43
0.035355339
 44
0.0
 45
-0.0530330085889911
 46
0.0530330085889911
 79
     0
 98
        1
 10
0.0
 20
0.0
  0
HATCH
  5
EE
330
C1
100
AcDbEntity
  8
BLOCKS
 62
    16
100
AcDbHatch
 10
0.0
 20
0.0
 30
0.0
210
0.0
220
0.0
230
1.0
  2
ANSI32
 70
     0
 71
     0
 91
        1
 92
        0
 93
        4
 72
     1
 10
20.00284710159458
 20
26.43006701346352
 11
19.94007202325873
 21
26.43372058249019
 72
     1
 10
19.94007202325873
 20
26.43372058249019
 11
19.93820220952023
 21
26.40159372159039
 72
     1
 10
19.93820220952023
 20
26.40159372159039
 11
20.00284710159458
 21
26.39783132763285
 72
     1
 10
20.00284710159458
 20
26.39783132763285
 11
20.00284710159458
 21
26.43006701346352
 97
        0
 75
     0
 76
     1
 52
0.0
 41
0.2
 77
     0
 78
     2
 53
45.0
 43
0.0
 44
0.0
 45
-0.0530330085889911
 46
0.0530330085889911
 79
     0
 53
45.0
 43
0.035355339
 44
0.0
 45
-0.0530330085889911
 46
0.0530330085889911
 79
     0
 98
        1
 10
0.0
 20
0.0
  0
HATCH
  5
EF
330
C1
100
AcDbEntity
  8
BLOCKS
 62
    16
100
AcDbHatch
 10
0.0
 20
0.0
 30
0.0
210
0.0
220
0.0
230
1.0
  2
ANSI32
 70
     0
 71
     0
 91
        1
 92
        0
 93
        4
 72
     1
 10
20.07973897339712
 20
26.42559183368408
 11
20.00284710159458
 21
26.43006701346352
 72
     1
 10
20.00284710159458
 20
26.43006701346352
 11
20.00284710159458
 21
26.39783132763285
 72
     1
 10
20.00284710159458
 20
26.39783132763285
 11
20.07973897339712
 21
26.39335614785342
 72
     1
 10
20.07973897339712
 20
26.39335614785342
 11
20.07973897339712
 21
26.42559183368408
 97
        0
 75
     0
 76
     1
 52
0.0
 41
0.2
 77
     0
 78
     2
 53
45.0
 43
0.0
 44
0.0
 45
-0.0530330085889911
 46
0.0530330085889911
 79
     0
 53
45.0
 43
0.035355339
 44
0.0
 45
-0.0530330085889911
 46
0.0530330085889911
 79
     0
 98
        1
 10
0.0
 20
0.0
  0
HATCH
  5
F0
330
C1
100
AcDbEntity
  8
BLOCKS
 62
    16
100
AcDbHatch
 10
0.0
 20
0.0
 30
0.0
210
0.0
220
0.0
230
1.0
  2
ANSI32
 70
     0
 71
     0
 91
        1
 92
        0
 93
        4
 72
     1
 10
20.07973897339712
 20
26.39335614785342
 11
20.15061820105523
 21
26.38923090965904
 72
     1
 10
20.15061820105523
 20
26.38923090965904
 11
20.15248801479373
 21
26.42135777055884
 72
     1
 10
20.15248801479373
 20
26.42135777055884
 11
20.07973897339712
 21
26.42559183368408
 72
     1
 10
20.07973897339712
 20
26.42559183368408
 11
20.07973897339712
 21
26.39335614785342
 97
        0
 75
     0
 76
     1
 52
0.0
 41
0.2
 77
     0
 78
     2
 53
45.0
 43
0.0
 44
0.0
 45
-0.0530330085889911
 46
0.0530330085889911
 79
     0
 53
45.0
 43
0.035355339
 44
0.0
 45
-0.0530330085889911
 46
0.0530330085889911
 79
     0
 98
        1
 10
0.0
 20
0.0
  0
HATCH
  5
F1
330
C1
100
AcDbEntity
  8
BLOCKS
 62
    16
100
AcDbHatch
 10
0.0
 20
0.0
 30
0.0
210
0.0
220
0.0
230
1.0
  2
ANSI32
 70
     0
 71
     0
 91
        1
 92
        0
 93
        4
 72
     1
 10
20.00284710159458
 20
26.38969551511265
 11
19.95807548170848
 21
26.38969551511265
 72
     2
 10
20.04035770827806
 20
26.42125149432493
 40
0.0881257319589163
 50
200.9822712637957
 51
339.0177287362059
 73
     1
 72
     1
 10
20.12263993484765
 20
26.38969551511265
 11
20.07973897339712
 21
26.38969551511265
 72
     1
 10
20.07973897339712
 20
26.38969551511265
 11
20.00284710159458
 21
26.38969551511265
 97
        0
 75
     0
 76
     1
 52
0.0
 41
0.2
 77
     0
 78
     2
 53
45.0
 43
0.0
 44
0.0
 45
-0.0530330085889911
 46
0.0530330085889911
 79
     0
 53
45.0
 43
0.035355339
 44
0.0
 45
-0.0530330085889911
 46
0.0530330085889911
 79
     0
 98
        1
 10
0.0
 20
0.0
  0
HATCH
  5
F2
330
C1
100
AcDbEntity
  8
BLOCKS
100
AcDbHatch
 10
0.0
 20
0.0
 30
0.0
210
0.0
220
0.0
230
1.0
  2
SOLID
 70
     1
 71
     0
 91
        1
 92
        0
 93
        5
 72
     2
 10
21.32496680656287
 20
26.30019278664964
 40
0.3686452378780171
 50
189.3138478564999
 51
230.5481283977412
 73
     0
 72
     1
 10
21.0907186249667
 20
26.58484538338648
 11
20.23689444261453
 21
26.58484538338649
 72
     1
 10
20.23689444261453
 20
26.58484538338649
 11
20.29061176430621
 21
26.54808939823214
 72
     1
 10
20.29061176430621
 20
26.54808939823214
 11
20.7316186249667
 21
26.54808939823214
 72
     2
 10
20.7316186249667
 20
26.31398939823214
 40
0.2341000000000018
 50
270.0000000000008
 51
348.7012977589557
 73
     0
 97
        0
 75
     0
 76
     1
 98
        1
 10
0.0
 20
0.0
  0
INSERT
  5
107
330
C1
100
AcDbEntity
  8
BLOCKS
100
AcDbBlockReference
  2
SW_BLOCK_DIMENSION_1
 10
20.016303788
 20
25.6451516457
 30
0.0
  0
ENDBLK
  5
C3
330
C1
100
AcDbEntity
  8
0
100
AcDbBlockEnd
  0
BLOCK
  5
F4
330
F3
100
AcDbEntity
  8
0
100
AcDbBlockBegin
  2
SW_BLOCK_DIMENSION_1
 70
     0
 10
0.0
 20
0.0
 30
0.0
  3
SW_BLOCK_DIMENSION_1
  1

  0
SOLID
  5
F6
330
F3
100
AcDbEntity
  8
BLOCKS
 62
     0
100
AcDbTrace
 10
0.9494148369
 20
-0.2045332093
 30
0.0
 11
0.7471850192
 21
-0.1734209297
 31
0.0
 12
0.7471850192
 22
-0.2356454889
 32
0.0
 13
0.7471850192
 23
-0.2356454889
 33
0.0
  0
SOLID
  5
F7
330
F3
100
AcDbEntity
  8
BLOCKS
 62
     0
100
AcDbTrace
 10
1.0744148369
 20
-0.2045332093
 30
0.0
 11
1.2766446546
 21
-0.2356454889
 31
0.0
 12
1.2766446546
 22
-0.1734209297
 32
0.0
 13
1.2766446546
 23
-0.1734209297
 33
0.0
  0
LINE
  5
F8
330
F3
100
AcDbEntity
  8
BLOCKS
 62
     0
100
AcDbLine
 10
-0.0295138874
 20
0.0177083379
 30
0.0
 11
0.1838348813
 21
0.0177083379
 31
0.0
  0
LINE
  5
F9
330
F3
100
AcDbEntity
  8
BLOCKS
 62
     0
100
AcDbLine
 10
0.0493827195
 20
-0.3299768602
 30
0.0
 11
-0.0200617241
 21
-0.3299768602
 31
0.0
  0
LINE
  5
FA
330
F3
100
AcDbEntity
  8
BLOCKS
 62
     0
100
AcDbLine
 10
-0.0200617241
 20
-0.3299768602
 30
0.0
 11
-0.0200617241
 21
-0.6405478591
 31
0.0
  0
LINE
  5
FB
330
F3
100
AcDbEntity
  8
BLOCKS
 62
     0
100
AcDbLine
 10
-0.0200617241
 20
-0.6405478591
 30
0.0
 11
0.0493827195
 21
-0.6405478591
 31
0.0
  0
LINE
  5
FC
330
F3
100
AcDbEntity
  8
BLOCKS
 62
     0
100
AcDbLine
 10
0.2037037135
 20
-0.3299768602
 30
0.0
 11
0.2731481571
 21
-0.3299768602
 31
0.0
  0
LINE
  5
FD
330
F3
100
AcDbEntity
  8
BLOCKS
 62
     0
100
AcDbLine
 10
0.2731481571
 20
-0.3299768602
 30
0.0
 11
0.2731481571
 21
-0.6405478591
 31
0.0
  0
LINE
  5
FE
330
F3
100
AcDbEntity
  8
BLOCKS
 62
     0
100
AcDbLine
 10
0.2731481571
 20
-0.6405478591
 30
0.0
 11
0.2037037135
 21
-0.6405478591
 31
0.0
  0
LINE
  5
FF
330
F3
100
AcDbEntity
  8
BLOCKS
 62
     0
100
AcDbLine
 10
0.9494148369
 20
0.2279377526
 30
0.0
 11
0.9494148369
 21
-0.3295332093
 31
0.0
  0
LINE
  5
100
330
F3
100
AcDbEntity
  8
BLOCKS
 62
     0
100
AcDbLine
 10
1.0744148369
 20
0.8896937377
 30
0.0
 11
1.0744148369
 21
-0.3295332093
 31
0.0
  0
LINE
  5
101
330
F3
100
AcDbEntity
  8
BLOCKS
 62
     0
100
AcDbLine
 10
0.9494148369
 20
-0.2045332093
 30
0.0
 11
0.3439859824
 21
-0.2045332093
 31
0.0
  0
LINE
  5
102
330
F3
100
AcDbEntity
  8
BLOCKS
 62
     0
100
AcDbLine
 10
1.0744148369
 20
-0.2045332093
 30
0.0
 11
1.4633183325
 21
-0.2045332093
 31
0.0
  0
MTEXT
  5
103
330
F3
100
AcDbEntity
  8
BLOCKS
 62
     0
100
AcDbMText
 10
0.0
 20
0.2685557791
 30
0.0
 40
0.2083333333
 41
0.0
 71
     1
 72
     1
  1
1
  7
SLDTEXTSTYLE0
 73
     1
 44
1.0
  0
MTEXT
  5
104
330
F3
100
AcDbEntity
  8
BLOCKS
 62
     0
100
AcDbMText
 10
0.0
 20
-0.0151247729
 30
0.0
 40
0.2083333333
 41
0.0
 71
     1
 72
     1
  1
8
  7
SLDTEXTSTYLE0
 73
     1
 44
1.0
  0
MTEXT
  5
105
330
F3
100
AcDbEntity
  8
BLOCKS
 62
     0
100
AcDbMText
 10
0.2133487687
 20
0.1266238321
 30
0.0
 40
0.2083333333
 41
0.0
 71
     1
 72
     1
  1
"
  7
SLDTEXTSTYLE0
 73
     1
 44
1.0
  0
MTEXT
  5
106
330
F3
100
AcDbEntity
  8
BLOCKS
 62
     0
100
AcDbMText
 10
0.0493827195
 20
-0.3719920662
 30
0.0
 40
0.2083333333
 41
0.0
 71
     1
 72
     1
  1
3
  7
SLDTEXTSTYLE0
 73
     1
 44
1.0
  0
ENDBLK
  5
F5
330
F3
100
AcDbEntity
  8
0
100
AcDbBlockEnd
  0
BLOCK
  5
109
330
108
100
AcDbEntity
  8
0
100
AcDbBlockBegin
  2
REVEAL - 0 (FLUSH)
 70
     0
 10
0.0
 20
0.0
 30
0.0
  3
REVEAL - 0 (FLUSH)
  1

  0
ARC
  5
10B
330
108
100
AcDbEntity
  8
0
  6
Continuous
 62
    16
370
    18
100
AcDbCircle
 10
20.8997390722
 20
26.9140495115
 30
0.0
 40
0.0659795528056684
100
AcDbArc
 50
0.0
 51
90.0
  0
ARC
  5
10C
330
108
100
AcDbEntity
  8
0
  6
Continuous
 62
    16
370
    18
100
AcDbCircle
 10
20.0403577083
 20
26.4212514943
 30
0.0
 40
0.0881257319589152
100
AcDbArc
 50
200.9822712638
 51
339.0177287362
  0
ARC
  5
10D
330
108
100
AcDbEntity
  8
0
  6
Continuous
 62
    16
370
    18
100
AcDbCircle
 10
20.731618625
 20
26.3139893982
 30
0.0
 40
0.1880000000000024
100
AcDbArc
 50
0.0
 51
90.0
  0
ARC
  5
10E
330
108
100
AcDbEntity
  8
0
  6
Continuous
 62
    16
370
    18
100
AcDbCircle
 10
20.731618625
 20
26.3139893982
 30
0.0
 40
0.2341000000000015
100
AcDbArc
 50
0.0
 51
90.0
  0
LINE
  5
10F
330
108
100
AcDbEntity
  8
0
  6
Continuous
 62
    16
370
    18
100
AcDbLine
 10
19.4314231162
 20
26.5192257655
 30
0.0
 11
19.3788703567
 21
26.5738454846
 31
0.0
  0
LINE
  5
110
330
108
100
AcDbEntity
  8
0
  6
Continuous
 62
    16
370
    18
100
AcDbLine
 10
20.0408120814
 20
26.8351846327
 30
0.0
 11
20.0797389734
 21
26.7799952517
 31
0.0
  0
LINE
  5
111
330
108
100
AcDbEntity
  8
0
  6
Continuous
 62
    16
370
    18
100
AcDbLine
 10
19.3788703567
 20
26.5738454846
 30
0.0
 11
19.3364639969
 21
26.5330438976
 31
0.0
  0
LINE
  5
112
330
108
100
AcDbEntity
  8
0
  6
Continuous
 62
    16
370
    18
100
AcDbLine
 10
20.6725806187
 20
26.4527516548
 30
0.0
 11
20.7252404088
 21
26.5034186543
 31
0.0
  0
LINE
  5
113
330
108
100
AcDbEntity
  8
0
  6
Continuous
 62
    16
370
    18
100
AcDbLine
 10
20.0797389734
 20
26.7799952517
 30
0.0
 11
20.0797389734
 21
26.3896955151
 31
0.0
  0
LINE
  5
114
330
108
100
AcDbEntity
  8
0
  6
Continuous
 62
    16
370
    18
100
AcDbLine
 10
19.9814774532
 20
26.8652076206
 30
0.0
 11
19.9814774532
 21
26.5848453834
 31
0.0
  0
LINE
  5
115
330
108
100
AcDbEntity
  8
0
  6
Continuous
 62
    16
370
    18
100
AcDbLine
 10
20.7678769055
 20
26.4591052159
 30
0.0
 11
20.6989695496
 21
26.392805503
 31
0.0
  0
LINE
  5
116
330
108
100
AcDbEntity
  8
0
  6
Continuous
 62
    16
370
    18
100
AcDbLine
 10
20.8997390722
 20
26.9800290643
 30
0.0
 11
19.2446660374
 21
26.9800290643
 31
0.0
  0
LINE
  5
117
330
108
100
AcDbEntity
  8
0
  6
Continuous
 62
    16
370
    18
100
AcDbLine
 10
19.9670675999
 20
26.4905376331
 30
0.0
 11
19.9670675999
 21
26.4354028898
 31
0.0
  0
LINE
  5
118
330
108
100
AcDbEntity
  8
0
  6
Continuous
 62
    16
370
    18
100
AcDbLine
 10
20.1524880148
 20
26.4213577706
 30
0.0
 11
20.1506182011
 21
26.3892309097
 31
0.0
  0
LINE
  5
119
330
108
100
AcDbEntity
  8
0
  6
Continuous
 62
    16
370
    18
100
AcDbLine
 10
19.3364639969
 20
26.5330438976
 30
0.0
 11
19.3985753063
 21
26.4684896798
 31
0.0
  0
LINE
  5
11A
330
108
100
AcDbEntity
  8
0
  6
Continuous
 62
    16
370
    18
100
AcDbLine
 10
20.2906117643
 20
26.5019893982
 30
0.0
 11
20.2906117643
 21
26.5480893982
 31
0.0
  0
LINE
  5
11B
330
108
100
AcDbEntity
  8
0
  6
Continuous
 62
    16
370
    18
100
AcDbLine
 10
19.4314231162
 20
26.5192257655
 30
0.0
 11
20.6725806187
 21
26.4527516548
 31
0.0
  0
LINE
  5
11C
330
108
100
AcDbEntity
  8
0
  6
Continuous
 62
    16
370
    18
100
AcDbLine
 10
19.9400720233
 20
26.4337205825
 30
0.0
 11
20.1524880148
 21
26.4213577706
 31
0.0
  0
LINE
  5
11D
330
108
100
AcDbEntity
  8
0
  6
Continuous
 62
    16
370
    18
100
AcDbLine
 10
20.965718625
 20
26.5848453834
 30
0.0
 11
20.965718625
 21
26.9140495115
 31
0.0
  0
LINE
  5
11E
330
108
100
AcDbEntity
  8
0
  6
Continuous
 62
    16
370
    18
100
AcDbLine
 10
20.731618625
 20
26.5019893982
 30
0.0
 11
20.2906117643
 21
26.5019893982
 31
0.0
  0
LINE
  5
11F
330
108
100
AcDbEntity
  8
0
  6
Continuous
 62
    16
370
    18
100
AcDbLine
 10
20.919618625
 20
25.9230893982
 30
0.0
 11
20.919618625
 21
26.3139893982
 31
0.0
  0
LINE
  5
120
330
108
100
AcDbEntity
  8
0
  6
Continuous
 62
    16
370
    18
100
AcDbLine
 10
19.9580754817
 20
26.3896955151
 30
0.0
 11
20.1226399348
 21
26.3896955151
 31
0.0
  0
LINE
  5
121
330
108
100
AcDbEntity
  8
0
  6
Continuous
 62
    16
370
    18
100
AcDbLine
 10
20.1506182011
 20
26.3892309097
 30
0.0
 11
19.9382022095
 21
26.4015937216
 31
0.0
  0
LINE
  5
122
330
108
100
AcDbEntity
  8
0
  6
Continuous
 62
    16
370
    18
100
AcDbLine
 10
20.965718625
 20
25.9230893982
 30
0.0
 11
20.919618625
 21
25.9230893982
 31
0.0
  0
LINE
  5
123
330
108
100
AcDbEntity
  8
0
  6
Continuous
 62
    16
370
    18
100
AcDbLine
 10
20.965718625
 20
26.3139893982
 30
0.0
 11
20.965718625
 21
25.9230893982
 31
0.0
  0
LINE
  5
124
330
108
100
AcDbEntity
  8
0
  6
Continuous
 62
    16
370
    18
100
AcDbLine
 10
20.6989695496
 20
26.392805503
 30
0.0
 11
19.3985753063
 21
26.4684896798
 31
0.0
  0
LINE
  5
125
330
108
100
AcDbEntity
  8
0
  6
Continuous
 62
    16
370
    18
100
AcDbLine
 10
19.2743496911
 20
26.5848453834
 30
0.0
 11
20.0028471016
 21
26.5848453834
 31
0.0
  0
LINE
  5
126
330
108
100
AcDbEntity
  8
0
  6
Continuous
 62
    16
370
    18
100
AcDbLine
 10
20.0028471016
 20
26.7799952517
 30
0.0
 11
20.0408120814
 21
26.8351846327
 31
0.0
  0
LINE
  5
127
330
108
100
AcDbEntity
  8
0
  6
Continuous
 62
    16
370
    18
100
AcDbLine
 10
20.2906117643
 20
26.5480893982
 30
0.0
 11
20.731618625
 21
26.5480893982
 31
0.0
  0
LINE
  5
128
330
108
100
AcDbEntity
  8
0
  6
Continuous
 62
    16
370
    18
100
AcDbLine
 10
20.0028471016
 20
26.7799952517
 30
0.0
 11
20.0028471016
 21
26.3896955151
 31
0.0
  0
LINE
  5
129
330
108
100
AcDbEntity
  8
0
  6
Continuous
 62
    16
370
    18
100
AcDbLine
 10
20.1033429009
 20
26.8652076206
 30
0.0
 11
19.9814774532
 21
26.8652076206
 31
0.0
  0
LINE
  5
12A
330
108
100
AcDbEntity
  8
0
  6
Continuous
 62
    16
370
    18
100
AcDbLine
 10
20.7252404088
 20
26.5034186543
 30
0.0
 11
20.7678769055
 21
26.4591052159
 31
0.0
  0
LINE
  5
12B
330
108
100
AcDbEntity
  8
0
  6
Continuous
 62
    16
370
    18
100
AcDbLine
 10
19.9400720233
 20
26.4337205825
 30
0.0
 11
19.9382022095
 21
26.4015937216
 31
0.0
  0
LINE
  5
12C
330
108
100
AcDbEntity
  8
0
  6
Continuous
 62
    16
370
    18
100
AcDbLine
 10
20.1033429009
 20
26.5848453834
 30
0.0
 11
20.1033429009
 21
26.8652076206
 31
0.0
  0
LINE
  5
12D
330
108
100
AcDbEntity
  8
0
  6
Continuous
 62
    16
370
    18
100
AcDbLine
 10
20.1216872784
 20
26.4822564878
 30
0.0
 11
20.1216872784
 21
26.426403878
 31
0.0
  0
LINE
  5
12E
330
108
100
AcDbEntity
  8
BLOCKS
100
AcDbLine
 10
20.2906117643
 20
26.5480893982
 30
0.0
 11
20.2368944426
 21
26.5848453834
 31
0.0
  0
LINE
  5
12F
330
108
100
AcDbEntity
  8
0
  6
Continuous
 62
     7
370
    18
100
AcDbLine
 10
20.2368944426
 20
26.5848453834
 30
0.0
 11
20.965718625
 21
26.5848453834
 31
0.0
  0
LINE
  5
130
330
108
100
AcDbEntity
  8
BLOCKS
100
AcDbLine
 10
20.0797389734
 20
26.5848453834
 30
0.0
 11
20.965718625
 21
26.5848453834
 31
0.0
  0
LINE
  5
131
330
108
100
AcDbEntity
  8
0
  6
Continuous
 62
     7
370
    18
100
AcDbLine
 10
20.965718625
 20
26.3139893982
 30
0.0
 11
20.965718625
 21
26.5848453834
 31
0.0
  0
SPLINE
  5
132
330
108
100
AcDbEntity
  8
BLOCKS
100
AcDbSpline
210
0.0
220
0.0
230
1.0
 70
     8
 71
     3
 72
     8
 73
     4
 74
     0
 42
0.000000001
 43
0.00000001
 40
0.0
 40
0.0
 40
0.0
 40
0.0
 40
1.0
 40
1.0
 40
1.0
 40
1.0
 10
19.24466603742839
 20
26.98002906431008
 30
0.0
 10
19.40755868602182
 20
26.86177152370008
 30
0.0
 10
19.11947833134008
 20
26.72443452904972
 30
0.0
 10
19.27434969107827
 20
26.58484538338648
 30
0.0
  0
HATCH
  5
133
330
108
100
AcDbEntity
  8
0
  6
Continuous
 62
    16
100
AcDbHatch
 10
0.0
 20
0.0
 30
0.0
210
0.0
220
0.0
230
1.0
  2
SOLID
 70
     1
 71
     0
 91
        1
 92
        0
 93
        5
 72
     1
 10
20.29061176430621
 20
26.54808939823214
 11
20.7316186249667
 21
26.54808939823214
 72
     2
 10
20.7316186249667
 20
26.31398939823214
 40
0.2341000000000018
 50
270.0000000000008
 51
360.0000000000008
 73
     0
 72
     1
 10
20.9657186249667
 20
26.31398939823214
 11
20.9657186249667
 21
26.58484538338648
 72
     1
 10
20.9657186249667
 20
26.58484538338648
 11
20.23689444261454
 21
26.58484538338648
 72
     1
 10
20.23689444261454
 20
26.58484538338648
 11
20.29061176430621
 21
26.54808939823214
 97
        0
 75
     0
 76
     1
 98
        1
 10
0.0
 20
0.0
  0
HATCH
  5
134
330
108
100
AcDbEntity
  8
BLOCKS
 62
    16
100
AcDbHatch
 10
0.0
 20
0.0
 30
0.0
210
0.0
220
0.0
230
1.0
  2
ANSI32
 70
     0
 71
     0
 91
        1
 92
        0
 93
        4
 72
     1
 10
20.07973897339712
 20
26.58484538338648
 11
20.00284710159458
 21
26.58484538338648
 72
     1
 10
20.00284710159458
 20
26.58484538338648
 11
20.00284710159458
 21
26.48862134888004
 72
     1
 10
20.00284710159458
 20
26.48862134888004
 11
20.07973897339712
 21
26.4845031617958
 72
     1
 10
20.07973897339712
 20
26.4845031617958
 11
20.07973897339712
 21
26.58484538338648
 97
        0
 75
     0
 76
     1
 52
0.0
 41
0.2
 77
     0
 78
     2
 53
45.0
 43
0.0
 44
0.0
 45
-0.0530330085889911
 46
0.0530330085889911
 79
     0
 53
45.0
 43
0.035355339
 44
0.0
 45
-0.0530330085889911
 46
0.0530330085889911
 79
     0
 98
        1
 10
0.0
 20
0.0
  0
HATCH
  5
135
330
108
100
AcDbEntity
  8
BLOCKS
 62
    16
100
AcDbHatch
 10
0.0
 20
0.0
 30
0.0
210
0.0
220
0.0
230
1.0
  2
ANSI32
 70
     0
 71
     0
 91
        1
 92
        0
 93
        5
 72
     1
 10
20.04081208140756
 20
26.8351846326727
 11
20.00284710159458
 21
26.77999525166031
 72
     1
 10
20.00284710159458
 20
26.77999525166031
 11
20.00284710159458
 21
26.58484538338648
 72
     1
 10
20.00284710159458
 20
26.58484538338648
 11
20.07973897339712
 21
26.58484538338648
 72
     1
 10
20.07973897339712
 20
26.58484538338648
 11
20.07973897339712
 21
26.77999525166031
 72
     1
 10
20.07973897339712
 20
26.77999525166031
 11
20.04081208140756
 21
26.8351846326727
 97
        0
 75
     0
 76
     1
 52
0.0
 41
0.2
 77
     0
 78
     2
 53
45.0
 43
0.0
 44
0.0
 45
-0.0530330085889911
 46
0.0530330085889911
 79
     0
 53
45.0
 43
0.035355339
 44
0.0
 45
-0.0530330085889911
 46
0.0530330085889911
 79
     0
 98
        1
 10
0.0
 20
0.0
  0
HATCH
  5
136
330
108
100
AcDbEntity
  8
BLOCKS
 62
    16
100
AcDbHatch
 10
0.0
 20
0.0
 30
0.0
210
0.0
220
0.0
230
1.0
  2
ANSI32
 70
     0
 71
     0
 91
        1
 92
        0
 93
        4
 72
     1
 10
20.07973897339712
 20
26.4845031617958
 11
20.00284710159458
 21
26.48862134888004
 72
     1
 10
20.00284710159458
 20
26.48862134888004
 11
20.00284710159458
 21
26.43332048887584
 72
     1
 10
20.00284710159458
 20
26.43332048887584
 11
20.07973897339712
 21
26.42884530909641
 72
     1
 10
20.07973897339712
 20
26.42884530909641
 11
20.07973897339712
 21
26.4845031617958
 97
        0
 75
     0
 76
     1
 52
0.0
 41
0.2
 77
     0
 78
     2
 53
45.0
 43
0.0
 44
0.0
 45
-0.0530330085889911
 46
0.0530330085889911
 79
     0
 53
45.0
 43
0.035355339
 44
0.0
 45
-0.0530330085889911
 46
0.0530330085889911
 79
     0
 98
        1
 10
0.0
 20
0.0
  0
HATCH
  5
137
330
108
100
AcDbEntity
  8
BLOCKS
 62
    16
100
AcDbHatch
 10
0.0
 20
0.0
 30
0.0
210
0.0
220
0.0
230
1.0
  2
ANSI32
 70
     0
 71
     0
 91
        1
 92
        0
 93
        4
 72
     1
 10
20.00284710159458
 20
26.43006701346352
 11
19.94007202325873
 21
26.43372058249019
 72
     1
 10
19.94007202325873
 20
26.43372058249019
 11
19.93820220952023
 21
26.40159372159039
 72
     1
 10
19.93820220952023
 20
26.40159372159039
 11
20.00284710159458
 21
26.39783132763285
 72
     1
 10
20.00284710159458
 20
26.39783132763285
 11
20.00284710159458
 21
26.43006701346352
 97
        0
 75
     0
 76
     1
 52
0.0
 41
0.2
 77
     0
 78
     2
 53
45.0
 43
0.0
 44
0.0
 45
-0.0530330085889911
 46
0.0530330085889911
 79
     0
 53
45.0
 43
0.035355339
 44
0.0
 45
-0.0530330085889911
 46
0.0530330085889911
 79
     0
 98
        1
 10
0.0
 20
0.0
  0
HATCH
  5
138
330
108
100
AcDbEntity
  8
BLOCKS
 62
    16
100
AcDbHatch
 10
0.0
 20
0.0
 30
0.0
210
0.0
220
0.0
230
1.0
  2
ANSI32
 70
     0
 71
     0
 91
        1
 92
        0
 93
        4
 72
     1
 10
20.07973897339712
 20
26.42559183368408
 11
20.00284710159458
 21
26.43006701346352
 72
     1
 10
20.00284710159458
 20
26.43006701346352
 11
20.00284710159458
 21
26.39783132763285
 72
     1
 10
20.00284710159458
 20
26.39783132763285
 11
20.07973897339712
 21
26.39335614785342
 72
     1
 10
20.07973897339712
 20
26.39335614785342
 11
20.07973897339712
 21
26.42559183368408
 97
        0
 75
     0
 76
     1
 52
0.0
 41
0.2
 77
     0
 78
     2
 53
45.0
 43
0.0
 44
0.0
 45
-0.0530330085889911
 46
0.0530330085889911
 79
     0
 53
45.0
 43
0.035355339
 44
0.0
 45
-0.0530330085889911
 46
0.0530330085889911
 79
     0
 98
        1
 10
0.0
 20
0.0
  0
HATCH
  5
139
330
108
100
AcDbEntity
  8
BLOCKS
 62
    16
100
AcDbHatch
 10
0.0
 20
0.0
 30
0.0
210
0.0
220
0.0
230
1.0
  2
ANSI32
 70
     0
 71
     0
 91
        1
 92
        0
 93
        4
 72
     1
 10
20.07973897339712
 20
26.39335614785342
 11
20.15061820105523
 21
26.38923090965904
 72
     1
 10
20.15061820105523
 20
26.38923090965904
 11
20.15248801479373
 21
26.42135777055884
 72
     1
 10
20.15248801479373
 20
26.42135777055884
 11
20.07973897339712
 21
26.42559183368408
 72
     1
 10
20.07973897339712
 20
26.42559183368408
 11
20.07973897339712
 21
26.39335614785342
 97
        0
 75
     0
 76
     1
 52
0.0
 41
0.2
 77
     0
 78
     2
 53
45.0
 43
0.0
 44
0.0
 45
-0.0530330085889911
 46
0.0530330085889911
 79
     0
 53
45.0
 43
0.035355339
 44
0.0
 45
-0.0530330085889911
 46
0.0530330085889911
 79
     0
 98
        1
 10
0.0
 20
0.0
  0
HATCH
  5
13A
330
108
100
AcDbEntity
  8
BLOCKS
 62
    16
100
AcDbHatch
 10
0.0
 20
0.0
 30
0.0
210
0.0
220
0.0
230
1.0
  2
ANSI32
 70
     0
 71
     0
 91
        1
 92
        0
 93
        4
 72
     1
 10
20.00284710159458
 20
26.38969551511265
 11
19.95807548170848
 21
26.38969551511265
 72
     2
 10
20.04035770827806
 20
26.42125149432493
 40
0.0881257319589163
 50
200.9822712637957
 51
339.0177287362059
 73
     1
 72
     1
 10
20.12263993484765
 20
26.38969551511265
 11
20.07973897339712
 21
26.38969551511265
 72
     1
 10
20.07973897339712
 20
26.38969551511265
 11
20.00284710159458
 21
26.38969551511265
 97
        0
 75
     0
 76
     1
 52
0.0
 41
0.2
 77
     0
 78
     2
 53
45.0
 43
0.0
 44
0.0
 45
-0.0530330085889911
 46
0.0530330085889911
 79
     0
 53
45.0
 43
0.035355339
 44
0.0
 45
-0.0530330085889911
 46
0.0530330085889911
 79
     0
 98
        1
 10
0.0
 20
0.0
  0
HATCH
  5
13B
330
108
100
AcDbEntity
  8
0
  6
Continuous
 62
    16
100
AcDbHatch
 10
0.0
 20
0.0
 30
0.0
210
0.0
220
0.0
230
1.0
  2
ANSI36
 70
     0
 71
     0
 91
        1
 92
        0
 93
        9
 72
     2
 10
20.89973907216103
 20
26.9140495115044
 40
0.0659795528056695
 50
270.0000000000008
 51
360.0000000000008
 73
     0
 72
     1
 10
20.9657186249667
 20
26.9140495115044
 11
20.9657186249667
 21
26.58484538338648
 72
     1
 10
20.9657186249667
 20
26.58484538338648
 11
20.10334290092126
 21
26.58484538338648
 72
     1
 10
20.10334290092126
 20
26.58484538338648
 11
20.10334290092126
 21
26.86520762058046
 72
     1
 10
20.10334290092126
 20
26.86520762058046
 11
19.98147745321076
 21
26.86520762058046
 72
     1
 10
19.98147745321076
 20
26.86520762058046
 11
19.98147745321076
 21
26.58484538338648
 72
     1
 10
19.98147745321076
 20
26.58484538338648
 11
19.27434969107827
 21
26.58484538338648
 72
     4
 94
        3
 73
     1
 74
     0
 95
        8
 96
        4
 40
0.0
 40
0.0
 40
0.0
 40
0.0
 40
1.0
 40
1.0
 40
1.0
 40
1.0
 10
19.27434969107827
 20
26.58484538338648
 42
1.0
 10
19.11947833134008
 20
26.72443452904972
 42
1.0
 10
19.40755868602182
 20
26.86177152370009
 42
1.0
 10
19.24466603742839
 20
26.98002906431008
 42
1.0
 72
     1
 10
19.24466603742839
 20
26.98002906431008
 11
20.89973907216103
 21
26.98002906431007
 97
        0
 75
     0
 76
     1
 52
90.0
 41
0.5
 77
     0
 78
     1
 53
135.0000000000002
 43
0.0
 44
0.0
 45
-0.121533978016438
 46
0.033145630368119
 79
     4
 49
0.15625
 49
-0.03125
 49
0.0
 49
-0.03125
 98
        1
 10
0.0
 20
0.0
  0
ENDBLK
  5
10A
330
108
100
AcDbEntity
  8
0
100
AcDbBlockEnd
  0
BLOCK
  5
15E
330
15D
100
AcDbEntity
  8
0
100
AcDbBlockBegin
  2
_D
 70
     0
 10
0.0
 20
0.0
 30
0.0
  3
_D
  1

  0
SOLID
  5
160
330
15D
100
AcDbEntity
  8
DIM
100
AcDbTrace
 10
1.3784857647
 20
8.1632368134
 30
0.0
 11
1.5807155824
 21
8.1321245337
 31
0.0
 12
1.5807155824
 22
8.194349093
 32
0.0
 13
1.5807155824
 23
8.194349093
 33
0.0
  0
SOLID
  5
161
330
15D
100
AcDbEntity
  8
DIM
100
AcDbTrace
 10
32.6284857647
 20
8.1632368134
 30
0.0
 11
32.426255947
 21
8.194349093
 31
0.0
 12
32.426255947
 22
8.1321245337
 32
0.0
 13
32.426255947
 23
8.1321245337
 33
0.0
  0
LINE
  5
162
330
15D
100
AcDbEntity
  8
DIM
100
AcDbLine
 10
19.5883634656
 20
8.3854783606
 30
0.0
 11
19.8017122343
 21
8.3854783606
 31
0.0
  0
LINE
  5
163
330
15D
100
AcDbEntity
  8
DIM
100
AcDbLine
 10
19.3586180663
 20
8.0377931625
 30
0.0
 11
19.2891736227
 21
8.0377931625
 31
0.0
  0
LINE
  5
164
330
15D
100
AcDbEntity
  8
DIM
100
AcDbLine
 10
19.2891736227
 20
8.0377931625
 30
0.0
 11
19.2891736227
 21
7.7272221636
 31
0.0
  0
LINE
  5
165
330
15D
100
AcDbEntity
  8
DIM
100
AcDbLine
 10
19.2891736227
 20
7.7272221636
 30
0.0
 11
19.3586180663
 21
7.7272221636
 31
0.0
  0
LINE
  5
166
330
15D
100
AcDbEntity
  8
DIM
100
AcDbLine
 10
19.8215810481
 20
8.0377931625
 30
0.0
 11
19.8910254917
 21
8.0377931625
 31
0.0
  0
LINE
  5
167
330
15D
100
AcDbEntity
  8
DIM
100
AcDbLine
 10
19.8910254917
 20
8.0377931625
 30
0.0
 11
19.8910254917
 21
7.7272221636
 31
0.0
  0
LINE
  5
168
330
15D
100
AcDbEntity
  8
DIM
100
AcDbLine
 10
19.8910254917
 20
7.7272221636
 30
0.0
 11
19.8215810481
 21
7.7272221636
 31
0.0
  0
LINE
  5
169
330
15D
100
AcDbEntity
  8
DIM
100
AcDbLine
 10
1.3784857647
 20
8.1632368134
 30
0.0
 11
19.1734197274
 21
8.1632368134
 31
0.0
  0
LINE
  5
16A
330
15D
100
AcDbEntity
  8
DIM
100
AcDbLine
 10
32.6284857647
 20
8.1632368134
 30
0.0
 11
20.0067793871
 21
8.1632368134
 31
0.0
  0
MTEXT
  5
16B
330
15D
100
AcDbEntity
  8
DIM
100
AcDbMText
 10
19.2502075904
 20
8.4943938547
 30
0.0
 40
0.2083333333
 41
0.0
 71
     1
 72
     1
  1
31
  7
SLDTEXTSTYLE0
 73
     1
 44
1.0
  0
MTEXT
  5
16C
330
15D
100
AcDbEntity
  8
DIM
100
AcDbMText
 10
19.617877353
 20
8.6363258018
 30
0.0
 40
0.2083333333
 41
0.0
 71
     1
 72
     1
  1
1
  7
SLDTEXTSTYLE0
 73
     1
 44
1.0
  0
MTEXT
  5
16D
330
15D
100
AcDbEntity
  8
DIM
100
AcDbMText
 10
19.617877353
 20
8.3526452498
 30
0.0
 40
0.2083333333
 41
0.0
 71
     1
 72
     1
  1
4
  7
SLDTEXTSTYLE0
 73
     1
 44
1.0
  0
MTEXT
  5
16E
330
15D
100
AcDbEntity
  8
DIM
100
AcDbMText
 10
19.8312261217
 20
8.4943938547
 30
0.0
 40
0.2083333333
 41
0.0
 71
     1
 72
     1
  1
"
  7
SLDTEXTSTYLE0
 73
     1
 44
1.0
  0
MTEXT
  5
16F
330
15D
100
AcDbEntity
  8
DIM
100
AcDbMText
 10
19.3586180663
 20
7.9957779565
 30
0.0
 40
0.2083333333
 41
0.0
 71
     1
 72
     1
  1
794
  7
SLDTEXTSTYLE0
 73
     1
 44
1.0
  0
ENDBLK
  5
15F
330
15D
100
AcDbEntity
  8
0
100
AcDbBlockEnd
  0
BLOCK
  5
172
330
171
100
AcDbEntity
  8
0
100
AcDbBlockBegin
  2
_D_1
 70
     0
 10
0.0
 20
0.0
 30
0.0
  3
_D_1
  1

  0
SOLID
  5
174
330
171
100
AcDbEntity
  8
DIM
100
AcDbTrace
 10
1.8784857647
 20
7.2565488438
 30
0.0
 11
2.0807155824
 21
7.2254365641
 31
0.0
 12
2.0807155824
 22
7.2876611234
 32
0.0
 13
2.0807155824
 23
7.2876611234
 33
0.0
  0
SOLID
  5
175
330
171
100
AcDbEntity
  8
DIM
100
AcDbTrace
 10
32.1284857647
 20
7.2565488438
 30
0.0
 11
31.926255947
 21
7.2876611234
 31
0.0
 12
31.926255947
 22
7.2254365641
 32
0.0
 13
31.926255947
 23
7.2254365641
 33
0.0
  0
LINE
  5
176
330
171
100
AcDbEntity
  8
DIM
100
AcDbLine
 10
16.386443324
 20
7.478790391
 30
0.0
 11
16.5997920927
 21
7.478790391
 31
0.0
  0
LINE
  5
177
330
171
100
AcDbEntity
  8
DIM
100
AcDbLine
 10
16.1566979247
 20
7.1311051929
 30
0.0
 11
16.0872534811
 21
7.1311051929
 31
0.0
  0
LINE
  5
178
330
171
100
AcDbEntity
  8
DIM
100
AcDbLine
 10
16.0872534811
 20
7.1311051929
 30
0.0
 11
16.0872534811
 21
6.820534194
 31
0.0
  0
LINE
  5
179
330
171
100
AcDbEntity
  8
DIM
100
AcDbLine
 10
16.0872534811
 20
6.820534194
 30
0.0
 11
16.1566979247
 21
6.820534194
 31
0.0
  0
LINE
  5
17A
330
171
100
AcDbEntity
  8
DIM
100
AcDbLine
 10
16.6196609065
 20
7.1311051929
 30
0.0
 11
16.6891053501
 21
7.1311051929
 31
0.0
  0
LINE
  5
17B
330
171
100
AcDbEntity
  8
DIM
100
AcDbLine
 10
16.6891053501
 20
7.1311051929
 30
0.0
 11
16.6891053501
 21
6.820534194
 31
0.0
  0
LINE
  5
17C
330
171
100
AcDbEntity
  8
DIM
100
AcDbLine
 10
16.6891053501
 20
6.820534194
 30
0.0
 11
16.6196609065
 21
6.820534194
 31
0.0
  0
LINE
  5
17D
330
171
100
AcDbEntity
  8
DIM
100
AcDbLine
 10
1.8784857647
 20
7.2565488438
 30
0.0
 11
15.9714995858
 21
7.2565488438
 31
0.0
  0
LINE
  5
17E
330
171
100
AcDbEntity
  8
DIM
100
AcDbLine
 10
32.1284857647
 20
7.2565488438
 30
0.0
 11
16.8048592454
 21
7.2565488438
 31
0.0
  0
MTEXT
  5
17F
330
171
100
AcDbEntity
  8
DIM
100
AcDbMText
 10
16.0482874487
 20
7.5877058851
 30
0.0
 40
0.2083333333
 41
0.0
 71
     1
 72
     1
  1
30
  7
SLDTEXTSTYLE0
 73
     1
 44
1.0
  0
MTEXT
  5
180
330
171
100
AcDbEntity
  8
DIM
100
AcDbMText
 10
16.4159572114
 20
7.7296378322
 30
0.0
 40
0.2083333333
 41
0.0
 71
     1
 72
     1
  1
1
  7
SLDTEXTSTYLE0
 73
     1
 44
1.0
  0
MTEXT
  5
181
330
171
100
AcDbEntity
  8
DIM
100
AcDbMText
 10
16.4159572114
 20
7.4459572802
 30
0.0
 40
0.2083333333
 41
0.0
 71
     1
 72
     1
  1
4
  7
SLDTEXTSTYLE0
 73
     1
 44
1.0
  0
MTEXT
  5
182
330
171
100
AcDbEntity
  8
DIM
100
AcDbMText
 10
16.6293059801
 20
7.5877058851
 30
0.0
 40
0.2083333333
 41
0.0
 71
     1
 72
     1
  1
"
  7
SLDTEXTSTYLE0
 73
     1
 44
1.0
  0
MTEXT
  5
183
330
171
100
AcDbEntity
  8
DIM
100
AcDbMText
 10
16.1566979247
 20
7.0890899869
 30
0.0
 40
0.2083333333
 41
0.0
 71
     1
 72
     1
  1
768
  7
SLDTEXTSTYLE0
 73
     1
 44
1.0
  0
ENDBLK
  5
173
330
171
100
AcDbEntity
  8
0
100
AcDbBlockEnd
  0
BLOCK
  5
187
330
186
100
AcDbEntity
  8
0
100
AcDbBlockBegin
  2
_D_2
 70
     0
 10
0.0
 20
0.0
 30
0.0
  3
_D_2
  1

  0
SOLID
  5
189
330
186
100
AcDbEntity
  8
DIM
100
AcDbTrace
 10
32.0034857647
 20
6.3908359006
 30
0.0
 11
31.801255947
 21
6.4219481802
 31
0.0
 12
31.801255947
 22
6.359723621
 32
0.0
 13
31.801255947
 23
6.359723621
 33
0.0
  0
SOLID
  5
18A
330
186
100
AcDbEntity
  8
DIM
100
AcDbTrace
 10
2.0034857647
 20
6.3908359006
 30
0.0
 11
2.2057155824
 21
6.359723621
 31
0.0
 12
2.2057155824
 22
6.4219481802
 32
0.0
 13
2.2057155824
 23
6.4219481802
 33
0.0
  0
LINE
  5
18B
330
186
100
AcDbEntity
  8
DIM
100
AcDbLine
 10
19.4767780611
 20
6.4072325312
 30
0.0
 11
19.4073336175
 21
6.4072325312
 31
0.0
  0
LINE
  5
18C
330
186
100
AcDbEntity
  8
DIM
100
AcDbLine
 10
19.4073336175
 20
6.4072325312
 30
0.0
 11
19.4073336175
 21
6.0966615323
 31
0.0
  0
LINE
  5
18D
330
186
100
AcDbEntity
  8
DIM
100
AcDbLine
 10
19.4073336175
 20
6.0966615323
 30
0.0
 11
19.4767780611
 21
6.0966615323
 31
0.0
  0
LINE
  5
18E
330
186
100
AcDbEntity
  8
DIM
100
AcDbLine
 10
19.9397410429
 20
6.4072325312
 30
0.0
 11
20.0091854865
 21
6.4072325312
 31
0.0
  0
LINE
  5
18F
330
186
100
AcDbEntity
  8
DIM
100
AcDbLine
 10
20.0091854865
 20
6.4072325312
 30
0.0
 11
20.0091854865
 21
6.0966615323
 31
0.0
  0
LINE
  5
190
330
186
100
AcDbEntity
  8
DIM
100
AcDbLine
 10
20.0091854865
 20
6.0966615323
 30
0.0
 11
19.9397410429
 21
6.0966615323
 31
0.0
  0
LINE
  5
191
330
186
100
AcDbEntity
  8
DIM
100
AcDbLine
 10
32.0034857647
 20
6.3908359006
 30
0.0
 11
20.1249393818
 21
6.3908359006
 31
0.0
  0
LINE
  5
192
330
186
100
AcDbEntity
  8
DIM
100
AcDbLine
 10
2.0034857647
 20
6.3908359006
 30
0.0
 11
19.2915797221
 21
6.3908359006
 31
0.0
  0
MTEXT
  5
193
330
186
100
AcDbEntity
  8
DIM
100
AcDbMText
 10
19.5045558385
 20
6.7220846076
 30
0.0
 40
0.2083333333
 41
0.0
 71
     1
 72
     1
  1
30"
  7
SLDTEXTSTYLE0
 73
     1
 44
1.0
  0
MTEXT
  5
194
330
186
100
AcDbEntity
  8
DIM
100
AcDbMText
 10
19.4767780611
 20
6.3652173251
 30
0.0
 40
0.2083333333
 41
0.0
 71
     1
 72
     1
  1
762
  7
SLDTEXTSTYLE0
 73
     1
 44
1.0
  0
ENDBLK
  5
188
330
186
100
AcDbEntity
  8
0
100
AcDbBlockEnd
  0
BLOCK
  5
197
330
196
100
AcDbEntity
  8
0
100
AcDbBlockBegin
  2
_D_3
 70
     0
 10
0.0
 20
0.0
 30
0.0
  3
_D_3
  1

  0
SOLID
  5
199
330
196
100
AcDbEntity
  8
DIM
100
AcDbTrace
 10
12.3620259256
 20
2.4303018717
 30
0.0
 11
12.3931382053
 21
2.6325316894
 31
0.0
 12
12.330913646
 22
2.6325316894
 32
0.0
 13
12.330913646
 23
2.6325316894
 33
0.0
  0
SOLID
  5
19A
330
196
100
AcDbEntity
  8
DIM
100
AcDbTrace
 10
12.3620259256
 20
19.1803018717
 30
0.0
 11
12.330913646
 21
18.9780720539
 31
0.0
 12
12.3931382053
 22
18.9780720539
 32
0.0
 13
12.3931382053
 23
18.9780720539
 33
0.0
  0
LINE
  5
19B
330
196
100
AcDbEntity
  8
DIM
100
AcDbLine
 10
12.360289834
 20
12.0734022235
 30
0.0
 11
12.5736386027
 21
12.0734022235
 31
0.0
  0
LINE
  5
19C
330
196
100
AcDbEntity
  8
DIM
100
AcDbLine
 10
12.1305444347
 20
11.7257170254
 30
0.0
 11
12.0610999911
 21
11.7257170254
 31
0.0
  0
LINE
  5
19D
330
196
100
AcDbEntity
  8
DIM
100
AcDbLine
 10
12.0610999911
 20
11.7257170254
 30
0.0
 11
12.0610999911
 21
11.4151460265
 31
0.0
  0
LINE
  5
19E
330
196
100
AcDbEntity
  8
DIM
100
AcDbLine
 10
12.0610999911
 20
11.4151460265
 30
0.0
 11
12.1305444347
 21
11.4151460265
 31
0.0
  0
LINE
  5
19F
330
196
100
AcDbEntity
  8
DIM
100
AcDbLine
 10
12.5935074165
 20
11.7257170254
 30
0.0
 11
12.6629518601
 21
11.7257170254
 31
0.0
  0
LINE
  5
1A0
330
196
100
AcDbEntity
  8
DIM
100
AcDbLine
 10
12.6629518601
 20
11.7257170254
 30
0.0
 11
12.6629518601
 21
11.4151460265
 31
0.0
  0
LINE
  5
1A1
330
196
100
AcDbEntity
  8
DIM
100
AcDbLine
 10
12.6629518601
 20
11.4151460265
 30
0.0
 11
12.5935074165
 21
11.4151460265
 31
0.0
  0
LINE
  5
1A2
330
196
100
AcDbEntity
  8
DIM
100
AcDbLine
 10
12.3620259256
 20
2.4303018717
 30
0.0
 11
12.3620259256
 21
11.368849688
 31
0.0
  0
LINE
  5
1A3
330
196
100
AcDbEntity
  8
DIM
100
AcDbLine
 10
12.3620259256
 20
19.1803018717
 30
0.0
 11
12.3620259256
 21
12.3334716646
 31
0.0
  0
MTEXT
  5
1A4
330
196
100
AcDbEntity
  8
DIM
100
AcDbMText
 10
12.0221339588
 20
12.1823177177
 30
0.0
 40
0.2083333333
 41
0.0
 71
     1
 72
     1
  1
16
  7
SLDTEXTSTYLE0
 73
     1
 44
1.0
  0
MTEXT
  5
1A5
330
196
100
AcDbEntity
  8
DIM
100
AcDbMText
 10
12.3898037214
 20
12.3242496647
 30
0.0
 40
0.2083333333
 41
0.0
 71
     1
 72
     1
  1
3
  7
SLDTEXTSTYLE0
 73
     1
 44
1.0
  0
MTEXT
  5
1A6
330
196
100
AcDbEntity
  8
DIM
100
AcDbMText
 10
12.3898037214
 20
12.0405691127
 30
0.0
 40
0.2083333333
 41
0.0
 71
     1
 72
     1
  1
4
  7
SLDTEXTSTYLE0
 73
     1
 44
1.0
  0
MTEXT
  5
1A7
330
196
100
AcDbEntity
  8
DIM
100
AcDbMText
 10
12.6031524901
 20
12.1823177177
 30
0.0
 40
0.2083333333
 41
0.0
 71
     1
 72
     1
  1
"
  7
SLDTEXTSTYLE0
 73
     1
 44
1.0
  0
MTEXT
  5
1A8
330
196
100
AcDbEntity
  8
DIM
100
AcDbMText
 10
12.1305444347
 20
11.6837018194
 30
0.0
 40
0.2083333333
 41
0.0
 71
     1
 72
     1
  1
425
  7
SLDTEXTSTYLE0
 73
     1
 44
1.0
  0
ENDBLK
  5
198
330
196
100
AcDbEntity
  8
0
100
AcDbBlockEnd
  0
BLOCK
  5
1AB
330
1AA
100
AcDbEntity
  8
0
100
AcDbBlockBegin
  2
_D_4
 70
     0
 10
0.0
 20
0.0
 30
0.0
  3
_D_4
  1

  0
SOLID
  5
1AD
330
1AA
100
AcDbEntity
  8
DIM
100
AcDbTrace
 10
11.3812413215
 20
2.3053018717
 30
0.0
 11
11.4123536012
 21
2.5075316894
 31
0.0
 12
11.3501290419
 22
2.5075316894
 32
0.0
 13
11.3501290419
 23
2.5075316894
 33
0.0
  0
SOLID
  5
1AE
330
1AA
100
AcDbEntity
  8
DIM
100
AcDbTrace
 10
11.3812413215
 20
19.3053018717
 30
0.0
 11
11.3501290419
 21
19.1030720539
 31
0.0
 12
11.4123536012
 22
19.1030720539
 32
0.0
 13
11.4123536012
 23
19.1030720539
 33
0.0
  0
LINE
  5
1AF
330
1AA
100
AcDbEntity
  8
DIM
100
AcDbLine
 10
11.1497598306
 20
10.0916741577
 30
0.0
 11
11.080315387
 21
10.0916741577
 31
0.0
  0
LINE
  5
1B0
330
1AA
100
AcDbEntity
  8
DIM
100
AcDbLine
 10
11.080315387
 20
10.0916741577
 30
0.0
 11
11.080315387
 21
9.7811031588
 31
0.0
  0
LINE
  5
1B1
330
1AA
100
AcDbEntity
  8
DIM
100
AcDbLine
 10
11.080315387
 20
9.7811031588
 30
0.0
 11
11.1497598306
 21
9.7811031588
 31
0.0
  0
LINE
  5
1B2
330
1AA
100
AcDbEntity
  8
DIM
100
AcDbLine
 10
11.6127228124
 20
10.0916741577
 30
0.0
 11
11.682167256
 21
10.0916741577
 31
0.0
  0
LINE
  5
1B3
330
1AA
100
AcDbEntity
  8
DIM
100
AcDbLine
 10
11.682167256
 20
10.0916741577
 30
0.0
 11
11.682167256
 21
9.7811031588
 31
0.0
  0
LINE
  5
1B4
330
1AA
100
AcDbEntity
  8
DIM
100
AcDbLine
 10
11.682167256
 20
9.7811031588
 30
0.0
 11
11.6127228124
 21
9.7811031588
 31
0.0
  0
LINE
  5
1B5
330
1AA
100
AcDbEntity
  8
DIM
100
AcDbLine
 10
11.3812413215
 20
2.3053018717
 30
0.0
 11
11.3812413215
 21
9.7348068203
 31
0.0
  0
LINE
  5
1B6
330
1AA
100
AcDbEntity
  8
DIM
100
AcDbLine
 10
11.3812413215
 20
19.3053018717
 30
0.0
 11
11.3812413215
 21
10.415748234
 31
0.0
  0
MTEXT
  5
1B7
330
1AA
100
AcDbEntity
  8
DIM
100
AcDbMText
 10
11.177537608
 20
10.4065262341
 30
0.0
 40
0.2083333333
 41
0.0
 71
     1
 72
     1
  1
17"
  7
SLDTEXTSTYLE0
 73
     1
 44
1.0
  0
MTEXT
  5
1B8
330
1AA
100
AcDbEntity
  8
DIM
100
AcDbMText
 10
11.1497598306
 20
10.0496589517
 30
0.0
 40
0.2083333333
 41
0.0
 71
     1
 72
     1
  1
432
  7
SLDTEXTSTYLE0
 73
     1
 44
1.0
  0
ENDBLK
  5
1AC
330
1AA
100
AcDbEntity
  8
0
100
AcDbBlockEnd
  0
BLOCK
  5
1BB
330
1BA
100
AcDbEntity
  8
0
100
AcDbBlockBegin
  2
_D_5
 70
     0
 10
0.0
 20
0.0
 30
0.0
  3
_D_5
  1

  0
SOLID
  5
1BD
330
1BA
100
AcDbEntity
  8
DIM
100
AcDbTrace
 10
10.4913181236
 20
19.8053018717
 30
0.0
 11
10.4602058439
 21
19.6030720539
 31
0.0
 12
10.5224304032
 22
19.6030720539
 32
0.0
 13
10.5224304032
 23
19.6030720539
 33
0.0
  0
SOLID
  5
1BE
330
1BA
100
AcDbEntity
  8
DIM
100
AcDbTrace
 10
10.4913181236
 20
1.8053018717
 30
0.0
 11
10.5224304032
 21
2.0075316894
 31
0.0
 12
10.4602058439
 22
2.0075316894
 32
0.0
 13
10.4602058439
 23
2.0075316894
 33
0.0
  0
LINE
  5
1BF
330
1BA
100
AcDbEntity
  8
DIM
100
AcDbLine
 10
10.2598366327
 20
11.8675573069
 30
0.0
 11
10.1903921891
 21
11.8675573069
 31
0.0
  0
LINE
  5
1C0
330
1BA
100
AcDbEntity
  8
DIM
100
AcDbLine
 10
10.1903921891
 20
11.8675573069
 30
0.0
 11
10.1903921891
 21
11.556986308
 31
0.0
  0
LINE
  5
1C1
330
1BA
100
AcDbEntity
  8
DIM
100
AcDbLine
 10
10.1903921891
 20
11.556986308
 30
0.0
 11
10.2598366327
 21
11.556986308
 31
0.0
  0
LINE
  5
1C2
330
1BA
100
AcDbEntity
  8
DIM
100
AcDbLine
 10
10.7227996145
 20
11.8675573069
 30
0.0
 11
10.7922440581
 21
11.8675573069
 31
0.0
  0
LINE
  5
1C3
330
1BA
100
AcDbEntity
  8
DIM
100
AcDbLine
 10
10.7922440581
 20
11.8675573069
 30
0.0
 11
10.7922440581
 21
11.556986308
 31
0.0
  0
LINE
  5
1C4
330
1BA
100
AcDbEntity
  8
DIM
100
AcDbLine
 10
10.7922440581
 20
11.556986308
 30
0.0
 11
10.7227996145
 21
11.556986308
 31
0.0
  0
LINE
  5
1C5
330
1BA
100
AcDbEntity
  8
DIM
100
AcDbLine
 10
10.4913181236
 20
19.8053018717
 30
0.0
 11
10.4913181236
 21
12.1916313832
 31
0.0
  0
LINE
  5
1C6
330
1BA
100
AcDbEntity
  8
DIM
100
AcDbLine
 10
10.4913181236
 20
1.8053018717
 30
0.0
 11
10.4913181236
 21
11.5106899695
 31
0.0
  0
MTEXT
  5
1C7
330
1BA
100
AcDbEntity
  8
DIM
100
AcDbMText
 10
10.2876144101
 20
12.1824093833
 30
0.0
 40
0.2083333333
 41
0.0
 71
     1
 72
     1
  1
18"
  7
SLDTEXTSTYLE0
 73
     1
 44
1.0
  0
MTEXT
  5
1C8
330
1BA
100
AcDbEntity
  8
DIM
100
AcDbMText
 10
10.2598366327
 20
11.8255421008
 30
0.0
 40
0.2083333333
 41
0.0
 71
     1
 72
     1
  1
457
  7
SLDTEXTSTYLE0
 73
     1
 44
1.0
  0
ENDBLK
  5
1BC
330
1BA
100
AcDbEntity
  8
0
100
AcDbBlockEnd
  0
BLOCK
  5
1CC
330
1CB
100
AcDbEntity
  8
0
100
AcDbBlockBegin
  2
_D_6
 70
     0
 10
0.0
 20
0.0
 30
0.0
  3
_D_6
  1

  0
SOLID
  5
1CE
330
1CB
100
AcDbEntity
  8
DIM
100
AcDbTrace
 10
1.8784857647
 20
5.4708363344
 30
0.0
 11
1.676255947
 21
5.501948614
 31
0.0
 12
1.676255947
 22
5.4397240547
 32
0.0
 13
1.676255947
 23
5.4397240547
 33
0.0
  0
SOLID
  5
1CF
330
1CB
100
AcDbEntity
  8
DIM
100
AcDbTrace
 10
2.0034857647
 20
5.4708363344
 30
0.0
 11
2.2057155824
 21
5.4397240547
 31
0.0
 12
2.2057155824
 22
5.501948614
 32
0.0
 13
2.2057155824
 23
5.501948614
 33
0.0
  0
LINE
  5
1D0
330
1CB
100
AcDbEntity
  8
DIM
100
AcDbLine
 10
3.1429870534
 20
5.6930778816
 30
0.0
 11
3.3563358221
 21
5.6930778816
 31
0.0
  0
LINE
  5
1D1
330
1CB
100
AcDbEntity
  8
DIM
100
AcDbLine
 10
3.2218836603
 20
5.3453926835
 30
0.0
 11
3.1524392167
 21
5.3453926835
 31
0.0
  0
LINE
  5
1D2
330
1CB
100
AcDbEntity
  8
DIM
100
AcDbLine
 10
3.1524392167
 20
5.3453926835
 30
0.0
 11
3.1524392167
 21
5.0348216846
 31
0.0
  0
LINE
  5
1D3
330
1CB
100
AcDbEntity
  8
DIM
100
AcDbLine
 10
3.1524392167
 20
5.0348216846
 30
0.0
 11
3.2218836603
 21
5.0348216846
 31
0.0
  0
LINE
  5
1D4
330
1CB
100
AcDbEntity
  8
DIM
100
AcDbLine
 10
3.3762046543
 20
5.3453926835
 30
0.0
 11
3.4456490979
 21
5.3453926835
 31
0.0
  0
LINE
  5
1D5
330
1CB
100
AcDbEntity
  8
DIM
100
AcDbLine
 10
3.4456490979
 20
5.3453926835
 30
0.0
 11
3.4456490979
 21
5.0348216846
 31
0.0
  0
LINE
  5
1D6
330
1CB
100
AcDbEntity
  8
DIM
100
AcDbLine
 10
3.4456490979
 20
5.0348216846
 30
0.0
 11
3.3762046543
 21
5.0348216846
 31
0.0
  0
LINE
  5
1D7
330
1CB
100
AcDbEntity
  8
DIM
100
AcDbLine
 10
1.8784857647
 20
5.4708363344
 30
0.0
 11
1.4895822691
 21
5.4708363344
 31
0.0
  0
LINE
  5
1D8
330
1CB
100
AcDbEntity
  8
DIM
100
AcDbLine
 10
2.0034857647
 20
5.4708363344
 30
0.0
 11
3.0366853214
 21
5.4708363344
 31
0.0
  0
MTEXT
  5
1D9
330
1CB
100
AcDbEntity
  8
DIM
100
AcDbMText
 10
3.1725009408
 20
5.9439253228
 30
0.0
 40
0.2083333333
 41
0.0
 71
     1
 72
     1
  1
1
  7
SLDTEXTSTYLE0
 73
     1
 44
1.0
  0
MTEXT
  5
1DA
330
1CB
100
AcDbEntity
  8
DIM
100
AcDbMText
 10
3.1725009408
 20
5.6602447708
 30
0.0
 40
0.2083333333
 41
0.0
 71
     1
 72
     1
  1
8
  7
SLDTEXTSTYLE0
 73
     1
 44
1.0
  0
MTEXT
  5
1DB
330
1CB
100
AcDbEntity
  8
DIM
100
AcDbMText
 10
3.3858497095
 20
5.8019933757
 30
0.0
 40
0.2083333333
 41
0.0
 71
     1
 72
     1
  1
"
  7
SLDTEXTSTYLE0
 73
     1
 44
1.0
  0
MTEXT
  5
1DC
330
1CB
100
AcDbEntity
  8
DIM
100
AcDbMText
 10
3.2218836603
 20
5.3033774775
 30
0.0
 40
0.2083333333
 41
0.0
 71
     1
 72
     1
  1
3
  7
SLDTEXTSTYLE0
 73
     1
 44
1.0
  0
ENDBLK
  5
1CD
330
1CB
100
AcDbEntity
  8
0
100
AcDbBlockEnd
  0
BLOCK
  5
1E0
330
1DF
100
AcDbEntity
  8
0
100
AcDbBlockBegin
  2
_D_7
 70
     0
 10
0.0
 20
0.0
 30
0.0
  3
_D_7
  1

  0
SOLID
  5
1E2
330
1DF
100
AcDbEntity
  8
DIM
100
AcDbTrace
 10
1.7446022882
 20
19.4391853481
 30
0.0
 11
1.8656006597
 21
19.2741875688
 31
0.0
 12
1.9096000676
 22
19.3181869766
 32
0.0
 13
1.9096000676
 23
19.3181869766
 33
0.0
  0
LINE
  5
1E3
330
1DF
100
AcDbEntity
  8
DIM
100
AcDbLine
 10
4.5692633451
 20
17.4712179789
 30
0.0
 11
4.7826121138
 21
17.4712179789
 31
0.0
  0
LINE
  5
1E4
330
1DF
100
AcDbEntity
  8
DIM
100
AcDbLine
 10
4.3935303469
 20
17.1235327808
 30
0.0
 11
4.3240859033
 21
17.1235327808
 31
0.0
  0
LINE
  5
1E5
330
1DF
100
AcDbEntity
  8
DIM
100
AcDbLine
 10
4.3240859033
 20
17.1235327808
 30
0.0
 11
4.3240859033
 21
16.8129617819
 31
0.0
  0
LINE
  5
1E6
330
1DF
100
AcDbEntity
  8
DIM
100
AcDbLine
 10
4.3240859033
 20
16.8129617819
 30
0.0
 11
4.3935303469
 21
16.8129617819
 31
0.0
  0
LINE
  5
1E7
330
1DF
100
AcDbEntity
  8
DIM
100
AcDbLine
 10
4.7021723347
 20
17.1235327808
 30
0.0
 11
4.7716167784
 21
17.1235327808
 31
0.0
  0
LINE
  5
1E8
330
1DF
100
AcDbEntity
  8
DIM
100
AcDbLine
 10
4.7716167784
 20
17.1235327808
 30
0.0
 11
4.7716167784
 21
16.8129617819
 31
0.0
  0
LINE
  5
1E9
330
1DF
100
AcDbEntity
  8
DIM
100
AcDbLine
 10
4.7716167784
 20
16.8129617819
 30
0.0
 11
4.7021723347
 21
16.8129617819
 31
0.0
  0
LINE
  5
1EA
330
1DF
100
AcDbEntity
  8
DIM
100
AcDbLine
 10
1.7446022882
 20
19.4391853481
 30
0.0
 11
3.9348112047
 21
17.2489764317
 31
0.0
  0
LINE
  5
1EB
330
1DF
100
AcDbEntity
  8
DIM
100
AcDbLine
 10
3.9348112047
 20
17.2489764317
 30
0.0
 11
4.1848112047
 21
17.2489764317
 31
0.0
  0
MTEXT
  5
1EC
330
1DF
100
AcDbEntity
  8
DIM
100
AcDbMText
 10
4.1848112047
 20
17.580133473
 30
0.0
 40
0.2083333333
 41
0.0
 71
     1
 72
     1
  1
R1
  7
SLDTEXTSTYLE0
 73
     1
 44
1.0
  0
MTEXT
  5
1ED
330
1DF
100
AcDbEntity
  8
DIM
100
AcDbMText
 10
4.5987772325
 20
17.7220654201
 30
0.0
 40
0.2083333333
 41
0.0
 71
     1
 72
     1
  1
1
  7
SLDTEXTSTYLE0
 73
     1
 44
1.0
  0
MTEXT
  5
1EE
330
1DF
100
AcDbEntity
  8
DIM
100
AcDbMText
 10
4.5987772325
 20
17.4383848681
 30
0.0
 40
0.2083333333
 41
0.0
 71
     1
 72
     1
  1
4
  7
SLDTEXTSTYLE0
 73
     1
 44
1.0
  0
MTEXT
  5
1EF
330
1DF
100
AcDbEntity
  8
DIM
100
AcDbMText
 10
4.8121260379
 20
17.580133473
 30
0.0
 40
0.2083333333
 41
0.0
 71
     1
 72
     1
  1
"
  7
SLDTEXTSTYLE0
 73
     1
 44
1.0
  0
MTEXT
  5
1F0
330
1DF
100
AcDbEntity
  8
DIM
100
AcDbMText
 10
4.3935303469
 20
17.0815175747
 30
0.0
 40
0.2083333333
 41
0.0
 71
     1
 72
     1
  1
32
  7
SLDTEXTSTYLE0
 73
     1
 44
1.0
  0
ENDBLK
  5
1E1
330
1DF
100
AcDbEntity
  8
0
100
AcDbBlockEnd
  0
BLOCK
  5
1F4
330
1F3
100
AcDbEntity
  8
0
100
AcDbBlockBegin
  2
_D_8
 70
     0
 10
0.0
 20
0.0
 30
0.0
  3
_D_8
  1

  0
SOLID
  5
1F6
330
1F3
100
AcDbEntity
  8
DIM
100
AcDbTrace
 10
1.9789667118
 20
2.6803018717
 30
0.0
 11
1.7882744125
 21
2.6061309873
 31
0.0
 12
1.8193866921
 22
2.5522429383
 32
0.0
 13
1.8193866921
 23
2.5522429383
 33
0.0
  0
LINE
  5
1F7
330
1F3
100
AcDbEntity
  8
DIM
100
AcDbLine
 10
4.0253130352
 20
3.8025660345
 30
0.0
 11
4.2386618039
 21
3.8025660345
 31
0.0
  0
LINE
  5
1F8
330
1F3
100
AcDbEntity
  8
DIM
100
AcDbLine
 10
3.9267404972
 20
3.4548808364
 30
0.0
 11
3.8572960536
 21
3.4548808364
 31
0.0
  0
LINE
  5
1F9
330
1F3
100
AcDbEntity
  8
DIM
100
AcDbLine
 10
3.8572960536
 20
3.4548808364
 30
0.0
 11
3.8572960536
 21
3.1443098374
 31
0.0
  0
LINE
  5
1FA
330
1F3
100
AcDbEntity
  8
DIM
100
AcDbLine
 10
3.8572960536
 20
3.1443098374
 30
0.0
 11
3.9267404972
 21
3.1443098374
 31
0.0
  0
LINE
  5
1FB
330
1F3
100
AcDbEntity
  8
DIM
100
AcDbLine
 10
4.2353824851
 20
3.4548808364
 30
0.0
 11
4.3048269287
 21
3.4548808364
 31
0.0
  0
LINE
  5
1FC
330
1F3
100
AcDbEntity
  8
DIM
100
AcDbLine
 10
4.3048269287
 20
3.4548808364
 30
0.0
 11
4.3048269287
 21
3.1443098374
 31
0.0
  0
LINE
  5
1FD
330
1F3
100
AcDbEntity
  8
DIM
100
AcDbLine
 10
4.3048269287
 20
3.1443098374
 30
0.0
 11
4.2353824851
 21
3.1443098374
 31
0.0
  0
LINE
  5
1FE
330
1F3
100
AcDbEntity
  8
DIM
100
AcDbLine
 10
1.9789667118
 20
2.6803018717
 30
0.0
 11
3.53785161
 21
3.5803244872
 31
0.0
  0
LINE
  5
1FF
330
1F3
100
AcDbEntity
  8
DIM
100
AcDbLine
 10
1.9789667118
 20
2.6803018717
 30
0.0
 11
1.642166405
 21
2.4858501239
 31
0.0
  0
LINE
  5
200
330
1F3
100
AcDbEntity
  8
DIM
100
AcDbLine
 10
3.53785161
 20
3.5803244872
 30
0.0
 11
3.78785161
 21
3.5803244872
 31
0.0
  0
MTEXT
  5
201
330
1F3
100
AcDbEntity
  8
DIM
100
AcDbMText
 10
3.7951818703
 20
3.9114815286
 30
0.0
 40
0.2083333333
 41
0.0
 71
     1
 72
     1
  1
R
  7
SLDTEXTSTYLE0
 73
     1
 44
1.0
  0
MTEXT
  5
202
330
1F3
100
AcDbEntity
  8
DIM
100
AcDbMText
 10
4.0548269225
 20
4.0534134757
 30
0.0
 40
0.2083333333
 41
0.0
 71
     1
 72
     1
  1
3
  7
SLDTEXTSTYLE0
 73
     1
 44
1.0
  0
MTEXT
  5
203
330
1F3
100
AcDbEntity
  8
DIM
100
AcDbMText
 10
4.0548269225
 20
3.7697329236
 30
0.0
 40
0.2083333333
 41
0.0
 71
     1
 72
     1
  1
4
  7
SLDTEXTSTYLE0
 73
     1
 44
1.0
  0
MTEXT
  5
204
330
1F3
100
AcDbEntity
  8
DIM
100
AcDbMText
 10
4.2681756729
 20
3.9114815286
 30
0.0
 40
0.2083333333
 41
0.0
 71
     1
 72
     1
  1
"
  7
SLDTEXTSTYLE0
 73
     1
 44
1.0
  0
MTEXT
  5
205
330
1F3
100
AcDbEntity
  8
DIM
100
AcDbMText
 10
3.9267404972
 20
3.4128656303
 30
0.0
 40
0.2083333333
 41
0.0
 71
     1
 72
     1
  1
19
  7
SLDTEXTSTYLE0
 73
     1
 44
1.0
  0
ENDBLK
  5
1F5
330
1F3
100
AcDbEntity
  8
0
100
AcDbBlockEnd
  0
BLOCK
  5
208
330
207
100
AcDbEntity
  8
0
100
AcDbBlockBegin
  2
_D_9
 70
     0
 10
0.0
 20
0.0
 30
0.0
  3
_D_9
  1

  0
SOLID
  5
20A
330
207
100
AcDbEntity
  8
DIM
100
AcDbTrace
 10
31.9197516421
 20
2.7428018717
 30
0.0
 11
31.7601716223
 21
2.8708608051
 31
0.0
 12
31.7290593427
 22
2.816972756
 32
0.0
 13
31.7290593427
 23
2.816972756
 33
0.0
  0
LINE
  5
20B
330
207
100
AcDbEntity
  8
DIM
100
AcDbLine
 10
29.5084744576
 20
4.0113861933
 30
0.0
 11
29.7218232263
 21
4.0113861933
 31
0.0
  0
LINE
  5
20C
330
207
100
AcDbEntity
  8
DIM
100
AcDbLine
 10
29.4099019196
 20
3.6637009952
 30
0.0
 11
29.340457476
 21
3.6637009952
 31
0.0
  0
LINE
  5
20D
330
207
100
AcDbEntity
  8
DIM
100
AcDbLine
 10
29.340457476
 20
3.6637009952
 30
0.0
 11
29.340457476
 21
3.3531299962
 31
0.0
  0
LINE
  5
20E
330
207
100
AcDbEntity
  8
DIM
100
AcDbLine
 10
29.340457476
 20
3.3531299962
 30
0.0
 11
29.4099019196
 21
3.3531299962
 31
0.0
  0
LINE
  5
20F
330
207
100
AcDbEntity
  8
DIM
100
AcDbLine
 10
29.7185439075
 20
3.6637009952
 30
0.0
 11
29.7879883511
 21
3.6637009952
 31
0.0
  0
LINE
  5
210
330
207
100
AcDbEntity
  8
DIM
100
AcDbLine
 10
29.7879883511
 20
3.6637009952
 30
0.0
 11
29.7879883511
 21
3.3531299962
 31
0.0
  0
LINE
  5
211
330
207
100
AcDbEntity
  8
DIM
100
AcDbLine
 10
29.7879883511
 20
3.3531299962
 30
0.0
 11
29.7185439075
 21
3.3531299962
 31
0.0
  0
LINE
  5
212
330
207
100
AcDbEntity
  8
DIM
100
AcDbLine
 10
31.9197516421
 20
2.7428018717
 30
0.0
 11
30.1074327947
 21
3.789144646
 31
0.0
  0
LINE
  5
213
330
207
100
AcDbEntity
  8
DIM
100
AcDbLine
 10
30.1074327947
 20
3.789144646
 30
0.0
 11
29.8574327947
 21
3.789144646
 31
0.0
  0
MTEXT
  5
214
330
207
100
AcDbEntity
  8
DIM
100
AcDbMText
 10
29.2783432927
 20
4.1203016874
 30
0.0
 40
0.2083333333
 41
0.0
 71
     1
 72
     1
  1
R
  7
SLDTEXTSTYLE0
 73
     1
 44
1.0
  0
MTEXT
  5
215
330
207
100
AcDbEntity
  8
DIM
100
AcDbMText
 10
29.5379883449
 20
4.2622336345
 30
0.0
 40
0.2083333333
 41
0.0
 71
     1
 72
     1
  1
5
  7
SLDTEXTSTYLE0
 73
     1
 44
1.0
  0
MTEXT
  5
216
330
207
100
AcDbEntity
  8
DIM
100
AcDbMText
 10
29.5379883449
 20
3.9785530824
 30
0.0
 40
0.2083333333
 41
0.0
 71
     1
 72
     1
  1
8
  7
SLDTEXTSTYLE0
 73
     1
 44
1.0
  0
MTEXT
  5
217
330
207
100
AcDbEntity
  8
DIM
100
AcDbMText
 10
29.7513370953
 20
4.1203016874
 30
0.0
 40
0.2083333333
 41
0.0
 71
     1
 72
     1
  1
"
  7
SLDTEXTSTYLE0
 73
     1
 44
1.0
  0
MTEXT
  5
218
330
207
100
AcDbEntity
  8
DIM
100
AcDbMText
 10
29.4099019196
 20
3.6216857891
 30
0.0
 40
0.2083333333
 41
0.0
 71
     1
 72
     1
  1
16
  7
SLDTEXTSTYLE0
 73
     1
 44
1.0
  0
ENDBLK
  5
209
330
207
100
AcDbEntity
  8
0
100
AcDbBlockEnd
  0
BLOCK
  5
21B
330
21A
100
AcDbEntity
  8
0
100
AcDbBlockBegin
  2
_D_10
 70
     0
 10
0.0
 20
0.0
 30
0.0
  3
_D_10
  1

  0
SOLID
  5
21D
330
21A
100
AcDbEntity
  8
DIM
100
AcDbTrace
 10
13.3048330834
 20
19.8053018717
 30
0.0
 11
13.2737208037
 21
19.6030720539
 31
0.0
 12
13.335945363
 22
19.6030720539
 32
0.0
 13
13.335945363
 23
19.6030720539
 33
0.0
  0
SOLID
  5
21E
330
21A
100
AcDbEntity
  8
DIM
100
AcDbTrace
 10
13.3048330834
 20
19.3053018717
 30
0.0
 11
13.335945363
 21
19.5075316894
 31
0.0
 12
13.2737208037
 22
19.5075316894
 32
0.0
 13
13.2737208037
 23
19.5075316894
 33
0.0
  0
LINE
  5
21F
330
21A
100
AcDbEntity
  8
DIM
100
AcDbLine
 10
13.8309142158
 20
18.5235235197
 30
0.0
 11
14.0442629845
 21
18.5235235197
 31
0.0
  0
LINE
  5
220
330
21A
100
AcDbEntity
  8
DIM
100
AcDbLine
 10
13.8326503257
 20
18.1758383216
 30
0.0
 11
13.7632058821
 21
18.1758383216
 31
0.0
  0
LINE
  5
221
330
21A
100
AcDbEntity
  8
DIM
100
AcDbLine
 10
13.7632058821
 20
18.1758383216
 30
0.0
 11
13.7632058821
 21
17.8652673227
 31
0.0
  0
LINE
  5
222
330
21A
100
AcDbEntity
  8
DIM
100
AcDbLine
 10
13.7632058821
 20
17.8652673227
 30
0.0
 11
13.8326503257
 21
17.8652673227
 31
0.0
  0
LINE
  5
223
330
21A
100
AcDbEntity
  8
DIM
100
AcDbLine
 10
14.1412923136
 20
18.1758383216
 30
0.0
 11
14.2107367572
 21
18.1758383216
 31
0.0
  0
LINE
  5
224
330
21A
100
AcDbEntity
  8
DIM
100
AcDbLine
 10
14.2107367572
 20
18.1758383216
 30
0.0
 11
14.2107367572
 21
17.8652673227
 31
0.0
  0
LINE
  5
225
330
21A
100
AcDbEntity
  8
DIM
100
AcDbLine
 10
14.2107367572
 20
17.8652673227
 30
0.0
 11
14.1412923136
 21
17.8652673227
 31
0.0
  0
LINE
  5
226
330
21A
100
AcDbEntity
  8
DIM
100
AcDbLine
 10
13.5548330834
 20
18.3012819725
 30
0.0
 11
13.3048330834
 21
18.3012819725
 31
0.0
  0
LINE
  5
227
330
21A
100
AcDbEntity
  8
DIM
100
AcDbLine
 10
13.3048330834
 20
18.3012819725
 30
0.0
 11
13.3048330834
 21
19.3053018717
 31
0.0
  0
LINE
  5
228
330
21A
100
AcDbEntity
  8
DIM
100
AcDbLine
 10
13.3048330834
 20
19.8053018717
 30
0.0
 11
13.3048330834
 21
19.3053018717
 31
0.0
  0
MTEXT
  5
229
330
21A
100
AcDbEntity
  8
DIM
100
AcDbMText
 10
13.8604281032
 20
18.7743709609
 30
0.0
 40
0.2083333333
 41
0.0
 71
     1
 72
     1
  1
1
  7
SLDTEXTSTYLE0
 73
     1
 44
1.0
  0
MTEXT
  5
22A
330
21A
100
AcDbEntity
  8
DIM
100
AcDbMText
 10
13.8604281032
 20
18.4906904089
 30
0.0
 40
0.2083333333
 41
0.0
 71
     1
 72
     1
  1
2
  7
SLDTEXTSTYLE0
 73
     1
 44
1.0
  0
MTEXT
  5
22B
330
21A
100
AcDbEntity
  8
DIM
100
AcDbMText
 10
14.0737768719
 20
18.6324390138
 30
0.0
 40
0.2083333333
 41
0.0
 71
     1
 72
     1
  1
"
  7
SLDTEXTSTYLE0
 73
     1
 44
1.0
  0
MTEXT
  5
22C
330
21A
100
AcDbEntity
  8
DIM
100
AcDbMText
 10
13.8326503257
 20
18.1338231155
 30
0.0
 40
0.2083333333
 41
0.0
 71
     1
 72
     1
  1
13
  7
SLDTEXTSTYLE0
 73
     1
 44
1.0
  0
ENDBLK
  5
21C
330
21A
100
AcDbEntity
  8
0
100
AcDbBlockEnd
  0
BLOCK
  5
22E
330
22D
100
AcDbEntity
  8
0
100
AcDbBlockBegin
  2
SW_NOTE_0
 70
     0
 10
0.0
 20
0.0
 30
0.0
  3
SW_NOTE_0
  1

  0
MTEXT
  5
230
330
22D
100
AcDbEntity
  8
NOTES
 62
     0
100
AcDbMText
 10
0.0240916249
 20
0.2185601728
 30
0.0
 40
0.1875
 41
0.0
 71
     1
 72
     1
  1
1/8" OVERHANG
  7
SLDTEXTSTYLE0
 73
     1
 44
1.0
  0
MTEXT
  5
231
330
22D
100
AcDbEntity
  8
NOTES
 62
     0
100
AcDbMText
 10
0.0240916249
 20
-0.0708099094
 30
0.0
 40
0.1875
 41
0.0
 71
     1
 72
     1
  1
[3.2 SOBRESALIENTE]
  7
SLDTEXTSTYLE0
 73
     1
 44
1.0
  0
ENDBLK
  5
22F
330
22D
100
AcDbEntity
  8
0
100
AcDbBlockEnd
  0
BLOCK
  5
236
330
235
100
AcDbEntity
  8
0
100
AcDbBlockBegin
  2
SW_NOTE_1
 70
     0
 10
0.0
 20
0.0
 30
0.0
  3
SW_NOTE_1
  1

  0
MTEXT
  5
238
330
235
100
AcDbEntity
  8
NOTES
 62
     0
100
AcDbMText
 10
0.0244418287
 20
0.216954011
 30
0.0
 40
0.1875
 41
0.0
 71
     1
 72
     1
  1
1/2" REVEAL
  7
SLDTEXTSTYLE0
 73
     1
 44
1.0
  0
MTEXT
  5
239
330
235
100
AcDbEntity
  8
NOTES
 62
     0
100
AcDbMText
 10
0.0244418287
 20
-0.0724160712
 30
0.0
 40
0.1875
 41
0.0
 71
     1
 72
     1
  1
[12.7 REVELADO]
  7
SLDTEXTSTYLE0
 73
     1
 44
1.0
  0
ENDBLK
  5
237
330
235
100
AcDbEntity
  8
0
100
AcDbBlockEnd
  0
BLOCK
  5
23D
330
23C
100
AcDbEntity
  8
0
100
AcDbBlockBegin
  2
SW_NOTE_2
 70
     0
 10
0.0
 20
0.0
 30
0.0
  3
SW_NOTE_2
  1

  0
MTEXT
  5
23F
330
23C
100
AcDbEntity
  8
NOTES
 62
     0
100
AcDbMText
 10
0.9715325421
 20
0.215463567
 30
0.0
 40
0.1875
 41
0.0
 71
     2
 72
     1
  1
ZERO REVEAL
  7
SLDTEXTSTYLE0
 73
     1
 44
1.0
  0
MTEXT
  5
240
330
23C
100
AcDbEntity
  8
NOTES
 62
     0
100
AcDbMText
 10
0.9734857091
 20
-0.0739065152
 30
0.0
 40
0.1875
 41
0.0
 71
     2
 72
     1
  1
[0 REVEALADO]
  7
SLDTEXTSTYLE0
 73
     1
 44
1.0
  0
ENDBLK
  5
23E
330
23C
100
AcDbEntity
  8
0
100
AcDbBlockEnd
  0
BLOCK
  5
247
330
246
100
AcDbEntity
  8
0
100
AcDbBlockBegin
  2
SW_NOTE_3
 70
     0
 10
0.0
 20
0.0
 30
0.0
  3
SW_NOTE_3
  1

  0
MTEXT
  5
249
330
246
100
AcDbEntity
  8
NOTES
 62
     0
100
AcDbMText
 10
0.7586409036
 20
0.6519556693
 30
0.0
 40
0.1875
 41
0.0
 71
     2
 72
     1
  1
TEMPLATE
  7
SLDTEXTSTYLE0
 73
     1
 44
1.0
  0
MTEXT
  5
24A
330
246
100
AcDbEntity
  8
NOTES
 62
     0
100
AcDbMText
 10
0.7614619528
 20
0.3625855872
 30
0.0
 40
0.1875
 41
0.0
 71
     2
 72
     1
  1
CENTERLINE
  7
SLDTEXTSTYLE0
 73
     1
 44
1.0
  0
MTEXT
  5
24B
330
246
100
AcDbEntity
  8
NOTES
 62
     0
100
AcDbMText
 10
0.7615705178
 20
-0.2161545772
 30
0.0
 40
0.1875
 41
0.0
 71
     2
 72
     1
  1
PLANTILLA
  7
SLDTEXTSTYLE0
 73
     1
 44
1.0
  0
MTEXT
  5
24C
330
246
100
AcDbEntity
  8
NOTES
 62
     0
100
AcDbMText
 10
0.7588578295
 20
-0.5055246593
 30
0.0
 40
0.1875
 41
0.0
 71
     2
 72
     1
  1
CENTRAL
  7
SLDTEXTSTYLE0
 73
     1
 44
1.0
  0
ENDBLK
  5
248
330
246
100
AcDbEntity
  8
0
100
AcDbBlockEnd
  0
BLOCK
  5
251
330
250
100
AcDbEntity
  8
0
100
AcDbBlockBegin
  2
SW_NOTE_4
 70
     0
 10
0.0
 20
0.0
 30
0.0
  3
SW_NOTE_4
  1

  0
MTEXT
  5
253
330
250
100
AcDbEntity
  8
NOTES
 62
     0
100
AcDbMText
 10
0.0
 20
0.2148446233
 30
0.0
 40
0.1666666667
 41
0.0
 71
     1
 72
     1
  1
NOTES:
  7
SLDTEXTSTYLE0
 73
     1
 44
1.0
  0
MTEXT
  5
254
330
250
100
AcDbEntity
  8
NOTES
 62
     0
100
AcDbMText
 10
0.3937007786
 20
-0.3083399862
 30
0.0
 40
0.1666666667
 41
0.0
 71
     1
 72
     1
  1
THOROUGHLY READ ALL INSTALLATION INSTRUCTIONS
  7
SLDTEXTSTYLE0
 73
     1
 44
1.0
  0
MTEXT
  5
255
330
250
100
AcDbEntity
  8
NOTES
 62
     0
100
AcDbMText
 10
0.0
 20
-0.3083399862
 30
0.0
 40
0.1666666667
 41
0.0
 71
     1
 72
     1
  1
1.
  7
SLDTEXTSTYLE0
 73
     1
 44
1.0
  0
MTEXT
  5
256
330
250
100
AcDbEntity
  8
NOTES
 62
     0
100
AcDbMText
 10
0.3937007874
 20
-0.5699322909
 30
0.0
 40
0.1666666667
 41
0.0
 71
     1
 72
     1
  1
BEFORE CUTTING COUNTERTOP.
  7
SLDTEXTSTYLE0
 73
     1
 44
1.0
  0
MTEXT
  5
257
330
250
100
AcDbEntity
  8
NOTES
 62
     0
100
AcDbMText
 10
0.3937007786
 20
-1.0931169004
 30
0.0
 40
0.1666666667
 41
0.0
 71
     1
 72
     1
  1
DIMENSIONS ARE IN INCHES [MM].
  7
SLDTEXTSTYLE0
 73
     1
 44
1.0
  0
MTEXT
  5
258
330
250
100
AcDbEntity
  8
NOTES
 62
     0
100
AcDbMText
 10
0.0
 20
-1.0931169004
 30
0.0
 40
0.1666666667
 41
0.0
 71
     1
 72
     1
  1
2.
  7
SLDTEXTSTYLE0
 73
     1
 44
1.0
  0
MTEXT
  5
259
330
250
100
AcDbEntity
  8
NOTES
 62
     0
100
AcDbMText
 10
0.0
 20
-1.6163015098
 30
0.0
 40
0.1666666667
 41
0.0
 71
     1
 72
     1
  1
PLEASE CHECK TEMPLATE AGAINST PHYSICAL SINK FOR MOST ACCURATE CUT.
  7
SLDTEXTSTYLE1
 73
     1
 44
1.0
  0
MTEXT
  5
25A
330
250
100
AcDbEntity
  8
NOTES
 62
     0
100
AcDbMText
 10
0.0
 20
-2.401078424
 30
0.0
 40
0.1666666667
 41
0.0
 71
     1
 72
     1
  1
NOTAS:
  7
SLDTEXTSTYLE0
 73
     1
 44
1.0
  0
MTEXT
  5
25B
330
250
100
AcDbEntity
  8
NOTES
 62
     0
100
AcDbMText
 10
0.0
 20
-2.9242630335
 30
0.0
 40
0.1666666667
 41
0.0
 71
     1
 72
     1
  1
1.     EA ATENTAMENTE LAS INSTRUCCIONES DE INSTALACIÓN ANTES DE CORTAR  
  7
SLDTEXTSTYLE0
 73
     1
 44
1.0
  0
MTEXT
  5
25C
330
250
100
AcDbEntity
  8
NOTES
 62
     0
100
AcDbMText
 10
0.0
 20
-3.1858553382
 30
0.0
 40
0.1666666667
 41
0.0
 71
     1
 72
     1
  1
        LA ENCIMERA.
  7
SLDTEXTSTYLE0
 73
     1
 44
1.0
  0
MTEXT
  5
25D
330
250
100
AcDbEntity
  8
NOTES
 62
     0
100
AcDbMText
 10
0.0
 20
-3.7090399477
 30
0.0
 40
0.1666666667
 41
0.0
 71
     1
 72
     1
  1
2.     DIMENSIONES EN PULGADAS [MM].
  7
SLDTEXTSTYLE0
 73
     1
 44
1.0
  0
MTEXT
  5
25E
330
250
100
AcDbEntity
  8
NOTES
 62
     0
100
AcDbMText
 10
0.0
 20
-4.2322245571
 30
0.0
 40
0.1666666667
 41
0.0
 71
     1
 72
     1
  1
POR FAVOR COMPRUEBE PLANTILLA CONTRA FREGADERO FÍSICO PARA CORTE 
  7
SLDTEXTSTYLE1
 73
     1
 44
1.0
  0
MTEXT
  5
25F
330
250
100
AcDbEntity
  8
NOTES
 62
     0
100
AcDbMText
 10
0.0
 20
-4.4938168618
 30
0.0
 40
0.1666666667
 41
0.0
 71
     1
 72
     1
  1
MÁS EXACTO.
  7
SLDTEXTSTYLE1
 73
     1
 44
1.0
  0
ENDBLK
  5
252
330
250
100
AcDbEntity
  8
0
100
AcDbBlockEnd
  0
BLOCK
  5
262
330
261
100
AcDbEntity
  8
0
100
AcDbBlockBegin
  2
SW_NOTE_5
 70
     0
 10
0.0
 20
0.0
 30
0.0
  3
SW_NOTE_5
  1

  0
MTEXT
  5
264
330
261
100
AcDbEntity
  8
SLD-0
 62
     0
100
AcDbMText
 10
4.1171875
 20
0.6445338699
 30
0.0
 40
0.5
 41
0.0
 71
     2
 72
     1
  1
TEMPLATE #: 1000005604
  7
SLDTEXTSTYLE0
 73
     1
 44
1.0
  0
MTEXT
  5
265
330
261
100
AcDbEntity
  8
SLD-0
 62
     0
100
AcDbMText
 10
4.104481467
 20
-0.1791394203
 30
0.0
 40
0.2083333333
 41
0.0
 71
     2
 72
     1
  1
UNDERMOUNT TEMPLATE 31" X 18" W/ 3/4" RADIUS
  7
SLDTEXTSTYLE0
 73
     1
 44
1.0
  0
ENDBLK
  5
263
330
261
100
AcDbEntity
  8
0
100
AcDbBlockEnd
  0
ENDSEC
  0
SECTION
  2
ENTITIES
  0
LINE
  5
13C
330
1F
100
AcDbEntity
  8
OBJECTS
100
AcDbLine
 10
32.6284857647
 20
10.8053018717
 30
0.0
 11
28.9039687864
 21
10.8053018717
 31
0.0
  0
LINE
  5
13D
330
1F
100
AcDbEntity
  8
OBJECTS
100
AcDbLine
 10
1.3784857647
 20
10.8053018717
 30
0.0
 11
6.7871662565
 21
10.8053018717
 31
0.0
  0
LINE
  5
13E
330
1F
100
AcDbEntity
  8
SLD-0
  6
Continuous
100
AcDbLine
 10
2.0034857647
 20
18.5553018717
 30
0.0
 11
2.0034857647
 21
3.0553018717
 31
0.0
  0
LINE
  5
13F
330
1F
100
AcDbEntity
  8
SLD-0
  6
Continuous
100
AcDbLine
 10
2.6284857647
 20
2.4303018717
 30
0.0
 11
31.3784857647
 21
2.4303018717
 31
0.0
  0
LINE
  5
140
330
1F
100
AcDbEntity
  8
OBJECTS
 62
    56
100
AcDbLine
 10
17.0034857647
 20
19.8053018717
 30
0.0
 11
17.0034857647
 21
17.293077187
 31
0.0
  0
LINE
  5
141
330
1F
100
AcDbEntity
  8
OBJECTS
  6
CENTER
 62
    56
100
AcDbLine
 10
17.0034857647
 20
1.8053018717
 30
0.0
 11
17.0034857647
 21
4.6802063355
 31
0.0
  0
LINE
  5
142
330
1F
100
AcDbEntity
  8
SLD-0
  6
Continuous
100
AcDbLine
 10
32.0034857647
 20
3.0553018717
 30
0.0
 11
32.0034857647
 21
18.5553018717
 31
0.0
  0
LINE
  5
143
330
1F
100
AcDbEntity
  8
SLD-0
  6
Continuous
100
AcDbLine
 10
31.3784857647
 20
19.1803018717
 30
0.0
 11
2.6284857647
 21
19.1803018717
 31
0.0
  0
LINE
  5
144
330
1F
100
AcDbEntity
  8
SLD-0
  6
CENTERX2
100
AcDbLine
 10
32.1284857647
 20
3.0553018717
 30
0.0
 11
32.1284857647
 21
18.5553018717
 31
0.0
  0
LINE
  5
145
330
1F
100
AcDbEntity
  8
SLD-0
  6
CENTERX2
100
AcDbLine
 10
2.6284857647
 20
2.3053018717
 30
0.0
 11
31.3784857647
 21
2.3053018717
 31
0.0
  0
LINE
  5
146
330
1F
100
AcDbEntity
  8
SLD-0
  6
CENTERX2
100
AcDbLine
 10
1.8784857647
 20
18.5553018717
 30
0.0
 11
1.8784857647
 21
3.0553018717
 31
0.0
  0
LINE
  5
147
330
1F
100
AcDbEntity
  8
SLD-0
  6
CENTERX2
100
AcDbLine
 10
31.3784857647
 20
19.3053018717
 30
0.0
 11
2.6284857647
 21
19.3053018717
 31
0.0
  0
LINE
  5
148
330
1F
100
AcDbEntity
  8
SLD-0
  6
Continuous
100
AcDbLine
 10
31.3784857647
 20
19.8053018717
 30
0.0
 11
2.6284857647
 21
19.8053018717
 31
0.0
  0
LINE
  5
149
330
1F
100
AcDbEntity
  8
SLD-0
  6
Continuous
100
AcDbLine
 10
1.3784857647
 20
18.5553018717
 30
0.0
 11
1.3784857647
 21
3.0553018717
 31
0.0
  0
LINE
  5
14A
330
1F
100
AcDbEntity
  8
SLD-0
  6
Continuous
100
AcDbLine
 10
2.6284857647
 20
1.8053018717
 30
0.0
 11
31.3784857647
 21
1.8053018717
 31
0.0
  0
LINE
  5
14B
330
1F
100
AcDbEntity
  8
SLD-0
  6
Continuous
100
AcDbLine
 10
32.6284857647
 20
3.0553018717
 30
0.0
 11
32.6284857647
 21
18.5553018717
 31
0.0
  0
ARC
  5
14C
330
1F
100
AcDbEntity
  8
SLD-0
  6
Continuous
100
AcDbCircle
 10
2.6284857647
 20
18.5553018717
 30
0.0
 40
0.6250000000000036
100
AcDbArc
 50
90.0
 51
180.0
  0
ARC
  5
14D
330
1F
100
AcDbEntity
  8
SLD-0
  6
Continuous
100
AcDbCircle
 10
2.6284857647
 20
3.0553018717
 30
0.0
 40
0.6250000000000009
100
AcDbArc
 50
180.0
 51
270.0
  0
ARC
  5
14E
330
1F
100
AcDbEntity
  8
SLD-0
  6
Continuous
100
AcDbCircle
 10
31.3784857647
 20
3.0553018717
 30
0.0
 40
0.6249999999999987
100
AcDbArc
 50
270.0
 51
0.0
  0
ARC
  5
14F
330
1F
100
AcDbEntity
  8
SLD-0
  6
Continuous
100
AcDbCircle
 10
31.3784857647
 20
18.5553018717
 30
0.0
 40
0.625
100
AcDbArc
 50
0.0
 51
90.0
  0
ARC
  5
150
330
1F
100
AcDbEntity
  8
SLD-0
  6
CENTERX2
100
AcDbCircle
 10
31.3784857647
 20
18.5553018717
 30
0.0
 40
0.75
100
AcDbArc
 50
0.0
 51
90.0
  0
ARC
  5
151
330
1F
100
AcDbEntity
  8
SLD-0
  6
CENTERX2
100
AcDbCircle
 10
31.3784857647
 20
3.0553018717
 30
0.0
 40
0.7500000000000004
100
AcDbArc
 50
270.0
 51
0.0
  0
ARC
  5
152
330
1F
100
AcDbEntity
  8
SLD-0
  6
CENTERX2
100
AcDbCircle
 10
2.6284857647
 20
3.0553018717
 30
0.0
 40
0.7500000000000004
100
AcDbArc
 50
180.0
 51
270.0
  0
ARC
  5
153
330
1F
100
AcDbEntity
  8
SLD-0
  6
CENTERX2
100
AcDbCircle
 10
2.6284857647
 20
18.5553018717
 30
0.0
 40
0.7500000000000004
100
AcDbArc
 50
90.0
 51
180.0
  0
ARC
  5
154
330
1F
100
AcDbEntity
  8
SLD-0
  6
Continuous
100
AcDbCircle
 10
2.6284857647
 20
18.5553018717
 30
0.0
 40
1.250000000000004
100
AcDbArc
 50
90.0
 51
180.0
  0
ARC
  5
155
330
1F
100
AcDbEntity
  8
SLD-0
  6
Continuous
100
AcDbCircle
 10
2.6284857647
 20
3.0553018717
 30
0.0
 40
1.25
100
AcDbArc
 50
180.0
 51
270.0
  0
ARC
  5
156
330
1F
100
AcDbEntity
  8
SLD-0
  6
Continuous
100
AcDbCircle
 10
31.3784857647
 20
3.0553018717
 30
0.0
 40
1.25
100
AcDbArc
 50
270.0
 51
0.0
  0
ARC
  5
157
330
1F
100
AcDbEntity
  8
SLD-0
  6
Continuous
100
AcDbCircle
 10
31.3784857647
 20
18.5553018717
 30
0.0
 40
1.25
100
AcDbArc
 50
0.0
 51
90.0
  0
INSERT
  5
158
330
1F
100
AcDbEntity
  8
BLOCKS
100
AcDbBlockReference
  2
REVEAL- .500
 10
-11.676406189
 20
-12.0623938655
 30
0.0
  0
INSERT
  5
159
330
1F
100
AcDbEntity
  8
BLOCKS
100
AcDbBlockReference
  2
REVEAL - 0 (FLUSH)
 10
-16.1096032325
 20
-13.8295921065
 30
0.0
  0
INSERT
  5
15A
330
1F
100
AcDbEntity
  8
BLOCKS
100
AcDbBlockReference
  2
OVERHANG - .125
 10
3.4290852657
 20
-22.2819733188
 30
0.0
  0
DIMENSION
  5
15B
330
1F
100
AcDbEntity
  8
DIM
100
AcDbDimension
  2
_D
 10
32.6284857647
 20
8.1632368134
 30
0.0
 11
19.5900995572
 21
8.1632368134
 31
0.0
 70
   160
  1
<>
 71
     2
 42
-1.0
  3
SLDDIMSTYLE0
100
AcDbAlignedDimension
 13
1.3784857647
 23
3.0553018717
 33
0.0
 14
32.6284857647
 24
3.0553018717
 34
0.0
100
AcDbRotatedDimension
  0
DIMENSION
  5
170
330
1F
100
AcDbEntity
  8
DIM
100
AcDbDimension
  2
_D_1
 10
32.1284857647
 20
7.2565488438
 30
0.0
 11
16.3881794156
 21
7.2565488438
 31
0.0
 70
   160
  1
<>
 71
     2
 42
-1.0
  3
SLDDIMSTYLE0
100
AcDbAlignedDimension
 13
1.8784857647
 23
3.0553018717
 33
0.0
 14
32.1284857647
 24
3.0553018717
 34
0.0
 50
0.0
100
AcDbRotatedDimension
  0
DIMENSION
  5
184
330
1F
100
AcDbEntity
  8
DIM
100
AcDbDimension
  2
_D_2
 10
2.0034857647
 20
6.3908359006
 30
0.0
 11
19.708259552
 21
6.3908359006
 31
0.0
 70
   160
  1
<>
 71
     2
 42
-1.0
  3
SLDDIMSTYLE1
100
AcDbAlignedDimension
 13
32.0034857647
 23
3.0553018717
 33
0.0
 14
2.0034857647
 24
3.0553018717
 34
0.0
 50
0.0
100
AcDbRotatedDimension
  0
DIMENSION
  5
195
330
1F
100
AcDbEntity
  8
DIM
100
AcDbDimension
  2
_D_3
 10
12.3620259256
 20
19.1803018717
 30
0.0
 11
12.3620259256
 21
11.8511606763
 31
0.0
 70
   160
  1
<>
 71
     2
 42
-1.0
  3
SLDDIMSTYLE0
100
AcDbAlignedDimension
 13
2.6284857647
 23
2.4303018717
 33
0.0
 14
2.6284857647
 24
19.1803018717
 34
0.0
 50
90.0
100
AcDbRotatedDimension
  0
DIMENSION
  5
1A9
330
1F
100
AcDbEntity
  8
DIM
100
AcDbDimension
  2
_D_4
 10
11.3812413215
 20
19.3053018717
 30
0.0
 11
11.3812413215
 21
10.0752775271
 31
0.0
 70
   160
  1
<>
 71
     2
 42
-1.0
  3
SLDDIMSTYLE1
100
AcDbAlignedDimension
 13
2.6284857647
 23
2.3053018717
 33
0.0
 14
2.6284857647
 24
19.3053018717
 34
0.0
 50
90.0
100
AcDbRotatedDimension
  0
DIMENSION
  5
1B9
330
1F
100
AcDbEntity
  8
DIM
100
AcDbDimension
  2
_D_5
 10
10.4913181236
 20
1.8053018717
 30
0.0
 11
10.4913181236
 21
11.8511606763
 31
0.0
 70
   160
  1
<>
 71
     2
 42
-1.0
  3
SLDDIMSTYLE1
100
AcDbAlignedDimension
 13
2.6284857647
 23
19.8053018717
 33
0.0
 14
2.6284857647
 24
1.8053018717
 34
0.0
 50
90.0
100
AcDbRotatedDimension
  0
DIMENSION
  5
1C9
330
1F
100
AcDbEntity
  8
DIM
100
AcDbDimension
  2
_D_6
 10
2.0034857647
 20
5.4708363344
 30
0.0
 11
3.2990441573
 21
5.4708363344
 31
0.0
 70
   160
  1
<>
 71
     2
 42
-1.0
  3
SLDDIMSTYLE2
100
AcDbAlignedDimension
 13
1.8784857647
 23
3.0553018717
 33
0.0
 14
2.0034857647
 24
3.0553018717
 34
0.0
100
AcDbRotatedDimension
  0
DIMENSION
  5
1DD
330
1F
100
AcDbEntity
  8
DIM
100
AcDbDimension
  2
_D_7
 10
2.6284857647
 20
18.5553018717
 30
0.0
 11
4.5478513408
 21
17.2489764317
 31
0.0
 70
   164
  1
<>
 71
     1
 42
-1.0
  3
SLDDIMSTYLE3
100
AcDbRadialDimension
 15
1.7446022882
 25
19.4391853481
 35
0.0
 40
0.0
  0
DIMENSION
  5
1F1
330
1F
100
AcDbEntity
  8
DIM
100
AcDbDimension
  2
_D_8
 10
2.6284857647
 20
3.0553018717
 30
0.0
 11
4.0810614912
 21
3.5803244872
 31
0.0
 70
   164
  1
<>
 71
     1
 42
-1.0
  3
SLDDIMSTYLE4
100
AcDbRadialDimension
 15
1.9789667118
 25
2.6803018717
 35
0.0
 40
0.0
  0
DIMENSION
  5
206
330
1F
100
AcDbEntity
  8
DIM
100
AcDbDimension
  2
_D_9
 10
31.3784857647
 20
3.0553018717
 30
0.0
 11
29.5642229135
 21
3.789144646
 31
0.0
 70
   164
  1
<>
 71
     1
 42
-1.0
  3
SLDDIMSTYLE3
100
AcDbRadialDimension
 15
31.9197516421
 25
2.7428018717
 35
0.0
 40
0.0
  0
DIMENSION
  5
219
330
1F
100
AcDbEntity
  8
DIM
100
AcDbDimension
  2
_D_10
 10
13.3048330834
 20
19.3053018717
 30
0.0
 11
13.3048330834
 21
18.3012819725
 31
0.0
 70
   160
  1
<>
 71
     2
 42
-1.0
  3
SLDDIMSTYLE0
100
AcDbAlignedDimension
 13
2.6284857647
 23
19.8053018717
 33
0.0
 14
2.6284857647
 24
19.3053018717
 34
0.0
 50
90.0
100
AcDbRotatedDimension
  0
INSERT
  5
232
102
{ACAD_REACTORS
330
234
102
}
330
1F
100
AcDbEntity
  8
NOTES
 62
     7
100
AcDbBlockReference
  2
SW_NOTE_0
 10
22.3944709676
 20
5.2432629706
 30
0.0
  0
LEADER
  5
234
330
1F
100
AcDbEntity
  8
NOTES
 62
     7
100
AcDbLeader
  3
SLDDIMSTYLE5
 73
     2
 76
     3
 10
21.2519098344
 20
2.4303018717
 30
0.0
 10
22.1444709676
 20
5.2432629706
 30
0.0
 10
22.3944709676
 20
5.2432629706
 30
0.0
340
232
  0
INSERT
  5
23A
102
{ACAD_REACTORS
330
23B
102
}
330
1F
100
AcDbEntity
  8
NOTES
 62
     7
100
AcDbBlockReference
  2
SW_NOTE_1
 10
6.4694415476
 20
16.3128088035
 30
0.0
  0
LEADER
  5
23B
330
1F
100
AcDbEntity
  8
NOTES
 62
     7
100
AcDbLeader
  3
SLDDIMSTYLE5
 73
     2
 76
     3
 10
4.9814602469
 20
19.8053018717
 30
0.0
 10
6.2194415476
 20
16.3128088035
 30
0.0
 10
6.4694415476
 20
16.3128088035
 30
0.0
340
23A
  0
INSERT
  5
241
102
{ACAD_REACTORS
330
242
330
243
102
}
330
1F
100
AcDbEntity
  8
NOTES
 62
     7
100
AcDbBlockReference
  2
SW_NOTE_2
 10
3.3696965367
 20
11.3664343907
 30
0.0
  0
LEADER
  5
242
330
1F
100
AcDbEntity
  8
NOTES
 62
     7
100
AcDbLeader
  3
SLDDIMSTYLE5
 73
     2
 76
     3
 10
1.8784857647
 20
11.7278274169
 30
0.0
 10
3.1196965367
 20
11.3664343907
 30
0.0
 10
3.3696965367
 20
11.3664343907
 30
0.0
340
241
  0
LEADER
  5
243
330
1F
100
AcDbEntity
  8
NOTES
 62
     7
100
AcDbLeader
  3
SLDDIMSTYLE5
 73
     2
 76
     3
 10
4.8561153925
 20
12.3273878472
 30
0.0
 10
5.5340668219
 20
11.3664343907
 30
0.0
 10
5.2840668219
 20
11.3664343907
 30
0.0
340
241
212
1.914370285244437
222
0.0
232
0.0
  0
MTEXT
  5
245
330
1F
100
AcDbEntity
  8
NOTES
 62
     7
100
AcDbMText
 10
13.8075489875
 20
3.2623352254
 30
0.0
 40
0.1666666667
 41
0.0
 71
     1
 72
     1
  1
REV: A   2/25/2020
  7
SLDTEXTSTYLE1
 73
     1
 44
1.0
  0
INSERT
  5
24D
102
{ACAD_REACTORS
330
24E
330
24F
102
}
330
1F
100
AcDbEntity
  8
NOTES
100
AcDbBlockReference
  2
SW_NOTE_3
 10
26.3174794386
 20
16.1705610682
 30
0.0
  0
LEADER
  5
24E
330
1F
100
AcDbEntity
  8
NOTES
100
AcDbLeader
  3
SLDDIMSTYLE5
 73
     2
 76
     3
 10
17.0034857647
 20
18.5593330301
 30
0.0
 10
26.0049794073
 20
16.1705610682
 30
0.0
 10
26.3174794386
 20
16.1705610682
 30
0.0
340
24D
  0
LEADER
  5
24F
330
1F
100
AcDbEntity
  8
NOTES
100
AcDbLeader
  3
SLDDIMSTYLE5
 73
     2
 76
     3
 10
30.608365275
 20
10.8053018717
 30
0.0
 10
28.0651828972
 20
16.1705610682
 30
0.0
 10
27.8151828972
 20
16.1705610682
 30
0.0
340
24D
212
1.497703458615174
222
0.0
232
0.0
  0
INSERT
  5
260
330
1F
100
AcDbEntity
  8
NOTES
 62
     7
100
AcDbBlockReference
  2
SW_NOTE_4
 10
13.8002173944
 20
14.3819219962
 30
0.0
  0
INSERT
  5
266
330
1F
100
AcDbEntity
  8
SLD-0
 62
     7
100
AcDbBlockReference
  2
SW_NOTE_5
 10
13.5466842055
 20
15.7829819259
 30
0.0
  0
ENDSEC
  0
SECTION
  2
OBJECTS
  0
DICTIONARY
  5
C
330
0
100
AcDbDictionary
281
     1
  3
ACAD_GROUP
350
D
  3
ACAD_LAYOUT
350
1A
  3
ACAD_MLINESTYLE
350
17
  3
ACAD_PLOTSETTINGS
350
19
  3
ACAD_PLOTSTYLENAME
350
E
  3
ACAD_SCALELIST
350
47
  0
DICTIONARY
  5
D
102
{ACAD_REACTORS
330
C
102
}
330
C
100
AcDbDictionary
281
     1
  0
DICTIONARY
  5
1A
102
{ACAD_REACTORS
330
C
102
}
330
C
100
AcDbDictionary
281
     1
  3
Layout1
350
1E
  3
Layout2
350
26
  3
Model
350
22
  0
DICTIONARY
  5
17
102
{ACAD_REACTORS
330
C
102
}
330
C
100
AcDbDictionary
281
     1
  3
Standard
350
18
  0
DICTIONARY
  5
19
102
{ACAD_REACTORS
330
C
102
}
330
C
100
AcDbDictionary
281
     1
  0
ACDBDICTIONARYWDFLT
  5
E
102
{ACAD_REACTORS
330
C
102
}
330
C
100
AcDbDictionary
281
     1
  3
Normal
350
F
100
AcDbDictionaryWithDefault
340
F
  0
DICTIONARY
  5
47
102
{ACAD_REACTORS
330
C
102
}
330
C
100
AcDbDictionary
281
     1
  3
A0
350
48
  3
A1
350
49
  3
A2
350
4A
  3
A3
350
4B
  3
A4
350
4C
  3
A5
350
4D
  3
A6
350
4E
  3
A7
350
4F
  3
A8
350
50
  3
A9
350
51
  3
B0
350
52
  3
B1
350
53
  3
B2
350
54
  3
B3
350
55
  3
B4
350
56
  3
B5
350
57
  3
B6
350
58
  3
B7
350
59
  3
B8
350
5A
  3
B9
350
5B
  3
C0
350
5C
  3
C1
350
5D
  3
C2
350
5E
  3
C3
350
5F
  3
C4
350
60
  3
C5
350
61
  3
C6
350
62
  3
C7
350
63
  3
C8
350
64
  3
C9
350
65
  3
D0
350
66
  3
D1
350
67
  3
D2
350
68
  0
LAYOUT
  5
1E
102
{ACAD_REACTORS
330
1A
102
}
330
1A
100
AcDbPlotSettings
  1

  2
none_device
  4

  6

 40
0.0
 41
0.0
 42
0.0
 43
0.0
 44
0.0
 45
0.0
 46
0.0
 47
0.0
 48
0.0
 49
0.0
140
0.0
141
0.0
142
1.0
143
1.0
 70
   688
 72
     0
 73
     0
 74
     5
  7

 75
    16
147
1.0
148
0.0
149
0.0
100
AcDbLayout
  1
Layout1
 70
     1
 71
     1
 10
0.0
 20
0.0
 11
12.0
 21
9.0
 12
0.0
 22
0.0
 32
0.0
 14
1.0000000000E+20
 24
1.0000000000E+20
 34
1.0000000000E+20
 15
-1.0000000000E+20
 25
-1.0000000000E+20
 35
-1.0000000000E+20
146
0.0
 13
0.0
 23
0.0
 33
0.0
 16
1.0
 26
0.0
 36
0.0
 17
0.0
 27
1.0
 37
0.0
 76
     0
330
1B
  0
LAYOUT
  5
26
102
{ACAD_REACTORS
330
1A
102
}
330
1A
100
AcDbPlotSettings
  1

  2
none_device
  4

  6

 40
0.0
 41
0.0
 42
0.0
 43
0.0
 44
0.0
 45
0.0
 46
0.0
 47
0.0
 48
0.0
 49
0.0
140
0.0
141
0.0
142
1.0
143
1.0
 70
   688
 72
     0
 73
     0
 74
     5
  7

 75
    16
147
1.0
148
0.0
149
0.0
100
AcDbLayout
  1
Layout2
 70
     1
 71
     2
 10
0.0
 20
0.0
 11
0.0
 21
0.0
 12
0.0
 22
0.0
 32
0.0
 14
0.0
 24
0.0
 34
0.0
 15
0.0
 25
0.0
 35
0.0
146
0.0
 13
0.0
 23
0.0
 33
0.0
 16
1.0
 26
0.0
 36
0.0
 17
0.0
 27
1.0
 37
0.0
 76
     0
330
23
  0
LAYOUT
  5
22
102
{ACAD_REACTORS
330
1A
102
}
330
1A
100
AcDbPlotSettings
  1

  2
none_device
  4
Letter_(8.50_x_11.00_Inches)
  6

 40
6.35
 41
6.35
 42
6.35000508
 43
6.35000508
 44
215.9
 45
279.4
 46
0.0
 47
0.0
 48
0.0
 49
0.0
140
0.0
141
0.0
142
1.0
143
1.0
 70
  1712
 72
     0
 73
     0
 74
     0
  7

 75
     0
147
1.0
148
0.0
149
0.0
100
AcDbLayout
  1
Model
 70
     1
 71
     0
 10
0.0
 20
0.0
 11
34.0
 21
22.0
 12
0.0
 22
0.0
 32
0.0
 14
0.0
 24
0.0
 34
0.0
 15
34.0
 25
22.0
 35
0.0
146
0.0
 13
0.0
 23
0.0
 33
0.0
 16
1.0
 26
0.0
 36
0.0
 17
0.0
 27
1.0
 37
0.0
 76
     0
330
1F
331
29
  0
MLINESTYLE
  5
18
102
{ACAD_REACTORS
330
17
102
}
330
17
100
AcDbMlineStyle
  2
Standard
 70
     0
  3

 62
   256
 51
90.0
 52
90.0
 71
     2
 49
0.5
 62
   256
  6
BYLAYER
 49
-0.5
 62
   256
  6
BYLAYER
  0
ACDBPLACEHOLDER
  5
F
102
{ACAD_REACTORS
330
E
102
}
330
E
  0
SCALE
  5
48
102
{ACAD_REACTORS
330
47
102
}
330
47
100
AcDbScale
 70
     0
300
1:1
140
1.0
141
1.0
290
     1
  0
SCALE
  5
49
102
{ACAD_REACTORS
330
47
102
}
330
47
100
AcDbScale
 70
     0
300
1:2
140
1.0
141
2.0
290
     0
  0
SCALE
  5
4A
102
{ACAD_REACTORS
330
47
102
}
330
47
100
AcDbScale
 70
     0
300
1:4
140
1.0
141
4.0
290
     0
  0
SCALE
  5
4B
102
{ACAD_REACTORS
330
47
102
}
330
47
100
AcDbScale
 70
     0
300
1:5
140
1.0
141
5.0
290
     0
  0
SCALE
  5
4C
102
{ACAD_REACTORS
330
47
102
}
330
47
100
AcDbScale
 70
     0
300
1:8
140
1.0
141
8.0
290
     0
  0
SCALE
  5
4D
102
{ACAD_REACTORS
330
47
102
}
330
47
100
AcDbScale
 70
     0
300
1:10
140
1.0
141
10.0
290
     0
  0
SCALE
  5
4E
102
{ACAD_REACTORS
330
47
102
}
330
47
100
AcDbScale
 70
     0
300
1:16
140
1.0
141
16.0
290
     0
  0
SCALE
  5
4F
102
{ACAD_REACTORS
330
47
102
}
330
47
100
AcDbScale
 70
     0
300
1:20
140
1.0
141
20.0
290
     0
  0
SCALE
  5
50
102
{ACAD_REACTORS
330
47
102
}
330
47
100
AcDbScale
 70
     0
300
1:30
140
1.0
141
30.0
290
     0
  0
SCALE
  5
51
102
{ACAD_REACTORS
330
47
102
}
330
47
100
AcDbScale
 70
     0
300
1:40
140
1.0
141
40.0
290
     0
  0
SCALE
  5
52
102
{ACAD_REACTORS
330
47
102
}
330
47
100
AcDbScale
 70
     0
300
1:50
140
1.0
141
50.0
290
     0
  0
SCALE
  5
53
102
{ACAD_REACTORS
330
47
102
}
330
47
100
AcDbScale
 70
     0
300
1:100
140
1.0
141
100.0
290
     0
  0
SCALE
  5
54
102
{ACAD_REACTORS
330
47
102
}
330
47
100
AcDbScale
 70
     0
300
2:1
140
2.0
141
1.0
290
     0
  0
SCALE
  5
55
102
{ACAD_REACTORS
330
47
102
}
330
47
100
AcDbScale
 70
     0
300
4:1
140
4.0
141
1.0
290
     0
  0
SCALE
  5
56
102
{ACAD_REACTORS
330
47
102
}
330
47
100
AcDbScale
 70
     0
300
8:1
140
8.0
141
1.0
290
     0
  0
SCALE
  5
57
102
{ACAD_REACTORS
330
47
102
}
330
47
100
AcDbScale
 70
     0
300
10:1
140
10.0
141
1.0
290
     0
  0
SCALE
  5
58
102
{ACAD_REACTORS
330
47
102
}
330
47
100
AcDbScale
 70
     0
300
100:1
140
100.0
141
1.0
290
     0
  0
SCALE
  5
59
102
{ACAD_REACTORS
330
47
102
}
330
47
100
AcDbScale
 70
     0
300
1/128" = 1'-0"
140
0.0078125
141
12.0
290
     0
  0
SCALE
  5
5A
102
{ACAD_REACTORS
330
47
102
}
330
47
100
AcDbScale
 70
     0
300
1/64" = 1'-0"
140
0.015625
141
12.0
290
     0
  0
SCALE
  5
5B
102
{ACAD_REACTORS
330
47
102
}
330
47
100
AcDbScale
 70
     0
300
1/32" = 1'-0"
140
0.03125
141
12.0
290
     0
  0
SCALE
  5
5C
102
{ACAD_REACTORS
330
47
102
}
330
47
100
AcDbScale
 70
     0
300
1/16" = 1'-0"
140
0.0625
141
12.0
290
     0
  0
SCALE
  5
5D
102
{ACAD_REACTORS
330
47
102
}
330
47
100
AcDbScale
 70
     0
300
3/32" = 1'-0"
140
0.09375
141
12.0
290
     0
  0
SCALE
  5
5E
102
{ACAD_REACTORS
330
47
102
}
330
47
100
AcDbScale
 70
     0
300
1/8" = 1'-0"
140
0.125
141
12.0
290
     0
  0
SCALE
  5
5F
102
{ACAD_REACTORS
330
47
102
}
330
47
100
AcDbScale
 70
     0
300
3/16" = 1'-0"
140
0.1875
141
12.0
290
     0
  0
SCALE
  5
60
102
{ACAD_REACTORS
330
47
102
}
330
47
100
AcDbScale
 70
     0
300
1/4" = 1'-0"
140
0.25
141
12.0
290
     0
  0
SCALE
  5
61
102
{ACAD_REACTORS
330
47
102
}
330
47
100
AcDbScale
 70
     0
300
3/8" = 1'-0"
140
0.375
141
12.0
290
     0
  0
SCALE
  5
62
102
{ACAD_REACTORS
330
47
102
}
330
47
100
AcDbScale
 70
     0
300
1/2" = 1'-0"
140
0.5
141
12.0
290
     0
  0
SCALE
  5
63
102
{ACAD_REACTORS
330
47
102
}
330
47
100
AcDbScale
 70
     0
300
3/4" = 1'-0"
140
0.75
141
12.0
290
     0
  0
SCALE
  5
64
102
{ACAD_REACTORS
330
47
102
}
330
47
100
AcDbScale
 70
     0
300
1" = 1'-0"
140
1.0
141
12.0
290
     0
  0
SCALE
  5
65
102
{ACAD_REACTORS
330
47
102
}
330
47
100
AcDbScale
 70
     0
300
1-1/2" = 1'-0"
140
1.5
141
12.0
290
     0
  0
SCALE
  5
66
102
{ACAD_REACTORS
330
47
102
}
330
47
100
AcDbScale
 70
     0
300
3" = 1'-0"
140
3.0
141
12.0
290
     0
  0
SCALE
  5
67
102
{ACAD_REACTORS
330
47
102
}
330
47
100
AcDbScale
 70
     0
300
6" = 1'-0"
140
6.0
141
12.0
290
     0
  0
SCALE
  5
68
102
{ACAD_REACTORS
330
47
102
}
330
47
100
AcDbScale
 70
     0
300
1'-0" = 1'-0"
140
12.0
141
12.0
290
     0
  0
ENDSEC
  0
EOF
