  0
SECTION
  2
HEADER
  9
$ACADVER
  1
AC1021
  9
$ACADMAINTVER
 70
    25
  9
$DWGCODEPAGE
  3
ANSI_1252
  9
$INSBASE
 10
0.0
 20
0.0
 30
0.0
  9
$EXTMIN
 10
0.0
 20
0.0
 30
0.0
  9
$EXTMAX
 10
32.0
 20
22.0
 30
0.0
  9
$LIMMIN
 10
0.0
 20
0.0
  9
$LIMMAX
 10
32.0
 20
22.0
  9
$ORTHOMODE
 70
     0
  9
$REGENMODE
 70
     1
  9
$FILLMODE
 70
     1
  9
$QTEXTMODE
 70
     0
  9
$MIRRTEXT
 70
     1
  9
$LTSCALE
 40
1.0
  9
$ATTMODE
 70
     1
  9
$TEXTSIZE
 40
0.2777777778
  9
$TRACEWID
 40
0.05
  9
$TEXTSTYLE
  7
Standard
  9
$CLAYER
  8
0
  9
$CELTYPE
  6
ByLayer
  9
$CECOLOR
 62
   256
  9
$CELTSCALE
 40
1.0
  9
$DISPSILH
 70
     0
  9
$DIMSCALE
 40
1.0
  9
$DIMASZ
 40
0.262898763
  9
$DIMEXO
 40
0.05
  9
$DIMDLI
 40
0.38
  9
$DIMRND
 40
0.0
  9
$DIMDLE
 40
0.0
  9
$DIMEXE
 40
0.125
  9
$DIMTP
 40
0.0
  9
$DIMTM
 40
0.0
  9
$DIMTXT
 40
0.3611111111
  9
$DIMCEN
 40
0.09
  9
$DIMTSZ
 40
0.0
  9
$DIMTOL
 70
     0
  9
$DIMLIM
 70
     0
  9
$DIMTIH
 70
     1
  9
$DIMTOH
 70
     1
  9
$DIMSE1
 70
     0
  9
$DIMSE2
 70
     0
  9
$DIMTAD
 70
     0
  9
$DIMZIN
 70
     0
  9
$DIMBLK
  1

  9
$DIMASO
 70
     1
  9
$DIMSHO
 70
     1
  9
$DIMPOST
  1

  9
$DIMAPOST
  1

  9
$DIMALT
 70
     0
  9
$DIMALTD
 70
     2
  9
$DIMALTF
 40
25.4
  9
$DIMLFAC
 40
1.0
  9
$DIMTOFL
 70
     0
  9
$DIMTVP
 40
0.0
  9
$DIMTIX
 70
     0
  9
$DIMSOXD
 70
     0
  9
$DIMSAH
 70
     0
  9
$DIMBLK1
  1

  9
$DIMBLK2
  1

  9
$DIMSTYLE
  2
Standard
  9
$DIMCLRD
 70
     0
  9
$DIMCLRE
 70
     0
  9
$DIMCLRT
 70
     0
  9
$DIMTFAC
 40
1.0
  9
$DIMGAP
 40
0.06
  9
$DIMJUST
 70
     0
  9
$DIMSD1
 70
     0
  9
$DIMSD2
 70
     0
  9
$DIMTOLJ
 70
     1
  9
$DIMTZIN
 70
     0
  9
$DIMALTZ
 70
     0
  9
$DIMALTTZ
 70
     0
  9
$DIMUPT
 70
     0
  9
$DIMDEC
 70
     3
  9
$DIMTDEC
 70
     3
  9
$DIMALTU
 70
     2
  9
$DIMALTTD
 70
     2
  9
$DIMTXSTY
  7
Standard
  9
$DIMAUNIT
 70
     0
  9
$DIMADEC
 70
     1
  9
$DIMALTRND
 40
0.0
  9
$DIMAZIN
 70
     0
  9
$DIMDSEP
 70
    46
  9
$DIMATFIT
 70
     3
  9
$DIMFRAC
 70
     0
  9
$DIMLDRBLK
  1

  9
$DIMLUNIT
 70
     2
  9
$DIMLWD
 70
    -2
  9
$DIMLWE
 70
    -2
  9
$DIMTMOVE
 70
     0
  9
$DIMFXL
 40
1.0
  9
$DIMFXLON
 70
     0
  9
$DIMJOGANG
 40
0.7853981634
  9
$DIMTFILL
 70
     0
  9
$DIMTFILLCLR
 70
     0
  9
$DIMARCSYM
 70
     0
  9
$DIMLTYPE
  6

  9
$DIMLTEX1
  6

  9
$DIMLTEX2
  6

  9
$LUNITS
 70
     2
  9
$LUPREC
 70
     3
  9
$SKETCHINC
 40
0.1
  9
$FILLETRAD
 40
0.5
  9
$AUNITS
 70
     0
  9
$AUPREC
 70
     1
  9
$MENU
  1
.
  9
$ELEVATION
 40
0.0
  9
$PELEVATION
 40
0.0
  9
$THICKNESS
 40
0.0
  9
$LIMCHECK
 70
     0
  9
$CHAMFERA
 40
0.0
  9
$CHAMFERB
 40
0.0
  9
$CHAMFERC
 40
0.0
  9
$CHAMFERD
 40
0.0
  9
$SKPOLY
 70
     0
  9
$TDCREATE
 40
2458822.398594236
  9
$TDUCREATE
 40
2458822.648594236
  9
$TDUPDATE
 40
2458822.398595382
  9
$TDUUPDATE
 40
2458822.648595382
  9
$TDINDWG
 40
0.0000000116
  9
$TDUSRTIMER
 40
0.0000000116
  9
$USRTIMER
 70
     1
  9
$ANGBASE
 50
0.0
  9
$ANGDIR
 70
     0
  9
$PDMODE
 70
     0
  9
$PDSIZE
 40
-1.0
  9
$PLINEWID
 40
0.0
  9
$SPLFRAME
 70
     0
  9
$SPLINETYPE
 70
     6
  9
$SPLINESEGS
 70
     8
  9
$HANDSEED
  5
18A
  9
$SURFTAB1
 70
     6
  9
$SURFTAB2
 70
     6
  9
$SURFTYPE
 70
     6
  9
$SURFU
 70
     6
  9
$SURFV
 70
     6
  9
$UCSBASE
  2

  9
$UCSNAME
  2

  9
$UCSORG
 10
0.0
 20
0.0
 30
0.0
  9
$UCSXDIR
 10
1.0
 20
0.0
 30
0.0
  9
$UCSYDIR
 10
0.0
 20
1.0
 30
0.0
  9
$UCSORTHOREF
  2

  9
$UCSORTHOVIEW
 70
     0
  9
$UCSORGTOP
 10
0.0
 20
0.0
 30
0.0
  9
$UCSORGBOTTOM
 10
0.0
 20
0.0
 30
0.0
  9
$UCSORGLEFT
 10
0.0
 20
0.0
 30
0.0
  9
$UCSORGRIGHT
 10
0.0
 20
0.0
 30
0.0
  9
$UCSORGFRONT
 10
0.0
 20
0.0
 30
0.0
  9
$UCSORGBACK
 10
0.0
 20
0.0
 30
0.0
  9
$PUCSBASE
  2

  9
$PUCSNAME
  2

  9
$PUCSORG
 10
0.0
 20
0.0
 30
0.0
  9
$PUCSXDIR
 10
1.0
 20
0.0
 30
0.0
  9
$PUCSYDIR
 10
0.0
 20
1.0
 30
0.0
  9
$PUCSORTHOREF
  2

  9
$PUCSORTHOVIEW
 70
     0
  9
$PUCSORGTOP
 10
0.0
 20
0.0
 30
0.0
  9
$PUCSORGBOTTOM
 10
0.0
 20
0.0
 30
0.0
  9
$PUCSORGLEFT
 10
0.0
 20
0.0
 30
0.0
  9
$PUCSORGRIGHT
 10
0.0
 20
0.0
 30
0.0
  9
$PUCSORGFRONT
 10
0.0
 20
0.0
 30
0.0
  9
$PUCSORGBACK
 10
0.0
 20
0.0
 30
0.0
  9
$USERI1
 70
     0
  9
$USERI2
 70
     0
  9
$USERI3
 70
     0
  9
$USERI4
 70
     0
  9
$USERI5
 70
     0
  9
$USERR1
 40
0.0
  9
$USERR2
 40
0.0
  9
$USERR3
 40
0.0
  9
$USERR4
 40
0.0
  9
$USERR5
 40
0.0
  9
$WORLDVIEW
 70
     1
  9
$SHADEDGE
 70
     3
  9
$SHADEDIF
 70
    70
  9
$TILEMODE
 70
     1
  9
$MAXACTVP
 70
    64
  9
$PINSBASE
 10
0.0
 20
0.0
 30
0.0
  9
$PLIMCHECK
 70
     0
  9
$PEXTMIN
 10
1.0000000000E+20
 20
1.0000000000E+20
 30
1.0000000000E+20
  9
$PEXTMAX
 10
-1.0000000000E+20
 20
-1.0000000000E+20
 30
-1.0000000000E+20
  9
$PLIMMIN
 10
0.0
 20
0.0
  9
$PLIMMAX
 10
12.0
 20
9.0
  9
$UNITMODE
 70
     0
  9
$VISRETAIN
 70
     1
  9
$PLINEGEN
 70
     0
  9
$PSLTSCALE
 70
     1
  9
$TREEDEPTH
 70
  3020
  9
$CMLSTYLE
  2
Standard
  9
$CMLJUST
 70
     0
  9
$CMLSCALE
 40
1.0
  9
$PROXYGRAPHICS
 70
     1
  9
$MEASUREMENT
 70
     0
  9
$CELWEIGHT
370
    -1
  9
$ENDCAPS
280
     0
  9
$JOINSTYLE
280
     0
  9
$LWDISPLAY
290
     1
  9
$INSUNITS
 70
     1
  9
$HYPERLINKBASE
  1

  9
$STYLESHEET
  1

  9
$XEDIT
290
     1
  9
$CEPSNTYPE
380
     0
  9
$PSTYLEMODE
290
     1
  9
$FINGERPRINTGUID
  2
{6F52C2CB-D865-4888-A9B6-B738BF62C927}
  9
$VERSIONGUID
  2
{FAEB1C32-E019-11D5-929B-00C0DF256EC4}
  9
$EXTNAMES
290
     1
  9
$PSVPSCALE
 40
0.0
  9
$OLESTARTUP
290
     0
  9
$SORTENTS
280
   127
  9
$INDEXCTL
280
     0
  9
$HIDETEXT
280
     1
  9
$XCLIPFRAME
290
     0
  9
$HALOGAP
280
     0
  9
$OBSCOLOR
 70
   257
  9
$OBSLTYPE
280
     0
  9
$INTERSECTIONDISPLAY
280
     0
  9
$INTERSECTIONCOLOR
 70
   257
  9
$DIMASSOC
280
     2
  9
$PROJECTNAME
  1

  9
$CAMERADISPLAY
290
     0
  9
$LENSLENGTH
 40
50.0
  9
$CAMERAHEIGHT
 40
0.0
  9
$STEPSPERSEC
 40
2.0
  9
$STEPSIZE
 40
6.0
  9
$3DDWFPREC
 40
2.0
  9
$PSOLWIDTH
 40
0.25
  9
$PSOLHEIGHT
 40
4.0
  9
$LOFTANG1
 40
1.5707963268
  9
$LOFTANG2
 40
1.5707963268
  9
$LOFTMAG1
 40
0.0
  9
$LOFTMAG2
 40
0.0
  9
$LOFTPARAM
 70
     7
  9
$LOFTNORMALS
280
     1
  9
$LATITUDE
 40
37.795
  9
$LONGITUDE
 40
-122.394
  9
$NORTHDIRECTION
 40
0.0
  9
$TIMEZONE
 70
 -8000
  9
$LIGHTGLYPHDISPLAY
280
     1
  9
$TILEMODELIGHTSYNCH
280
     1
  9
$CMATERIAL
347
44
  9
$SOLIDHIST
280
     0
  9
$SHOWHIST
280
     1
  9
$DWFFRAME
280
     2
  9
$DGNFRAME
280
     2
  9
$REALWORLDSCALE
290
     1
  9
$INTERFERECOLOR
 62
   256
  9
$CSHADOW
280
     0
  9
$SHADOWPLANELOCATION
 40
0.0
  0
ENDSEC
  0
SECTION
  2
CLASSES
  0
CLASS
  1
ACDBDICTIONARYWDFLT
  2
AcDbDictionaryWithDefault
  3
ObjectDBX Classes
 90
        0
 91
        4
280
     0
281
     0
  0
CLASS
  1
VISUALSTYLE
  2
AcDbVisualStyle
  3
ObjectDBX Classes
 90
     4095
 91
        4
280
     0
281
     0
  0
CLASS
  1
MATERIAL
  2
AcDbMaterial
  3
ObjectDBX Classes
 90
     1153
 91
        4
280
     0
281
     0
  0
CLASS
  1
SCALE
  2
AcDbScale
  3
ObjectDBX Classes
 90
     1153
 91
        4
280
     0
281
     0
  0
CLASS
  1
TABLESTYLE
  2
AcDbTableStyle
  3
ObjectDBX Classes
 90
     4095
 91
        4
280
     0
281
     0
  0
CLASS
  1
MLEADERSTYLE
  2
AcDbMLeaderStyle
  3
ACDB_MLEADERSTYLE_CLASS
 90
     4095
 91
        4
280
     0
281
     0
  0
CLASS
  1
SUN
  2
AcDbSun
  3
SCENEOE
 90
     1153
 91
        4
280
     0
281
     0
  0
CLASS
  1
DICTIONARYVAR
  2
AcDbDictionaryVar
  3
ObjectDBX Classes
 90
        0
 91
        4
280
     0
281
     0
  0
CLASS
  1
CELLSTYLEMAP
  2
AcDbCellStyleMap
  3
ObjectDBX Classes
 90
     1152
 91
        4
280
     0
281
     0
  0
ENDSEC
  0
SECTION
  2
TABLES
  0
TABLE
  2
VPORT
  5
8
330
0
100
AcDbSymbolTable
 70
     1
  0
VPORT
  5
29
330
8
100
AcDbSymbolTableRecord
100
AcDbViewportTableRecord
  2
*Active
 70
     0
 10
0.0
 20
0.0
 11
1.0
 21
1.0
 12
16.0
 22
11.0
 13
0.0
 23
0.0
 14
0.5
 24
0.5
 15
0.5
 25
0.5
 16
0.0
 26
0.0
 36
1.0
 17
0.0
 27
0.0
 37
0.0
 40
22.0
 41
1.4545454545
 42
50.0
 43
0.0
 44
0.0
 50
0.0
 51
0.0
 71
     0
 72
  2000
 73
     1
 74
     3
 75
     0
 76
     0
 77
     0
 78
     0
281
     0
 65
     1
110
0.0
120
0.0
130
0.0
111
1.0
121
0.0
131
0.0
112
0.0
122
1.0
132
0.0
 79
     0
146
0.0
348
2F
 60
     3
 61
     5
292
     1
282
     1
141
0.0
142
0.0
 63
   250
361
6D
  0
ENDTAB
  0
TABLE
  2
LTYPE
  5
5
330
0
100
AcDbSymbolTable
 70
     6
  0
LTYPE
  5
14
330
5
100
AcDbSymbolTableRecord
100
AcDbLinetypeTableRecord
  2
ByBlock
 70
     0
  3

 72
    65
 73
     0
 40
0.0
  0
LTYPE
  5
15
330
5
100
AcDbSymbolTableRecord
100
AcDbLinetypeTableRecord
  2
ByLayer
 70
     0
  3

 72
    65
 73
     0
 40
0.0
  0
LTYPE
  5
16
330
5
100
AcDbSymbolTableRecord
100
AcDbLinetypeTableRecord
  2
Continuous
 70
     0
  3
Solid line
 72
    65
 73
     0
 40
0.0
  0
LTYPE
  5
6E
330
5
100
AcDbSymbolTableRecord
100
AcDbLinetypeTableRecord
  2
HIDDEN
 70
     0
  3
Hidden __ __ __ __ __ __ __ __ __ __ __ __ __ __
 72
    65
 73
     2
 40
0.075
 49
0.05
 74
     0
 49
-0.025
 74
     0
  0
LTYPE
  5
6F
330
5
100
AcDbSymbolTableRecord
100
AcDbLinetypeTableRecord
  2
PHANTOM
 70
     0
  3
Phantom ______  __  __  ______  __  __  ______
 72
    65
 73
     6
 40
0.5
 49
0.25
 74
     0
 49
-0.05
 74
     0
 49
0.05
 74
     0
 49
-0.05
 74
     0
 49
0.05
 74
     0
 49
-0.05
 74
     0
  0
LTYPE
  5
70
330
5
100
AcDbSymbolTableRecord
100
AcDbLinetypeTableRecord
  2
CENTER
 70
     0
  3
Center ____ _ ____ _ ____ _ ____ _ ____ _ ____
 72
    65
 73
     4
 40
0.4
 49
0.25
 74
     0
 49
-0.05
 74
     0
 49
0.05
 74
     0
 49
-0.05
 74
     0
  0
LTYPE
  5
71
330
5
100
AcDbSymbolTableRecord
100
AcDbLinetypeTableRecord
  2
CENTERX2
 70
     0
  3
Center (2x) ________  __  ________  __  _____
 72
    65
 73
     4
 40
0.8
 49
0.5
 74
     0
 49
-0.1
 74
     0
 49
0.1
 74
     0
 49
-0.1
 74
     0
  0
LTYPE
  5
72
330
5
100
AcDbSymbolTableRecord
100
AcDbLinetypeTableRecord
  2
DOT2
 70
     0
  3
Dot (.5x) ........................................
 72
    65
 73
     2
 40
0.025
 49
0.0
 74
     0
 49
-0.025
 74
     0
  0
ENDTAB
  0
TABLE
  2
LAYER
  5
2
330
0
100
AcDbSymbolTable
 70
     8
  0
LAYER
  5
10
330
2
100
AcDbSymbolTableRecord
100
AcDbLayerTableRecord
  2
0
 70
     0
 62
     7
  6
Continuous
370
    -3
390
F
347
46
  0
LAYER
  5
73
330
2
100
AcDbSymbolTableRecord
100
AcDbLayerTableRecord
  2
SLD-0
 70
     0
 62
   179
  6
Continuous
370
    -3
390
F
347
46
  0
LAYER
  5
74
330
2
100
AcDbSymbolTableRecord
100
AcDbLayerTableRecord
  2
OBJECTS
 70
     0
 62
     5
  6
Continuous
370
    -3
390
F
347
46
  0
LAYER
  5
75
330
2
100
AcDbSymbolTableRecord
100
AcDbLayerTableRecord
  2
DIMS
 70
     0
 62
     1
  6
Continuous
370
    -3
390
F
347
46
  0
LAYER
  5
76
330
2
100
AcDbSymbolTableRecord
100
AcDbLayerTableRecord
  2
NOTES
 70
     0
 62
     7
  6
Continuous
370
    -3
390
F
347
46
  0
LAYER
  5
77
330
2
100
AcDbSymbolTableRecord
100
AcDbLayerTableRecord
  2
IMAGES
 70
     0
 62
     7
  6
Continuous
370
    -3
390
F
347
46
  0
LAYER
  5
78
330
2
100
AcDbSymbolTableRecord
100
AcDbLayerTableRecord
  2
CENTERLINES
 70
     0
 62
     7
  6
HIDDEN
370
    -3
390
F
347
46
  0
LAYER
  5
79
330
2
100
AcDbSymbolTableRecord
100
AcDbLayerTableRecord
  2
BLOCKS
 70
     0
 62
    17
  6
Continuous
370
    -3
390
F
347
46
  0
ENDTAB
  0
TABLE
  2
STYLE
  5
3
330
0
100
AcDbSymbolTable
 70
     2
  0
STYLE
  5
11
330
3
100
AcDbSymbolTableRecord
100
AcDbTextStyleTableRecord
  2
Standard
 70
     0
 40
0.0
 41
1.0
 50
0.0
 71
     0
 42
0.2777777778
  3
txt
  4

  0
STYLE
  5
BC
330
3
100
AcDbSymbolTableRecord
100
AcDbTextStyleTableRecord
  2
SLDTEXTSTYLE0
 70
     0
 40
0.0
 41
0.605
 50
0.0
 71
     0
 42
0.2777777778
  3
TXT
  4

  0
ENDTAB
  0
TABLE
  2
VIEW
  5
6
330
0
100
AcDbSymbolTable
 70
     0
  0
ENDTAB
  0
TABLE
  2
UCS
  5
7
330
0
100
AcDbSymbolTable
 70
     0
  0
ENDTAB
  0
TABLE
  2
APPID
  5
9
330
0
100
AcDbSymbolTable
 70
     2
  0
APPID
  5
12
330
9
100
AcDbSymbolTableRecord
100
AcDbRegAppTableRecord
  2
ACAD
 70
     0
  0
APPID
  5
184
330
9
100
AcDbSymbolTableRecord
100
AcDbRegAppTableRecord
  2
ACAD_MLEADERVER
 70
     0
  0
ENDTAB
  0
TABLE
  2
DIMSTYLE
  5
A
330
0
100
AcDbSymbolTable
 70
     5
100
AcDbDimStyleTable
  0
DIMSTYLE
105
27
330
A
100
AcDbSymbolTableRecord
100
AcDbDimStyleTableRecord
  2
Standard
 70
     0
178
     0
340
11
  0
DIMSTYLE
105
DA
102
{ACAD_REACTORS
330
D9
330
EB
102
}
330
A
100
AcDbSymbolTableRecord
100
AcDbDimStyleTableRecord
  2
SLDDIMSTYLE0
 70
     0
 41
0.262898763
 44
0.0
 45
0.000000001
 78
    12
 79
     3
140
0.262898763
147
0.0657246908
148
0.000000001
170
     1
173
     1
178
     0
271
     3
272
     3
276
     2
277
     5
284
    12
340
BC
  0
DIMSTYLE
105
FD
102
{ACAD_REACTORS
330
FC
330
112
102
}
330
A
100
AcDbSymbolTableRecord
100
AcDbDimStyleTableRecord
  2
SLDDIMSTYLE1
 70
     0
 41
0.262898763
 44
0.0
 45
0.000000001
 78
    12
 79
     3
140
0.262898763
147
0.0657246908
148
0.000000001
170
     1
173
     1
178
     0
271
     6
272
     3
276
     2
277
     5
284
    12
340
BC
  0
DIMSTYLE
105
128
102
{ACAD_REACTORS
330
127
102
}
330
A
100
AcDbSymbolTableRecord
100
AcDbDimStyleTableRecord
  2
SLDDIMSTYLE2
 70
     0
 41
0.262898763
 44
0.0
 45
0.000000001
 78
    12
 79
     3
140
0.262898763
141
0.0
147
0.0657246908
148
0.000000001
170
     1
173
     1
178
     0
271
     3
272
     3
276
     2
277
     5
279
     1
284
    12
340
BC
  0
DIMSTYLE
105
158
330
A
100
AcDbSymbolTableRecord
100
AcDbDimStyleTableRecord
  2
SLDDIMSTYLE3
 70
     0
 41
0.262898763
 44
0.0
 45
0.000000001
146
0.262898763
147
0.0
173
     1
178
     0
271
     0
272
     0
276
     2
277
     5
340
11
  0
ENDTAB
  0
TABLE
  2
BLOCK_RECORD
  5
1
330
0
100
AcDbSymbolTable
 70
    15
  0
BLOCK_RECORD
  5
1F
330
1
100
AcDbSymbolTableRecord
100
AcDbBlockTableRecord
  2
*Model_Space
340
22
 70
     0
280
     1
281
     0
  0
BLOCK_RECORD
  5
1B
330
1
100
AcDbSymbolTableRecord
100
AcDbBlockTableRecord
  2
*Paper_Space
340
1E
 70
     0
280
     1
281
     0
  0
BLOCK_RECORD
  5
23
330
1
100
AcDbSymbolTableRecord
100
AcDbBlockTableRecord
  2
*Paper_Space0
340
26
 70
     0
280
     1
281
     0
  0
BLOCK_RECORD
  5
7A
330
1
100
AcDbSymbolTableRecord
100
AcDbBlockTableRecord
  2
REVEAL - .1875
340
0
102
{BLKREFS
331
D8
102
}
 70
     0
280
     1
281
     0
  0
BLOCK_RECORD
  5
AC
330
1
100
AcDbSymbolTableRecord
100
AcDbBlockTableRecord
  2
SW_BLOCK_DIMENSION_0
340
0
102
{BLKREFS
331
C3
102
}
 70
     0
280
     1
281
     0
  0
BLOCK_RECORD
  5
DB
330
1
100
AcDbSymbolTableRecord
100
AcDbBlockTableRecord
  2
_D
340
0
 70
     0
280
     1
281
     0
  0
BLOCK_RECORD
  5
EC
330
1
100
AcDbSymbolTableRecord
100
AcDbBlockTableRecord
  2
_D_1
340
0
 70
     0
280
     1
281
     0
  0
BLOCK_RECORD
  5
FE
330
1
100
AcDbSymbolTableRecord
100
AcDbBlockTableRecord
  2
_D_2
340
0
 70
     0
280
     1
281
     0
  0
BLOCK_RECORD
  5
113
330
1
100
AcDbSymbolTableRecord
100
AcDbBlockTableRecord
  2
_D_3
340
0
 70
     0
280
     1
281
     0
  0
BLOCK_RECORD
  5
129
330
1
100
AcDbSymbolTableRecord
100
AcDbBlockTableRecord
  2
_D_4
340
0
 70
     0
280
     1
281
     0
  0
BLOCK_RECORD
  5
13B
330
1
100
AcDbSymbolTableRecord
100
AcDbBlockTableRecord
  2
SW_NOTE_0
340
0
102
{BLKREFS
331
141
102
}
 70
     0
280
     1
281
     0
  0
BLOCK_RECORD
  5
142
330
1
100
AcDbSymbolTableRecord
100
AcDbBlockTableRecord
  2
SW_NOTE_1
340
0
102
{BLKREFS
331
14F
102
}
 70
     0
280
     1
281
     0
  0
BLOCK_RECORD
  5
150
330
1
100
AcDbSymbolTableRecord
100
AcDbBlockTableRecord
  2
SW_NOTE_2
340
0
102
{BLKREFS
331
157
102
}
 70
     0
280
     1
281
     0
  0
BLOCK_RECORD
  5
15B
330
1
100
AcDbSymbolTableRecord
100
AcDbBlockTableRecord
  2
SW_NOTE_3
340
0
102
{BLKREFS
331
160
102
}
 70
     0
280
     1
281
     0
  0
BLOCK_RECORD
  5
163
330
1
100
AcDbSymbolTableRecord
100
AcDbBlockTableRecord
  2
SW_NOTE_4
340
0
102
{BLKREFS
331
16C
102
}
 70
     0
280
     1
281
     0
  0
BLOCK_RECORD
  5
16E
330
1
100
AcDbSymbolTableRecord
100
AcDbBlockTableRecord
  2
SW_NOTE_5
340
0
102
{BLKREFS
331
177
102
}
 70
     0
280
     1
281
     0
  0
BLOCK_RECORD
  5
179
330
1
100
AcDbSymbolTableRecord
100
AcDbBlockTableRecord
  2
SW_NOTE_6
340
0
102
{BLKREFS
331
17E
102
}
 70
     0
280
     1
281
     0
  0
ENDTAB
  0
ENDSEC
  0
SECTION
  2
BLOCKS
  0
BLOCK
  5
20
330
1F
100
AcDbEntity
  8
0
100
AcDbBlockBegin
  2
*Model_Space
 70
     0
 10
0.0
 20
0.0
 30
0.0
  3
*Model_Space
  1

  0
ENDBLK
  5
21
330
1F
100
AcDbEntity
  8
0
100
AcDbBlockEnd
  0
BLOCK
  5
1C
330
1B
100
AcDbEntity
 67
     1
  8
0
100
AcDbBlockBegin
  2
*Paper_Space
 70
     0
 10
0.0
 20
0.0
 30
0.0
  3
*Paper_Space
  1

  0
ENDBLK
  5
1D
330
1B
100
AcDbEntity
 67
     1
  8
0
100
AcDbBlockEnd
  0
BLOCK
  5
24
330
23
100
AcDbEntity
  8
0
100
AcDbBlockBegin
  2
*Paper_Space0
 70
     0
 10
0.0
 20
0.0
 30
0.0
  3
*Paper_Space0
  1

  0
ENDBLK
  5
25
330
23
100
AcDbEntity
  8
0
100
AcDbBlockEnd
  0
BLOCK
  5
7B
330
7A
100
AcDbEntity
  8
0
100
AcDbBlockBegin
  2
REVEAL - .1875
 70
     0
 10
0.0
 20
0.0
 30
0.0
  3
REVEAL - .1875
  1

  0
ARC
  5
7D
330
7A
100
AcDbEntity
  8
BLOCKS
100
AcDbCircle
 10
2.9511848064
 20
5.1114924936
 30
0.0
 40
0.2333367804802284
100
AcDbArc
 50
0.0
 51
90.0
  0
ARC
  5
7E
330
7A
100
AcDbEntity
  8
BLOCKS
100
AcDbCircle
 10
2.9303632624
 20
5.7595684587
 30
0.0
 40
0.004158324503885
100
AcDbArc
 50
0.0
 51
90.0
  0
ARC
  5
7F
330
7A
100
AcDbEntity
  8
BLOCKS
100
AcDbCircle
 10
2.1367934076
 20
5.215949112
 30
0.0
 40
0.0881257319589163
100
AcDbArc
 50
200.9822712638
 51
339.0177287362
  0
ARC
  5
80
330
7A
100
AcDbEntity
  8
BLOCKS
100
AcDbCircle
 10
2.9511848064
 20
5.1114924936
 30
0.0
 40
0.1874525384626429
100
AcDbArc
 50
0.0
 51
90.0
  0
LINE
  5
81
330
7A
100
AcDbEntity
  8
BLOCKS
100
AcDbLine
 10
2.9303632624
 20
5.7637267832
 30
0.0
 11
1.3406907915
 21
5.7637267832
 31
0.0
  0
LINE
  5
82
330
7A
100
AcDbEntity
  8
BLOCKS
100
AcDbLine
 10
1.3703744452
 20
5.3685431023
 30
0.0
 11
2.9345215869
 21
5.3673596021
 31
0.0
  0
LINE
  5
83
330
7A
100
AcDbEntity
  8
BLOCKS
100
AcDbLine
 10
2.3902843231
 20
5.3448292741
 30
0.0
 11
2.9511848064
 21
5.3448292741
 31
0.0
  0
LINE
  5
84
330
7A
100
AcDbEntity
  8
BLOCKS
100
AcDbLine
 10
3.1845215869
 20
5.1114924936
 30
0.0
 11
3.1845215869
 21
4.7247769068
 31
0.0
  0
LINE
  5
85
330
7A
100
AcDbEntity
  8
BLOCKS
100
AcDbLine
 10
3.1845215869
 20
4.7247769068
 30
0.0
 11
3.1386373449
 21
4.7247769068
 31
0.0
  0
LINE
  5
86
330
7A
100
AcDbEntity
  8
BLOCKS
100
AcDbLine
 10
3.1386373449
 20
4.7247769068
 30
0.0
 11
3.1386373449
 21
5.1114924936
 31
0.0
  0
LINE
  5
87
330
7A
100
AcDbEntity
  8
BLOCKS
100
AcDbLine
 10
2.9511848064
 20
5.2989450321
 30
0.0
 11
2.3902843231
 21
5.2989450321
 31
0.0
  0
LINE
  5
88
330
7A
100
AcDbEntity
  8
BLOCKS
100
AcDbLine
 10
2.3902843231
 20
5.2989450321
 30
0.0
 11
2.3902843231
 21
5.3448292741
 31
0.0
  0
LINE
  5
89
330
7A
100
AcDbEntity
  8
BLOCKS
100
AcDbLine
 10
2.7674304371
 20
5.2463921658
 30
0.0
 11
2.820128549
 21
5.2970193062
 31
0.0
  0
LINE
  5
8A
330
7A
100
AcDbEntity
  8
BLOCKS
100
AcDbLine
 10
2.820128549
 20
5.2970193062
 30
0.0
 11
2.8627516018
 21
5.2526526999
 31
0.0
  0
LINE
  5
8B
330
7A
100
AcDbEntity
  8
BLOCKS
100
AcDbLine
 10
2.8627516018
 20
5.2526526999
 30
0.0
 11
2.7938159995
 21
5.1864261825
 31
0.0
  0
LINE
  5
8C
330
7A
100
AcDbEntity
  8
BLOCKS
100
AcDbLine
 10
1.526323587
 20
5.3138053697
 30
0.0
 11
1.4738121702
 21
5.3684648369
 31
0.0
  0
LINE
  5
8D
330
7A
100
AcDbEntity
  8
BLOCKS
100
AcDbLine
 10
1.4738121702
 20
5.3684648369
 30
0.0
 11
1.4313967078
 21
5.3277162504
 31
0.0
  0
LINE
  5
8E
330
7A
100
AcDbEntity
  8
BLOCKS
100
AcDbLine
 10
1.4313967078
 20
5.3277162504
 30
0.0
 11
1.4934793786
 21
5.2630940043
 31
0.0
  0
LINE
  5
8F
330
7A
100
AcDbEntity
  8
BLOCKS
100
AcDbLine
 10
1.526323587
 20
5.3138053697
 30
0.0
 11
2.7674304371
 21
5.2463921658
 31
0.0
  0
LINE
  5
90
330
7A
100
AcDbEntity
  8
BLOCKS
100
AcDbLine
 10
2.7938159995
 20
5.1864261825
 30
0.0
 11
1.4934793786
 21
5.2630940043
 31
0.0
  0
LINE
  5
91
330
7A
100
AcDbEntity
  8
BLOCKS
100
AcDbLine
 10
2.2165595791
 20
5.2763138196
 30
0.0
 11
2.2165595791
 21
5.2204612098
 31
0.0
  0
LINE
  5
92
330
7A
100
AcDbEntity
  8
BLOCKS
100
AcDbLine
 10
2.0619462108
 20
5.2847119543
 30
0.0
 11
2.0619462108
 21
5.229577211
 31
0.0
  0
LINE
  5
93
330
7A
100
AcDbEntity
  8
BLOCKS
100
AcDbLine
 10
2.054511181
 20
5.1843931328
 30
0.0
 11
2.2190756342
 21
5.1843931328
 31
0.0
  0
LINE
  5
94
330
7A
100
AcDbEntity
  8
BLOCKS
100
AcDbLine
 10
2.0992828009
 20
5.5746928693
 30
0.0
 11
2.0992828009
 21
5.1843931328
 31
0.0
  0
LINE
  5
95
330
7A
100
AcDbEntity
  8
BLOCKS
100
AcDbLine
 10
2.1761746727
 20
5.5746928693
 30
0.0
 11
2.1761746727
 21
5.1843931328
 31
0.0
  0
LINE
  5
96
330
7A
100
AcDbEntity
  8
BLOCKS
100
AcDbLine
 10
2.0365077226
 20
5.2284182001
 30
0.0
 11
2.2489143016
 21
5.2158947124
 31
0.0
  0
LINE
  5
97
330
7A
100
AcDbEntity
  8
BLOCKS
100
AcDbLine
 10
2.0992828009
 20
5.5746928693
 30
0.0
 11
2.1372477807
 21
5.6298822503
 31
0.0
  0
LINE
  5
98
330
7A
100
AcDbEntity
  8
BLOCKS
100
AcDbLine
 10
2.1372477807
 20
5.6298822503
 30
0.0
 11
2.1761746727
 21
5.5746928693
 31
0.0
  0
LINE
  5
99
330
7A
100
AcDbEntity
  8
BLOCKS
100
AcDbLine
 10
2.2470201865
 20
5.1837692751
 30
0.0
 11
2.0346136074
 21
5.1962927628
 31
0.0
  0
LINE
  5
9A
330
7A
100
AcDbEntity
  8
BLOCKS
100
AcDbLine
 10
2.2489143016
 20
5.2158947124
 30
0.0
 11
2.2470201865
 21
5.1837692751
 31
0.0
  0
LINE
  5
9B
330
7A
100
AcDbEntity
  8
BLOCKS
100
AcDbLine
 10
2.0365077226
 20
5.2284182001
 30
0.0
 11
2.0346136074
 21
5.1962927628
 31
0.0
  0
LINE
  5
9C
330
7A
100
AcDbEntity
  8
BLOCKS
100
AcDbLine
 10
2.2025451048
 20
5.3679134466
 30
0.0
 11
2.2025451048
 21
5.648371427
 31
0.0
  0
LINE
  5
9D
330
7A
100
AcDbEntity
  8
BLOCKS
100
AcDbLine
 10
2.2025451048
 20
5.648371427
 30
0.0
 11
2.0760081491
 21
5.648371427
 31
0.0
  0
LINE
  5
9E
330
7A
100
AcDbEntity
  8
BLOCKS
100
AcDbLine
 10
2.0760081491
 20
5.648371427
 30
0.0
 11
2.0760081491
 21
5.3680091898
 31
0.0
  0
LINE
  5
9F
330
7A
100
AcDbEntity
  8
BLOCKS
  6
Continuous
100
AcDbLine
 10
2.9345215869
 20
5.3673596021
 30
0.0
 11
2.9345215869
 21
5.7595684587
 31
0.0
  0
LINE
  5
A0
330
7A
100
AcDbEntity
  8
BLOCKS
100
AcDbLine
 10
2.3902843231
 20
5.3677713951
 30
0.0
 11
2.3902843231
 21
5.3218871531
 31
0.0
  0
LINE
  5
A1
330
7A
100
AcDbEntity
  8
BLOCKS
100
AcDbLine
 10
2.9345215869
 20
5.3673596021
 30
0.0
 11
2.9359233523
 21
5.3448292741
 31
0.0
  0
SPLINE
  5
A2
330
7A
100
AcDbEntity
  8
BLOCKS
100
AcDbSpline
210
0.0
220
0.0
230
1.0
 70
     8
 71
     3
 72
     9
 73
     5
 74
     0
 42
0.000000001
 43
0.00000001
 40
0.0
 40
0.0
 40
0.0
 40
0.0
 40
0.5928291688347104
 40
1.0
 40
1.0
 40
1.0
 40
1.0
 10
1.370374445150069
 20
5.368543102291385
 30
0.0
 10
1.325798792936784
 20
5.454377543464344
 30
0.0
 10
1.405281755260288
 20
5.573601057400976
 30
0.0
 10
1.387168933810763
 20
5.727849302633309
 30
0.0
 10
1.340690791500193
 20
5.763726783214978
 30
0.0
  0
HATCH
  5
A3
330
7A
100
AcDbEntity
  8
BLOCKS
100
AcDbHatch
 10
0.0
 20
0.0
 30
0.0
210
0.0
220
0.0
230
1.0
  2
ANSI36
 70
     0
 71
     0
 91
        1
 92
        0
 93
       10
 72
     4
 94
        3
 73
     1
 74
     0
 95
        9
 96
        5
 40
0.0
 40
0.0
 40
0.0
 40
0.0
 40
0.4071708311652896
 40
1.0
 40
1.0
 40
1.0
 40
1.0
 10
1.340690791500193
 20
5.763726783214978
 42
1.0
 10
1.387168933810763
 20
5.727849302633309
 42
1.0
 10
1.405281755260288
 20
5.573601057400976
 42
1.0
 10
1.325798792936784
 20
5.454377543464344
 42
1.0
 10
1.370374445150069
 20
5.368543102291385
 42
1.0
 72
     1
 10
1.370374445150069
 20
5.368543102291384
 11
2.076008149056414
 21
5.368009189837481
 72
     1
 10
2.076008149056414
 20
5.368009189837481
 11
2.076008149056413
 21
5.648371427031464
 72
     1
 10
2.076008149056413
 20
5.648371427031464
 11
2.202545104769204
 21
5.648371427031464
 72
     1
 10
2.202545104769204
 20
5.648371427031464
 11
2.202545104769205
 21
5.367913446598233
 72
     1
 10
2.202545104769205
 20
5.367913446598233
 11
2.390284323093383
 21
5.367771395125643
 72
     1
 10
2.390284323093383
 20
5.367771395125643
 11
2.93452158689851
 21
5.367359602078604
 72
     1
 10
2.93452158689851
 20
5.367359602078604
 11
2.93452158689851
 21
5.759568458711094
 72
     2
 10
2.930363262394625
 20
5.759568458711094
 40
0.0041583245038848
 50
0.0
 51
90.0
 73
     1
 72
     1
 10
2.930363262394625
 20
5.763726783214978
 11
1.340690791500193
 21
5.763726783214978
 97
        0
 75
     0
 76
     1
 52
0.0
 41
0.5
 77
     0
 78
     1
 53
45.0
 43
0.0
 44
0.0
 45
0.0331456303681194
 46
0.1215339780164378
 79
     4
 49
0.15625
 49
-0.03125
 49
0.0
 49
-0.03125
 98
        1
 10
0.0
 20
0.0
  0
HATCH
  5
A4
330
7A
100
AcDbEntity
  8
BLOCKS
 62
    16
100
AcDbHatch
 10
0.0
 20
0.0
 30
0.0
210
0.0
220
0.0
230
1.0
  2
ANSI32
 70
     0
 71
     0
 91
        1
 92
        0
 93
        5
 72
     1
 10
2.176174672711108
 20
5.574692869312092
 11
2.137247780721542
 21
5.629882250324481
 72
     1
 10
2.137247780721542
 20
5.629882250324481
 11
2.099282800908564
 21
5.574692869312092
 72
     1
 10
2.099282800908564
 20
5.574692869312092
 11
2.099282800908564
 21
5.367991579246582
 72
     1
 10
2.099282800908564
 20
5.367991579246582
 11
2.176174672711108
 21
5.367933399588026
 72
     1
 10
2.176174672711108
 20
5.367933399588026
 11
2.176174672711108
 21
5.574692869312092
 97
        0
 75
     0
 76
     1
 52
0.0
 41
0.1666666667
 77
     0
 78
     2
 53
45.0
 43
0.0
 44
0.0
 45
-0.0441941738241592
 46
0.0441941738241592
 79
     0
 53
45.0
 43
0.0294627825
 44
0.0
 45
-0.0441941738241592
 46
0.0441941738241592
 79
     0
 98
        1
 10
0.0
 20
0.0
  0
HATCH
  5
A5
330
7A
100
AcDbEntity
  8
BLOCKS
 62
    16
100
AcDbHatch
 10
0.0
 20
0.0
 30
0.0
210
0.0
220
0.0
230
1.0
  2
ANSI32
 70
     0
 71
     0
 91
        1
 92
        0
 93
        4
 72
     1
 10
2.176174672711108
 20
5.278507406670369
 11
2.176174672711108
 21
5.367933399588026
 72
     1
 10
2.176174672711108
 20
5.367933399588026
 11
2.099282800908564
 21
5.367991579246582
 72
     1
 10
2.099282800908564
 20
5.367991579246582
 11
2.099282800908564
 21
5.282683942664692
 72
     1
 10
2.099282800908564
 20
5.282683942664692
 11
2.176174672711108
 21
5.278507406670369
 97
        0
 75
     0
 76
     1
 52
0.0
 41
0.1666666667
 77
     0
 78
     2
 53
45.0
 43
0.0
 44
0.0
 45
-0.0441941738241592
 46
0.0441941738241592
 79
     0
 53
45.0
 43
0.0294627825
 44
0.0
 45
-0.0441941738241592
 46
0.0441941738241592
 79
     0
 98
        1
 10
0.0
 20
0.0
  0
HATCH
  5
A6
330
7A
100
AcDbEntity
  8
BLOCKS
 62
    16
100
AcDbHatch
 10
0.0
 20
0.0
 30
0.0
210
0.0
220
0.0
230
1.0
  2
ANSI32
 70
     0
 71
     0
 91
        1
 92
        0
 93
        4
 72
     1
 10
2.176174672711108
 20
5.222842303094292
 11
2.176174672711108
 21
5.278507406670369
 72
     1
 10
2.176174672711108
 20
5.278507406670369
 11
2.099282800908564
 21
5.282683942664692
 72
     1
 10
2.099282800908564
 20
5.282683942664692
 11
2.099282800908564
 21
5.227375846353497
 72
     1
 10
2.099282800908564
 20
5.227375846353497
 11
2.176174672711108
 21
5.222842303094292
 97
        0
 75
     0
 76
     1
 52
0.0
 41
0.1666666667
 77
     0
 78
     2
 53
45.0
 43
0.0
 44
0.0
 45
-0.0441941738241592
 46
0.0441941738241592
 79
     0
 53
45.0
 43
0.0294627825
 44
0.0
 45
-0.0441941738241592
 46
0.0441941738241592
 79
     0
 98
        1
 10
0.0
 20
0.0
  0
HATCH
  5
A7
330
7A
100
AcDbEntity
  8
BLOCKS
 62
    16
100
AcDbHatch
 10
0.0
 20
0.0
 30
0.0
210
0.0
220
0.0
230
1.0
  2
ANSI32
 70
     0
 71
     0
 91
        1
 92
        0
 93
        4
 72
     1
 10
2.099282800908565
 20
5.192479868445476
 11
2.176174672711109
 21
5.187946325186272
 72
     1
 10
2.176174672711109
 20
5.187946325186272
 11
2.176174672711108
 21
5.22018343949055
 72
     1
 10
2.176174672711108
 20
5.22018343949055
 11
2.099282800908564
 21
5.224716982749755
 72
     1
 10
2.099282800908564
 20
5.224716982749755
 11
2.099282800908565
 21
5.192479868445476
 97
        0
 75
     0
 76
     1
 52
0.0
 41
0.1666666667
 77
     0
 78
     2
 53
45.0
 43
0.0
 44
0.0
 45
-0.0441941738241592
 46
0.0441941738241592
 79
     0
 53
45.0
 43
0.0294627825
 44
0.0
 45
-0.0441941738241592
 46
0.0441941738241592
 79
     0
 98
        1
 10
0.0
 20
0.0
  0
HATCH
  5
A8
330
7A
100
AcDbEntity
  8
BLOCKS
 62
    16
100
AcDbHatch
 10
0.0
 20
0.0
 30
0.0
210
0.0
220
0.0
230
1.0
  2
ANSI32
 70
     0
 71
     0
 91
        1
 92
        0
 93
        4
 72
     1
 10
2.099282800908564
 20
5.224716982749755
 11
2.036507722572713
 21
5.22841820014197
 72
     1
 10
2.036507722572713
 20
5.22841820014197
 11
2.034613607416467
 21
5.196292762830298
 72
     1
 10
2.034613607416467
 20
5.196292762830298
 11
2.099282800908565
 21
5.192479868445476
 72
     1
 10
2.099282800908565
 20
5.192479868445476
 11
2.099282800908564
 21
5.224716982749755
 97
        0
 75
     0
 76
     1
 52
0.0
 41
0.1666666667
 77
     0
 78
     2
 53
45.0
 43
0.0
 44
0.0
 45
-0.0441941738241592
 46
0.0441941738241592
 79
     0
 53
45.0
 43
0.0294627825
 44
0.0
 45
-0.0441941738241592
 46
0.0441941738241592
 79
     0
 98
        1
 10
0.0
 20
0.0
  0
HATCH
  5
A9
330
7A
100
AcDbEntity
  8
BLOCKS
 62
    16
100
AcDbHatch
 10
0.0
 20
0.0
 30
0.0
210
0.0
220
0.0
230
1.0
  2
ANSI32
 70
     0
 71
     0
 91
        1
 92
        0
 93
        4
 72
     1
 10
2.247020186488702
 20
5.183769275078088
 11
2.248914301644948
 21
5.21589471238976
 72
     1
 10
2.248914301644948
 20
5.21589471238976
 11
2.176174672711108
 21
5.22018343949055
 72
     1
 10
2.176174672711108
 20
5.22018343949055
 11
2.176174672711109
 21
5.187946325186272
 72
     1
 10
2.176174672711109
 20
5.187946325186272
 11
2.247020186488702
 21
5.183769275078088
 97
        0
 75
     0
 76
     1
 52
0.0
 41
0.1666666667
 77
     0
 78
     2
 53
45.0
 43
0.0
 44
0.0
 45
-0.0441941738241592
 46
0.0441941738241592
 79
     0
 53
45.0
 43
0.0294627825
 44
0.0
 45
-0.0441941738241592
 46
0.0441941738241592
 79
     0
 98
        1
 10
0.0
 20
0.0
  0
HATCH
  5
AA
330
7A
100
AcDbEntity
  8
BLOCKS
 62
    16
100
AcDbHatch
 10
0.0
 20
0.0
 30
0.0
210
0.0
220
0.0
230
1.0
  2
ANSI32
 70
     0
 71
     0
 91
        1
 92
        0
 93
        4
 72
     1
 10
2.099282800908564
 20
5.184393132764433
 11
2.054511181022461
 21
5.184393132764433
 72
     2
 10
2.136793407592047
 20
5.215949111976717
 40
0.0881257319589163
 50
200.9822712637967
 51
339.0177287362049
 73
     1
 72
     1
 10
2.219075634161633
 20
5.184393132764433
 11
2.176174672711108
 21
5.184393132764433
 72
     1
 10
2.176174672711108
 20
5.184393132764433
 11
2.099282800908564
 21
5.184393132764433
 97
        0
 75
     0
 76
     1
 52
0.0
 41
0.1666666667
 77
     0
 78
     2
 53
45.0
 43
0.0
 44
0.0
 45
-0.0441941738241592
 46
0.0441941738241592
 79
     0
 53
45.0
 43
0.0294627825
 44
0.0
 45
-0.0441941738241592
 46
0.0441941738241592
 79
     0
 98
        1
 10
0.0
 20
0.0
  0
HATCH
  5
AB
330
7A
100
AcDbEntity
  8
BLOCKS
 62
    16
100
AcDbHatch
 10
0.0
 20
0.0
 30
0.0
210
0.0
220
0.0
230
1.0
  2
SOLID
 70
     1
 71
     0
 91
        1
 92
        0
 93
        4
 72
     1
 10
2.935923352266946
 20
5.344829274116848
 11
2.997021586898509
 21
5.367312311921993
 72
     1
 10
2.997021586898509
 20
5.367312311921993
 11
2.390284323093382
 21
5.367771395125644
 72
     1
 10
2.390284323093382
 20
5.367771395125644
 11
2.390284323093382
 21
5.344829274116848
 72
     1
 10
2.390284323093382
 20
5.344829274116848
 11
2.935923352266946
 21
5.344829274116848
 97
        0
 75
     0
 76
     1
 98
        1
 10
0.0
 20
0.0
  0
INSERT
  5
C3
330
7A
100
AcDbEntity
  8
BLOCKS
100
AcDbBlockReference
  2
SW_BLOCK_DIMENSION_0
 10
2.3042416429
 20
6.0830362674
 30
0.0
  0
ENDBLK
  5
7C
330
7A
100
AcDbEntity
  8
0
100
AcDbBlockEnd
  0
BLOCK
  5
AD
330
AC
100
AcDbEntity
  8
0
100
AcDbBlockBegin
  2
SW_BLOCK_DIMENSION_0
 70
     0
 10
0.0
 20
0.0
 30
0.0
  3
SW_BLOCK_DIMENSION_0
  1

  0
SOLID
  5
AF
330
AC
100
AcDbEntity
  8
BLOCKS
 62
     0
100
AcDbTrace
 10
0.880279944
 20
-0.0313006311
 30
0.0
 11
0.9813948528
 21
-0.0468567709
 31
0.0
 12
0.9813948528
 22
-0.0157444913
 32
0.0
 13
0.9813948528
 23
-0.0157444913
 33
0.0
  0
SOLID
  5
B0
330
AC
100
AcDbEntity
  8
BLOCKS
 62
     0
100
AcDbTrace
 10
0.630279944
 20
-0.0313006311
 30
0.0
 11
0.5291650351
 21
-0.0157444913
 31
0.0
 12
0.5291650351
 22
-0.0468567709
 32
0.0
 13
0.5291650351
 23
-0.0468567709
 33
0.0
  0
LINE
  5
B1
330
AC
100
AcDbEntity
  8
BLOCKS
 62
     0
100
AcDbLine
 10
0.1650270144
 20
0.0798201425
 30
0.0
 11
0.2717013988
 21
0.0798201425
 31
0.0
  0
LINE
  5
B2
330
AC
100
AcDbEntity
  8
BLOCKS
 62
     0
100
AcDbLine
 10
0.1080246921
 20
-0.0940224566
 30
0.0
 11
0.0733024703
 21
-0.0940224566
 31
0.0
  0
LINE
  5
B3
330
AC
100
AcDbEntity
  8
BLOCKS
 62
     0
100
AcDbLine
 10
0.0733024703
 20
-0.0940224566
 30
0.0
 11
0.0733024703
 21
-0.249307956
 31
0.0
  0
LINE
  5
B4
330
AC
100
AcDbEntity
  8
BLOCKS
 62
     0
100
AcDbLine
 10
0.0733024703
 20
-0.249307956
 30
0.0
 11
0.1080246921
 21
-0.249307956
 31
0.0
  0
LINE
  5
B5
330
AC
100
AcDbEntity
  8
BLOCKS
 62
     0
100
AcDbLine
 10
0.3780864406
 20
-0.0940224566
 30
0.0
 11
0.4128086624
 21
-0.0940224566
 31
0.0
  0
LINE
  5
B6
330
AC
100
AcDbEntity
  8
BLOCKS
 62
     0
100
AcDbLine
 10
0.4128086624
 20
-0.0940224566
 30
0.0
 11
0.4128086624
 21
-0.249307956
 31
0.0
  0
LINE
  5
B7
330
AC
100
AcDbEntity
  8
BLOCKS
 62
     0
100
AcDbLine
 10
0.4128086624
 20
-0.249307956
 30
0.0
 11
0.3780864406
 21
-0.249307956
 31
0.0
  0
LINE
  5
B8
330
AC
100
AcDbEntity
  8
BLOCKS
 62
     0
100
AcDbLine
 10
0.880279944
 20
-0.9215437738
 30
0.0
 11
0.880279944
 21
0.0936993689
 31
0.0
  0
LINE
  5
B9
330
AC
100
AcDbEntity
  8
BLOCKS
 62
     0
100
AcDbLine
 10
0.630279944
 20
-0.2734678087
 30
0.0
 11
0.630279944
 21
0.0936993689
 31
0.0
  0
LINE
  5
BA
330
AC
100
AcDbEntity
  8
BLOCKS
 62
     0
100
AcDbLine
 10
0.880279944
 20
-0.0313006311
 30
0.0
 11
1.0747316917
 21
-0.0313006311
 31
0.0
  0
LINE
  5
BB
330
AC
100
AcDbEntity
  8
BLOCKS
 62
     0
100
AcDbLine
 10
0.630279944
 20
-0.0313006311
 30
0.0
 11
0.4865651395
 21
-0.0313006311
 31
0.0
  0
MTEXT
  5
BD
330
AC
100
AcDbEntity
  8
BLOCKS
 62
     0
100
AcDbMText
 10
0.0390625
 20
0.1342778896
 30
0.0
 40
0.1041666667
 41
0.0
 46
0.0
 71
     1
 72
     1
  1

  7
SLDTEXTSTYLE0
 73
     1
 44
1.0
  0
MTEXT
  5
BE
330
AC
100
AcDbEntity
  8
BLOCKS
 62
     0
100
AcDbMText
 10
0.1797839581
 20
0.2052438631
 30
0.0
 40
0.1041666667
 41
0.0
 46
0.0
 71
     1
 72
     1
  1
1
  7
SLDTEXTSTYLE0
 73
     1
 44
1.0
  0
MTEXT
  5
BF
330
AC
100
AcDbEntity
  8
BLOCKS
 62
     0
100
AcDbMText
 10
0.1797839581
 20
0.0634035871
 30
0.0
 40
0.1041666667
 41
0.0
 46
0.0
 71
     1
 72
     1
  1
4
  7
SLDTEXTSTYLE0
 73
     1
 44
1.0
  0
MTEXT
  5
C0
330
AC
100
AcDbEntity
  8
BLOCKS
 62
     0
100
AcDbMText
 10
0.2864583425
 20
0.1342778896
 30
0.0
 40
0.1041666667
 41
0.0
 46
0.0
 71
     1
 72
     1
  1
"
  7
SLDTEXTSTYLE0
 73
     1
 44
1.0
  0
MTEXT
  5
C1
330
AC
100
AcDbEntity
  8
BLOCKS
 62
     0
100
AcDbMText
 10
0.1080246921
 20
-0.1150300596
 30
0.0
 40
0.1041666667
 41
0.0
 46
0.0
 71
     1
 72
     1
  1
6.35
  7
SLDTEXTSTYLE0
 73
     1
 44
1.0
  0
MTEXT
  5
C2
330
AC
100
AcDbEntity
  8
BLOCKS
 62
     0
100
AcDbMText
 10
0.4865933934
 20
0.1342778896
 30
0.0
 40
0.1041666667
 41
0.0
 46
0.0
 71
     1
 72
     1
  1

  7
SLDTEXTSTYLE0
 73
     1
 44
1.0
  0
ENDBLK
  5
AE
330
AC
100
AcDbEntity
  8
0
100
AcDbBlockEnd
  0
BLOCK
  5
DC
330
DB
100
AcDbEntity
  8
0
100
AcDbBlockBegin
  2
_D
 70
     0
 10
0.0
 20
0.0
 30
0.0
  3
_D
  1

  0
SOLID
  5
DE
330
DB
100
AcDbEntity
  8
DIMS
100
AcDbTrace
 10
23.7437456647
 20
19.3573179191
 30
0.0
 11
23.7032997012
 21
19.0944191561
 31
0.0
 12
23.7841916283
 22
19.0944191561
 32
0.0
 13
23.7841916283
 23
19.0944191561
 33
0.0
  0
SOLID
  5
DF
330
DB
100
AcDbEntity
  8
DIMS
100
AcDbTrace
 10
23.7437456647
 20
2.3573179191
 30
0.0
 11
23.7841916283
 21
2.6202166821
 31
0.0
 12
23.7032997012
 22
2.6202166821
 32
0.0
 13
23.7032997012
 23
2.6202166821
 33
0.0
  0
LINE
  5
E0
330
DB
100
AcDbEntity
  8
DIMS
100
AcDbLine
 10
23.1920481197
 20
13.6021868634
 30
0.0
 11
23.1017703384
 21
13.6021868634
 31
0.0
  0
LINE
  5
E1
330
DB
100
AcDbEntity
  8
DIMS
100
AcDbLine
 10
23.1017703384
 20
13.6021868634
 30
0.0
 11
23.1017703384
 21
13.1984445941
 31
0.0
  0
LINE
  5
E2
330
DB
100
AcDbEntity
  8
DIMS
100
AcDbLine
 10
23.1017703384
 20
13.1984445941
 30
0.0
 11
23.1920481197
 21
13.1984445941
 31
0.0
  0
LINE
  5
E3
330
DB
100
AcDbEntity
  8
DIMS
100
AcDbLine
 10
24.2954431731
 20
13.6021868634
 30
0.0
 11
24.3857209544
 21
13.6021868634
 31
0.0
  0
LINE
  5
E4
330
DB
100
AcDbEntity
  8
DIMS
100
AcDbLine
 10
24.3857209544
 20
13.6021868634
 30
0.0
 11
24.3857209544
 21
13.1984445941
 31
0.0
  0
LINE
  5
E5
330
DB
100
AcDbEntity
  8
DIMS
100
AcDbLine
 10
24.3857209544
 20
13.1984445941
 30
0.0
 11
24.2954431731
 21
13.1984445941
 31
0.0
  0
LINE
  5
E6
330
DB
100
AcDbEntity
  8
DIMS
100
AcDbLine
 10
23.7437456647
 20
19.3573179191
 30
0.0
 11
23.7437456647
 21
14.0234831515
 31
0.0
  0
LINE
  5
E7
330
DB
100
AcDbEntity
  8
DIMS
100
AcDbLine
 10
23.7437456647
 20
2.3573179191
 30
0.0
 11
23.7437456647
 21
12.7345171617
 31
0.0
  0
MTEXT
  5
E8
330
DB
100
AcDbEntity
  8
DIMS
100
AcDbMText
 10
23.4789308556
 20
14.0114945668
 30
0.0
 40
0.2708333333
 41
0.0
 46
0.0
 71
     1
 72
     1
  1
17"
  7
SLDTEXTSTYLE0
 73
     1
 44
1.0
  0
MTEXT
  5
E9
330
DB
100
AcDbEntity
  8
DIMS
100
AcDbMText
 10
23.1920481197
 20
13.5475670978
 30
0.0
 40
0.2708333333
 41
0.0
 46
0.0
 71
     1
 72
     1
  1
431.80
  7
SLDTEXTSTYLE0
 73
     1
 44
1.0
  0
MTEXT
  5
EA
330
DB
100
AcDbEntity
  8
DIMS
100
AcDbMText
 10
22.4898877494
 20
13.0836396654
 30
0.0
 40
0.2708333333
 41
0.0
 46
0.0
 71
     1
 72
     1
  1
FLUSHMOUNT
  7
SLDTEXTSTYLE0
 73
     1
 44
1.0
  0
ENDBLK
  5
DD
330
DB
100
AcDbEntity
  8
0
100
AcDbBlockEnd
  0
BLOCK
  5
ED
330
EC
100
AcDbEntity
  8
0
100
AcDbBlockBegin
  2
_D_1
 70
     0
 10
0.0
 20
0.0
 30
0.0
  3
_D_1
  1

  0
SOLID
  5
EF
330
EC
100
AcDbEntity
  8
DIMS
100
AcDbTrace
 10
28.4021040462
 20
15.2818873143
 30
0.0
 11
28.1392052832
 21
15.3223332779
 31
0.0
 12
28.1392052832
 22
15.2414413508
 32
0.0
 13
28.1392052832
 23
15.2414413508
 33
0.0
  0
SOLID
  5
F0
330
EC
100
AcDbEntity
  8
DIMS
100
AcDbTrace
 10
4.4021040462
 20
15.2818873143
 30
0.0
 11
4.6650028093
 21
15.2414413508
 31
0.0
 12
4.6650028093
 22
15.3223332779
 32
0.0
 13
4.6650028093
 23
15.3223332779
 33
0.0
  0
LINE
  5
F1
330
EC
100
AcDbEntity
  8
DIMS
100
AcDbLine
 10
20.8313082353
 20
15.505074021
 30
0.0
 11
20.741030454
 21
15.505074021
 31
0.0
  0
LINE
  5
F2
330
EC
100
AcDbEntity
  8
DIMS
100
AcDbLine
 10
20.741030454
 20
15.505074021
 30
0.0
 11
20.741030454
 21
15.1013317518
 31
0.0
  0
LINE
  5
F3
330
EC
100
AcDbEntity
  8
DIMS
100
AcDbLine
 10
20.741030454
 20
15.1013317518
 30
0.0
 11
20.8313082353
 21
15.1013317518
 31
0.0
  0
LINE
  5
F4
330
EC
100
AcDbEntity
  8
DIMS
100
AcDbLine
 10
21.9347032888
 20
15.505074021
 30
0.0
 11
22.02498107
 21
15.505074021
 31
0.0
  0
LINE
  5
F5
330
EC
100
AcDbEntity
  8
DIMS
100
AcDbLine
 10
22.02498107
 20
15.505074021
 30
0.0
 11
22.02498107
 21
15.1013317518
 31
0.0
  0
LINE
  5
F6
330
EC
100
AcDbEntity
  8
DIMS
100
AcDbLine
 10
22.02498107
 20
15.1013317518
 30
0.0
 11
21.9347032888
 21
15.1013317518
 31
0.0
  0
LINE
  5
F7
330
EC
100
AcDbEntity
  8
DIMS
100
AcDbLine
 10
28.4021040462
 20
15.2818873143
 30
0.0
 11
22.6970495916
 21
15.2818873143
 31
0.0
  0
LINE
  5
F8
330
EC
100
AcDbEntity
  8
DIMS
100
AcDbLine
 10
4.4021040462
 20
15.2818873143
 30
0.0
 11
20.0689619691
 21
15.2818873143
 31
0.0
  0
MTEXT
  5
F9
330
EC
100
AcDbEntity
  8
DIMS
100
AcDbMText
 10
21.1181909712
 20
15.9143817245
 30
0.0
 40
0.2708333333
 41
0.0
 46
0.0
 71
     1
 72
     1
  1
24"
  7
SLDTEXTSTYLE0
 73
     1
 44
1.0
  0
MTEXT
  5
FA
330
EC
100
AcDbEntity
  8
DIMS
100
AcDbMText
 10
20.8313082353
 20
15.4504542555
 30
0.0
 40
0.2708333333
 41
0.0
 46
0.0
 71
     1
 72
     1
  1
609.60
  7
SLDTEXTSTYLE0
 73
     1
 44
1.0
  0
MTEXT
  5
FB
330
EC
100
AcDbEntity
  8
DIMS
100
AcDbMText
 10
20.129147865
 20
14.9865268231
 30
0.0
 40
0.2708333333
 41
0.0
 46
0.0
 71
     1
 72
     1
  1
FLUSHMOUNT
  7
SLDTEXTSTYLE0
 73
     1
 44
1.0
  0
ENDBLK
  5
EE
330
EC
100
AcDbEntity
  8
0
100
AcDbBlockEnd
  0
BLOCK
  5
FF
330
FE
100
AcDbEntity
  8
0
100
AcDbBlockBegin
  2
_D_2
 70
     0
 10
0.0
 20
0.0
 30
0.0
  3
_D_2
  1

  0
SOLID
  5
101
330
FE
100
AcDbEntity
  8
DIMS
100
AcDbTrace
 10
4.1521040462
 20
6.7868641432
 30
0.0
 11
4.4150028093
 21
6.7464181797
 31
0.0
 12
4.4150028093
 22
6.8273101068
 32
0.0
 13
4.4150028093
 23
6.8273101068
 33
0.0
  0
SOLID
  5
102
330
FE
100
AcDbEntity
  8
DIMS
100
AcDbTrace
 10
28.6521040462
 20
6.7868641432
 30
0.0
 11
28.3892052832
 21
6.8273101068
 31
0.0
 12
28.3892052832
 22
6.7464181797
 32
0.0
 13
28.3892052832
 23
6.7464181797
 33
0.0
  0
LINE
  5
103
330
FE
100
AcDbEntity
  8
DIMS
100
AcDbLine
 10
9.8724073078
 20
7.2776491861
 30
0.0
 11
10.1497606888
 21
7.2776491861
 31
0.0
  0
LINE
  5
104
330
FE
100
AcDbEntity
  8
DIMS
100
AcDbLine
 10
9.3229666891
 20
6.8256584584
 30
0.0
 11
9.2326889078
 21
6.8256584584
 31
0.0
  0
LINE
  5
105
330
FE
100
AcDbEntity
  8
DIMS
100
AcDbLine
 10
9.2326889078
 20
6.8256584584
 30
0.0
 11
9.2326889078
 21
6.4219161891
 31
0.0
  0
LINE
  5
106
330
FE
100
AcDbEntity
  8
DIMS
100
AcDbLine
 10
9.2326889078
 20
6.4219161891
 30
0.0
 11
9.3229666891
 21
6.4219161891
 31
0.0
  0
LINE
  5
107
330
FE
100
AcDbEntity
  8
DIMS
100
AcDbLine
 10
10.4263617426
 20
6.8256584584
 30
0.0
 11
10.5166395239
 21
6.8256584584
 31
0.0
  0
LINE
  5
108
330
FE
100
AcDbEntity
  8
DIMS
100
AcDbLine
 10
10.5166395239
 20
6.8256584584
 30
0.0
 11
10.5166395239
 21
6.4219161891
 31
0.0
  0
LINE
  5
109
330
FE
100
AcDbEntity
  8
DIMS
100
AcDbLine
 10
10.5166395239
 20
6.4219161891
 30
0.0
 11
10.4263617426
 21
6.4219161891
 31
0.0
  0
LINE
  5
10A
330
FE
100
AcDbEntity
  8
DIMS
100
AcDbLine
 10
4.1521040462
 20
6.7868641432
 30
0.0
 11
8.510465989
 21
6.7868641432
 31
0.0
  0
LINE
  5
10B
330
FE
100
AcDbEntity
  8
DIMS
100
AcDbLine
 10
28.6521040462
 20
6.7868641432
 30
0.0
 11
11.2388624794
 21
6.7868641432
 31
0.0
  0
MTEXT
  5
10C
330
FE
100
AcDbEntity
  8
DIMS
100
AcDbMText
 10
9.4328046919
 20
7.4192393514
 30
0.0
 40
0.2708333333
 41
0.0
 46
0.0
 71
     1
 72
     1
  1
24
  7
SLDTEXTSTYLE0
 73
     1
 44
1.0
  0
MTEXT
  5
10D
330
FE
100
AcDbEntity
  8
DIMS
100
AcDbMText
 10
9.9107753595
 20
7.6037508716
 30
0.0
 40
0.2708333333
 41
0.0
 46
0.0
 71
     1
 72
     1
  1
1
  7
SLDTEXTSTYLE0
 73
     1
 44
1.0
  0
MTEXT
  5
10E
330
FE
100
AcDbEntity
  8
DIMS
100
AcDbMText
 10
9.9107753595
 20
7.2349661343
 30
0.0
 40
0.2708333333
 41
0.0
 46
0.0
 71
     1
 72
     1
  1
2
  7
SLDTEXTSTYLE0
 73
     1
 44
1.0
  0
MTEXT
  5
10F
330
FE
100
AcDbEntity
  8
DIMS
100
AcDbMText
 10
10.188128713
 20
7.4192393514
 30
0.0
 40
0.2708333333
 41
0.0
 46
0.0
 71
     1
 72
     1
  1
"
  7
SLDTEXTSTYLE0
 73
     1
 44
1.0
  0
MTEXT
  5
110
330
FE
100
AcDbEntity
  8
DIMS
100
AcDbMText
 10
9.3229666891
 20
6.7710386928
 30
0.0
 40
0.2708333333
 41
0.0
 46
0.0
 71
     1
 72
     1
  1
622.30
  7
SLDTEXTSTYLE0
 73
     1
 44
1.0
  0
MTEXT
  5
111
330
FE
100
AcDbEntity
  8
DIMS
100
AcDbMText
 10
8.5706518849
 20
6.3071113155
 30
0.0
 40
0.2708333333
 41
0.0
 46
0.0
 71
     1
 72
     1
  1
UNDERMOUNT
  7
SLDTEXTSTYLE0
 73
     1
 44
1.0
  0
ENDBLK
  5
100
330
FE
100
AcDbEntity
  8
0
100
AcDbBlockEnd
  0
BLOCK
  5
114
330
113
100
AcDbEntity
  8
0
100
AcDbBlockBegin
  2
_D_3
 70
     0
 10
0.0
 20
0.0
 30
0.0
  3
_D_3
  1

  0
SOLID
  5
116
330
113
100
AcDbEntity
  8
DIMS
100
AcDbTrace
 10
7.2445086705
 20
19.6073179191
 30
0.0
 11
7.204062707
 21
19.3444191561
 31
0.0
 12
7.2849546341
 22
19.3444191561
 32
0.0
 13
7.2849546341
 23
19.3444191561
 33
0.0
  0
SOLID
  5
117
330
113
100
AcDbEntity
  8
DIMS
100
AcDbTrace
 10
7.2445086705
 20
2.1073179191
 30
0.0
 11
7.2849546341
 21
2.3702166821
 31
0.0
 12
7.204062707
 22
2.3702166821
 32
0.0
 13
7.204062707
 23
2.3702166821
 33
0.0
  0
LINE
  5
118
330
113
100
AcDbEntity
  8
DIMS
100
AcDbLine
 10
7.2422517441
 20
9.007750565
 30
0.0
 11
7.5196051251
 21
9.007750565
 31
0.0
  0
LINE
  5
119
330
113
100
AcDbEntity
  8
DIMS
100
AcDbLine
 10
6.6928111254
 20
8.5557598372
 30
0.0
 11
6.6025333442
 21
8.5557598372
 31
0.0
  0
LINE
  5
11A
330
113
100
AcDbEntity
  8
DIMS
100
AcDbLine
 10
6.6025333442
 20
8.5557598372
 30
0.0
 11
6.6025333442
 21
8.152017568
 31
0.0
  0
LINE
  5
11B
330
113
100
AcDbEntity
  8
DIMS
100
AcDbLine
 10
6.6025333442
 20
8.152017568
 30
0.0
 11
6.6928111254
 21
8.152017568
 31
0.0
  0
LINE
  5
11C
330
113
100
AcDbEntity
  8
DIMS
100
AcDbLine
 10
7.7962061789
 20
8.5557598372
 30
0.0
 11
7.8864839602
 21
8.5557598372
 31
0.0
  0
LINE
  5
11D
330
113
100
AcDbEntity
  8
DIMS
100
AcDbLine
 10
7.8864839602
 20
8.5557598372
 30
0.0
 11
7.8864839602
 21
8.152017568
 31
0.0
  0
LINE
  5
11E
330
113
100
AcDbEntity
  8
DIMS
100
AcDbLine
 10
7.8864839602
 20
8.152017568
 30
0.0
 11
7.7962061789
 21
8.152017568
 31
0.0
  0
LINE
  5
11F
330
113
100
AcDbEntity
  8
DIMS
100
AcDbLine
 10
7.2445086705
 20
19.6073179191
 30
0.0
 11
7.2445086705
 21
9.3458408535
 31
0.0
  0
LINE
  5
120
330
113
100
AcDbEntity
  8
DIMS
100
AcDbLine
 10
7.2445086705
 20
2.1073179191
 30
0.0
 11
7.2445086705
 21
7.6880901906
 31
0.0
  0
MTEXT
  5
121
330
113
100
AcDbEntity
  8
DIMS
100
AcDbMText
 10
6.8026491283
 20
9.1493407302
 30
0.0
 40
0.2708333333
 41
0.0
 46
0.0
 71
     1
 72
     1
  1
17
  7
SLDTEXTSTYLE0
 73
     1
 44
1.0
  0
MTEXT
  5
122
330
113
100
AcDbEntity
  8
DIMS
100
AcDbMText
 10
7.2806197959
 20
9.3338522504
 30
0.0
 40
0.2708333333
 41
0.0
 46
0.0
 71
     1
 72
     1
  1
1
  7
SLDTEXTSTYLE0
 73
     1
 44
1.0
  0
MTEXT
  5
123
330
113
100
AcDbEntity
  8
DIMS
100
AcDbMText
 10
7.2806197959
 20
8.9650675131
 30
0.0
 40
0.2708333333
 41
0.0
 46
0.0
 71
     1
 72
     1
  1
2
  7
SLDTEXTSTYLE0
 73
     1
 44
1.0
  0
MTEXT
  5
124
330
113
100
AcDbEntity
  8
DIMS
100
AcDbMText
 10
7.5579731494
 20
9.1493407302
 30
0.0
 40
0.2708333333
 41
0.0
 46
0.0
 71
     1
 72
     1
  1
"
  7
SLDTEXTSTYLE0
 73
     1
 44
1.0
  0
MTEXT
  5
125
330
113
100
AcDbEntity
  8
DIMS
100
AcDbMText
 10
6.6928111254
 20
8.5011400716
 30
0.0
 40
0.2708333333
 41
0.0
 46
0.0
 71
     1
 72
     1
  1
444.50
  7
SLDTEXTSTYLE0
 73
     1
 44
1.0
  0
MTEXT
  5
126
330
113
100
AcDbEntity
  8
DIMS
100
AcDbMText
 10
5.9404963212
 20
8.0372126943
 30
0.0
 40
0.2708333333
 41
0.0
 46
0.0
 71
     1
 72
     1
  1
UNDERMOUNT
  7
SLDTEXTSTYLE0
 73
     1
 44
1.0
  0
ENDBLK
  5
115
330
113
100
AcDbEntity
  8
0
100
AcDbBlockEnd
  0
BLOCK
  5
12A
330
129
100
AcDbEntity
  8
0
100
AcDbBlockBegin
  2
_D_4
 70
     0
 10
0.0
 20
0.0
 30
0.0
  3
_D_4
  1

  0
SOLID
  5
12C
330
129
100
AcDbEntity
  8
DIMS
100
AcDbTrace
 10
28.5366066139
 20
19.5404680766
 30
0.0
 11
28.341110995
 21
19.3600987373
 31
0.0
 12
28.4043663164
 22
19.3096778271
 32
0.0
 13
28.4043663164
 23
19.3096778271
 33
0.0
  0
LINE
  5
12D
330
129
100
AcDbEntity
  8
DIMS
100
AcDbLine
 10
26.6214358767
 20
18.6240733293
 30
0.0
 11
27.0994065534
 21
18.6240733293
 31
0.0
  0
LINE
  5
12E
330
129
100
AcDbEntity
  8
DIMS
100
AcDbLine
 10
26.4431373139
 20
18.1720826016
 30
0.0
 11
26.3528595326
 21
18.1720826016
 31
0.0
  0
LINE
  5
12F
330
129
100
AcDbEntity
  8
DIMS
100
AcDbLine
 10
26.3528595326
 20
18.1720826016
 30
0.0
 11
26.3528595326
 21
17.7683403323
 31
0.0
  0
LINE
  5
130
330
129
100
AcDbEntity
  8
DIMS
100
AcDbLine
 10
26.3528595326
 20
17.7683403323
 30
0.0
 11
26.4431373139
 21
17.7683403323
 31
0.0
  0
LINE
  5
131
330
129
100
AcDbEntity
  8
DIMS
100
AcDbLine
 10
27.1452977758
 20
18.1720826016
 30
0.0
 11
27.2355755571
 21
18.1720826016
 31
0.0
  0
LINE
  5
132
330
129
100
AcDbEntity
  8
DIMS
100
AcDbLine
 10
27.2355755571
 20
18.1720826016
 30
0.0
 11
27.2355755571
 21
17.7683403323
 31
0.0
  0
LINE
  5
133
330
129
100
AcDbEntity
  8
DIMS
100
AcDbLine
 10
27.2355755571
 20
17.7683403323
 30
0.0
 11
27.1452977758
 21
17.7683403323
 31
0.0
  0
LINE
  5
134
330
129
100
AcDbEntity
  8
DIMS
100
AcDbLine
 10
28.5366066139
 20
19.5404680766
 30
0.0
 11
27.5758533017
 21
18.3351594211
 31
0.0
  0
LINE
  5
135
330
129
100
AcDbEntity
  8
DIMS
100
AcDbLine
 10
27.5758533017
 20
18.3351594211
 30
0.0
 11
27.3258533017
 21
18.3351594211
 31
0.0
  0
MTEXT
  5
136
330
129
100
AcDbEntity
  8
DIMS
100
AcDbMText
 10
26.3222653385
 20
18.7656634946
 30
0.0
 40
0.2708333333
 41
0.0
 46
0.0
 71
     1
 72
     1
  1
R
  7
SLDTEXTSTYLE0
 73
     1
 44
1.0
  0
MTEXT
  5
137
330
129
100
AcDbEntity
  8
DIMS
100
AcDbMText
 10
26.7601125763
 20
18.9501750148
 30
0.0
 40
0.2708333333
 41
0.0
 46
0.0
 71
     1
 72
     1
  1
5
  7
SLDTEXTSTYLE0
 73
     1
 44
1.0
  0
MTEXT
  5
138
330
129
100
AcDbEntity
  8
DIMS
100
AcDbMText
 10
26.6598039376
 20
18.5813902775
 30
0.0
 40
0.2708333333
 41
0.0
 46
0.0
 71
     1
 72
     1
  1
16
  7
SLDTEXTSTYLE0
 73
     1
 44
1.0
  0
MTEXT
  5
139
330
129
100
AcDbEntity
  8
DIMS
100
AcDbMText
 10
27.137774651
 20
18.7656634946
 30
0.0
 40
0.2708333333
 41
0.0
 46
0.0
 71
     1
 72
     1
  1
"
  7
SLDTEXTSTYLE0
 73
     1
 44
1.0
  0
MTEXT
  5
13A
330
129
100
AcDbEntity
  8
DIMS
100
AcDbMText
 10
26.4431373139
 20
18.117462836
 30
0.0
 40
0.2708333333
 41
0.0
 46
0.0
 71
     1
 72
     1
  1
7.79
  7
SLDTEXTSTYLE0
 73
     1
 44
1.0
  0
ENDBLK
  5
12B
330
129
100
AcDbEntity
  8
0
100
AcDbBlockEnd
  0
BLOCK
  5
13C
330
13B
100
AcDbEntity
  8
0
100
AcDbBlockBegin
  2
SW_NOTE_0
 70
     0
 10
0.0
 20
0.0
 30
0.0
  3
SW_NOTE_0
  1

  0
MTEXT
  5
13E
330
13B
100
AcDbEntity
  8
NOTES
 62
     0
100
AcDbMText
 10
6.8619791667
 20
1.0742231165
 30
0.0
 40
0.8333333333
 41
0.0
 46
0.0
 71
     2
 72
     1
  1
TEMPLATE #: 1000005510
  7
SLDTEXTSTYLE0
 73
     1
 44
1.0
  0
MTEXT
  5
13F
330
13B
100
AcDbEntity
  8
NOTES
 62
     0
100
AcDbMText
 10
6.8447172673
 20
-0.0578140575
 30
0.0
 40
0.4166666667
 41
0.0
 46
0.0
 71
     2
 72
     1
  1
FLUSH & 1/4" REVEAL UNDERMOUNT TEMPLATE
  7
SLDTEXTSTYLE0
 73
     1
 44
1.0
  0
MTEXT
  5
140
330
13B
100
AcDbEntity
  8
NOTES
 62
     0
100
AcDbMText
 10
6.8297171851
 20
-0.6527396915
 30
0.0
 40
0.4166666667
 41
0.0
 46
0.0
 71
     2
 72
     1
  1
24" X  17" W/ 0" RADIUS
  7
SLDTEXTSTYLE0
 73
     1
 44
1.0
  0
ENDBLK
  5
13D
330
13B
100
AcDbEntity
  8
0
100
AcDbBlockEnd
  0
BLOCK
  5
143
330
142
100
AcDbEntity
  8
0
100
AcDbBlockBegin
  2
SW_NOTE_1
 70
     0
 10
0.0
 20
0.0
 30
0.0
  3
SW_NOTE_1
  1

  0
MTEXT
  5
145
330
142
100
AcDbEntity
  8
NOTES
 62
     0
100
AcDbMText
 10
0.0
 20
0.2685557791
 30
0.0
 40
0.2083333333
 41
0.0
 46
0.0
 71
     1
 72
     1
  1
NOTES:
  7
SLDTEXTSTYLE0
 73
     1
 44
1.0
  0
MTEXT
  5
146
330
142
100
AcDbEntity
  8
NOTES
 62
     0
100
AcDbMText
 10
0.3937007786
 20
-0.3657399401
 30
0.0
 40
0.2083333333
 41
0.0
 46
0.0
 71
     1
 72
     1
  1
THOROUGHLY READ ALL  INSTALLATION INSTRUCTIONS
  7
SLDTEXTSTYLE0
 73
     1
 44
1.0
  0
MTEXT
  5
147
330
142
100
AcDbEntity
  8
NOTES
 62
     0
100
AcDbMText
 10
-0.3937007874
 20
-0.3657399401
 30
0.0
 40
0.2083333333
 41
0.0
 46
0.0
 71
     1
 72
     1
  1
1.
  7
SLDTEXTSTYLE0
 73
     1
 44
1.0
  0
MTEXT
  5
148
330
142
100
AcDbEntity
  8
NOTES
 62
     0
100
AcDbMText
 10
0.0
 20
-0.6828877997
 30
0.0
 40
0.2083333333
 41
0.0
 46
0.0
 71
     1
 72
     1
  1
BEFORE CUTTING COUNTERTOP.
  7
SLDTEXTSTYLE0
 73
     1
 44
1.0
  0
MTEXT
  5
149
330
142
100
AcDbEntity
  8
NOTES
 62
     0
100
AcDbMText
 10
0.0
 20
-1.317183519
 30
0.0
 40
0.2083333333
 41
0.0
 46
0.0
 71
     1
 72
     1
  1
2.  DIMENSIONS ARE IN INCHES [MM].
  7
SLDTEXTSTYLE0
 73
     1
 44
1.0
  0
MTEXT
  5
14A
330
142
100
AcDbEntity
  8
NOTES
 62
     0
100
AcDbMText
 10
0.0
 20
-2.2686270978
 30
0.0
 40
0.2083333333
 41
0.0
 46
0.0
 71
     1
 72
     1
  1
PLEASE CHECK TEMPLATE AGAINST PHYSICAL SINK FOR MOST ACCURATE CUT.
  7
SLDTEXTSTYLE0
 73
     1
 44
1.0
  0
MTEXT
  5
14B
330
142
100
AcDbEntity
  8
NOTES
 62
     0
100
AcDbMText
 10
0.0
 20
-3.5372185363
 30
0.0
 40
0.2083333333
 41
0.0
 46
0.0
 71
     1
 72
     1
  1
NOTAS:
  7
SLDTEXTSTYLE0
 73
     1
 44
1.0
  0
MTEXT
  5
14C
330
142
100
AcDbEntity
  8
NOTES
 62
     0
100
AcDbMText
 10
0.0
 20
-4.1715142555
 30
0.0
 40
0.2083333333
 41
0.0
 46
0.0
 71
     1
 72
     1
  1
1.  LEA ATENTAMENTE LAS INSTRUCCIONES DE INSTALACIÓN ANTES DE CORTAR LA ENCIMERA.
  7
SLDTEXTSTYLE0
 73
     1
 44
1.0
  0
MTEXT
  5
14D
330
142
100
AcDbEntity
  8
NOTES
 62
     0
100
AcDbMText
 10
0.0
 20
-4.8058099747
 30
0.0
 40
0.2083333333
 41
0.0
 46
0.0
 71
     1
 72
     1
  1
2.  DIMENSIONES EN PULGADAS [MM].
  7
SLDTEXTSTYLE0
 73
     1
 44
1.0
  0
MTEXT
  5
14E
330
142
100
AcDbEntity
  8
NOTES
 62
     0
100
AcDbMText
 10
0.0
 20
-5.7572535536
 30
0.0
 40
0.2083333333
 41
0.0
 46
0.0
 71
     1
 72
     1
  1
POR FAVOR COMPRUEBE PLANTILLA CONTRA FREGADERO FÍSICO PARA CORTE MÁS EXACTO.
  7
SLDTEXTSTYLE0
 73
     1
 44
1.0
  0
ENDBLK
  5
144
330
142
100
AcDbEntity
  8
0
100
AcDbBlockEnd
  0
BLOCK
  5
151
330
150
100
AcDbEntity
  8
0
100
AcDbBlockBegin
  2
SW_NOTE_2
 70
     0
 10
0.0
 20
0.0
 30
0.0
  3
SW_NOTE_2
  1

  0
MTEXT
  5
153
330
150
100
AcDbEntity
  8
NOTES
 62
     0
100
AcDbMText
 10
0.0293588971
 20
0.8468641147
 30
0.0
 40
0.25
 41
0.0
 46
0.0
 71
     2
 72
     1
  1
TEMPLATE
  7
SLDTEXTSTYLE0
 73
     1
 44
1.0
  0
MTEXT
  5
154
330
150
100
AcDbEntity
  8
NOTES
 62
     0
100
AcDbMText
 10
0.0331205161
 20
0.4741607002
 30
0.0
 40
0.25
 41
0.0
 46
0.0
 71
     2
 72
     1
  1
CENTERLINE
  7
SLDTEXTSTYLE0
 73
     1
 44
1.0
  0
MTEXT
  5
155
330
150
100
AcDbEntity
  8
NOTES
 62
     0
100
AcDbMText
 10
0.0332651471
 20
-0.2712461288
 30
0.0
 40
0.25
 41
0.0
 46
0.0
 71
     2
 72
     1
  1
PLANTILLA
  7
SLDTEXTSTYLE0
 73
     1
 44
1.0
  0
MTEXT
  5
156
330
150
100
AcDbEntity
  8
NOTES
 62
     0
100
AcDbMText
 10
0.0296482539
 20
-0.6439495433
 30
0.0
 40
0.25
 41
0.0
 46
0.0
 71
     2
 72
     1
  1
CENTRAL
  7
SLDTEXTSTYLE0
 73
     1
 44
1.0
  0
ENDBLK
  5
152
330
150
100
AcDbEntity
  8
0
100
AcDbBlockEnd
  0
BLOCK
  5
15C
330
15B
100
AcDbEntity
  8
0
100
AcDbBlockBegin
  2
SW_NOTE_3
 70
     0
 10
0.0
 20
0.0
 30
0.0
  3
SW_NOTE_3
  1

  0
MTEXT
  5
15E
330
15B
100
AcDbEntity
  8
SLD-0
 62
     0
100
AcDbMText
 10
0.0199389471
 20
0.2411597195
 30
0.0
 40
0.2083333333
 41
0.0
 46
0.0
 71
     1
 72
     1
  1
1/4" REVEAL
  7
SLDTEXTSTYLE0
 73
     1
 44
1.0
  0
MTEXT
  5
15F
330
15B
100
AcDbEntity
  8
SLD-0
 62
     0
100
AcDbMText
 10
0.0199389471
 20
-0.0759881401
 30
0.0
 40
0.2083333333
 41
0.0
 46
0.0
 71
     1
 72
     1
  1
[6.35 REVELADO]
  7
SLDTEXTSTYLE0
 73
     1
 44
1.0
  0
ENDBLK
  5
15D
330
15B
100
AcDbEntity
  8
0
100
AcDbBlockEnd
  0
BLOCK
  5
164
330
163
100
AcDbEntity
  8
0
100
AcDbBlockBegin
  2
SW_NOTE_4
 70
     0
 10
0.0
 20
0.0
 30
0.0
  3
SW_NOTE_4
  1

  0
MTEXT
  5
166
330
163
100
AcDbEntity
  8
NOTES
 62
     0
100
AcDbMText
 10
0.0241521269
 20
1.0347050837
 30
0.0
 40
0.2083333333
 41
0.0
 46
0.0
 71
     1
 72
     1
  1
FOR FLUSHMOUNT
  7
SLDTEXTSTYLE0
 73
     1
 44
1.0
  0
MTEXT
  5
167
330
163
100
AcDbEntity
  8
NOTES
 62
     0
100
AcDbMText
 10
0.0241521269
 20
0.7175572241
 30
0.0
 40
0.2083333333
 41
0.0
 46
0.0
 71
     1
 72
     1
  1
INSTALLATION CUT
  7
SLDTEXTSTYLE0
 73
     1
 44
1.0
  0
MTEXT
  5
168
330
163
100
AcDbEntity
  8
NOTES
 62
     0
100
AcDbMText
 10
0.0241521269
 20
0.4004093645
 30
0.0
 40
0.2083333333
 41
0.0
 46
0.0
 71
     1
 72
     1
  1
ALONG THIS LINE
  7
SLDTEXTSTYLE0
 73
     1
 44
1.0
  0
MTEXT
  5
169
330
163
100
AcDbEntity
  8
NOTES
 62
     0
100
AcDbMText
 10
0.0241521269
 20
-0.2338863547
 30
0.0
 40
0.2083333333
 41
0.0
 46
0.0
 71
     1
 72
     1
  1
PARA LA INSTALACIÓN
  7
SLDTEXTSTYLE0
 73
     1
 44
1.0
  0
MTEXT
  5
16A
330
163
100
AcDbEntity
  8
NOTES
 62
     0
100
AcDbMText
 10
0.0241521269
 20
-0.5510342143
 30
0.0
 40
0.2083333333
 41
0.0
 46
0.0
 71
     1
 72
     1
  1
INFERIOR CORTE A LO
  7
SLDTEXTSTYLE0
 73
     1
 44
1.0
  0
MTEXT
  5
16B
330
163
100
AcDbEntity
  8
NOTES
 62
     0
100
AcDbMText
 10
0.0241521269
 20
-0.8681820739
 30
0.0
 40
0.2083333333
 41
0.0
 46
0.0
 71
     1
 72
     1
  1
LARGO DE ESTA LÍNEA
  7
SLDTEXTSTYLE0
 73
     1
 44
1.0
  0
ENDBLK
  5
165
330
163
100
AcDbEntity
  8
0
100
AcDbBlockEnd
  0
BLOCK
  5
16F
330
16E
100
AcDbEntity
  8
0
100
AcDbBlockBegin
  2
SW_NOTE_5
 70
     0
 10
0.0
 20
0.0
 30
0.0
  3
SW_NOTE_5
  1

  0
MTEXT
  5
171
330
16E
100
AcDbEntity
  8
NOTES
 62
     0
100
AcDbMText
 10
0.0210709041
 20
1.0344504102
 30
0.0
 40
0.2083333333
 41
0.0
 46
0.0
 71
     1
 72
     1
  1
FOR UNDERMOUNT
  7
SLDTEXTSTYLE0
 73
     1
 44
1.0
  0
MTEXT
  5
172
330
16E
100
AcDbEntity
  8
NOTES
 62
     0
100
AcDbMText
 10
0.0210709041
 20
0.7173025505
 30
0.0
 40
0.2083333333
 41
0.0
 46
0.0
 71
     1
 72
     1
  1
INSTALLATION CUT
  7
SLDTEXTSTYLE0
 73
     1
 44
1.0
  0
MTEXT
  5
173
330
16E
100
AcDbEntity
  8
NOTES
 62
     0
100
AcDbMText
 10
0.0210709041
 20
0.4001546909
 30
0.0
 40
0.2083333333
 41
0.0
 46
0.0
 71
     1
 72
     1
  1
ALONG THIS LINE
  7
SLDTEXTSTYLE0
 73
     1
 44
1.0
  0
MTEXT
  5
174
330
16E
100
AcDbEntity
  8
NOTES
 62
     0
100
AcDbMText
 10
0.0210709041
 20
-0.2341410283
 30
0.0
 40
0.2083333333
 41
0.0
 46
0.0
 71
     1
 72
     1
  1
PARA LA INSTALACIÓN
  7
SLDTEXTSTYLE0
 73
     1
 44
1.0
  0
MTEXT
  5
175
330
16E
100
AcDbEntity
  8
NOTES
 62
     0
100
AcDbMText
 10
0.0210709041
 20
-0.5512888879
 30
0.0
 40
0.2083333333
 41
0.0
 46
0.0
 71
     1
 72
     1
  1
INFERIOR CORTE A LO
  7
SLDTEXTSTYLE0
 73
     1
 44
1.0
  0
MTEXT
  5
176
330
16E
100
AcDbEntity
  8
NOTES
 62
     0
100
AcDbMText
 10
0.0210709041
 20
-0.8684367475
 30
0.0
 40
0.2083333333
 41
0.0
 46
0.0
 71
     1
 72
     1
  1
LARGO DE ESTA LÍNEA
  7
SLDTEXTSTYLE0
 73
     1
 44
1.0
  0
ENDBLK
  5
170
330
16E
100
AcDbEntity
  8
0
100
AcDbBlockEnd
  0
BLOCK
  5
17A
330
179
100
AcDbEntity
  8
0
100
AcDbBlockBegin
  2
SW_NOTE_6
 70
     0
 10
0.0
 20
0.0
 30
0.0
  3
SW_NOTE_6
  1

  0
MTEXT
  5
17C
330
179
100
AcDbEntity
  8
DIMS
 62
     0
100
AcDbMText
 10
0.3714735938
 20
0.2371933807
 30
0.0
 40
0.2083333333
 41
0.0
 46
0.0
 71
     2
 72
     1
  1
R 0"
  7
SLDTEXTSTYLE0
 73
     1
 44
1.0
  0
MTEXT
  5
17D
330
179
100
AcDbEntity
  8
DIMS
 62
     0
100
AcDbMText
 10
0.3743188687
 20
-0.0799544789
 30
0.0
 40
0.2083333333
 41
0.0
 46
0.0
 71
     2
 72
     1
  1
[0.00]
  7
SLDTEXTSTYLE0
 73
     1
 44
1.0
  0
ENDBLK
  5
17B
330
179
100
AcDbEntity
  8
0
100
AcDbBlockEnd
  0
ENDSEC
  0
SECTION
  2
ENTITIES
  0
LINE
  5
C4
330
1F
100
AcDbEntity
  8
OBJECTS
  6
CENTERX2
100
AcDbLine
 10
28.4021040462
 20
2.3673179191
 30
0.0
 11
28.4021040462
 21
19.3473179191
 31
0.0
  0
LINE
  5
C5
330
1F
100
AcDbEntity
  8
OBJECTS
  6
CENTERX2
100
AcDbLine
 10
4.4121135731
 20
2.3573179191
 30
0.0
 11
28.3920945194
 21
2.3573179191
 31
0.0
  0
LINE
  5
C6
330
1F
100
AcDbEntity
  8
OBJECTS
  6
CENTERX2
100
AcDbLine
 10
4.4021040462
 20
19.3473179191
 30
0.0
 11
4.4021040462
 21
2.3673179191
 31
0.0
  0
LINE
  5
C7
330
1F
100
AcDbEntity
  8
OBJECTS
  6
CENTERX2
100
AcDbLine
 10
28.3920945194
 20
19.3573179191
 30
0.0
 11
4.4121135731
 21
19.3573179191
 31
0.0
  0
LINE
  5
C8
330
1F
100
AcDbEntity
  8
OBJECTS
  6
CENTERX2
100
AcDbLine
 10
16.4021040462
 20
19.6073179191
 30
0.0
 11
16.4021040462
 21
17.8639075145
 31
0.0
  0
LINE
  5
C9
330
1F
100
AcDbEntity
  8
OBJECTS
  6
CENTERX2
100
AcDbLine
 10
16.4021040462
 20
2.1073179191
 30
0.0
 11
16.4021040462
 21
3.8507283237
 31
0.0
  0
LINE
  5
CA
330
1F
100
AcDbEntity
  8
OBJECTS
  6
CENTERX2
100
AcDbLine
 10
4.1521040462
 20
10.8573179191
 30
0.0
 11
5.8955144509
 21
10.8573179191
 31
0.0
  0
LINE
  5
CB
330
1F
100
AcDbEntity
  8
OBJECTS
  6
CENTERX2
100
AcDbLine
 10
28.6521040462
 20
10.8573179191
 30
0.0
 11
26.9086936416
 21
10.8573179191
 31
0.0
  0
LINE
  5
CC
330
1F
100
AcDbEntity
  8
DIMS
100
AcDbLine
 10
28.6521040462
 20
2.4146326636
 30
0.0
 11
28.6521040462
 21
19.3007049197
 31
0.0
  0
LINE
  5
CD
330
1F
100
AcDbEntity
  8
DIMS
100
AcDbLine
 10
4.3676709523
 20
2.1073179191
 30
0.0
 11
28.3447893017
 21
2.1073179191
 31
0.0
  0
LINE
  5
CE
330
1F
100
AcDbEntity
  8
DIMS
100
AcDbLine
 10
4.1521040462
 20
19.4507919932
 30
0.0
 11
4.1521040462
 21
2.3228848251
 31
0.0
  0
LINE
  5
CF
330
1F
100
AcDbEntity
  8
DIMS
100
AcDbLine
 10
28.3454910469
 20
19.6073179191
 30
0.0
 11
4.3086299721
 21
19.6073179191
 31
0.0
  0
ARC
  5
D0
330
1F
100
AcDbEntity
  8
DIMS
100
AcDbCircle
 10
28.3454910469
 20
19.3007049197
 30
0.0
 40
0.3066129993701132
100
AcDbArc
 50
0.0
 51
90.0
  0
ARC
  5
D1
330
1F
100
AcDbEntity
  8
DIMS
100
AcDbCircle
 10
28.3447893017
 20
2.4146326636
 30
0.0
 40
0.3073147445614635
100
AcDbArc
 50
270.0
 51
0.0
  0
ARC
  5
D2
330
1F
100
AcDbEntity
  8
DIMS
100
AcDbCircle
 10
4.3676709523
 20
2.3228848251
 30
0.0
 40
0.2155669060296121
100
AcDbArc
 50
180.0
 51
270.0
  0
ARC
  5
D3
330
1F
100
AcDbEntity
  8
DIMS
100
AcDbCircle
 10
4.3086299721
 20
19.4507919932
 30
0.0
 40
0.1565259258869389
100
AcDbArc
 50
90.0
 51
180.0
  0
ELLIPSE
  5
D4
330
1F
100
AcDbEntity
  8
OBJECTS
  6
CENTERX2
100
AcDbEllipse
 10
28.3920945194
 20
19.3473179191
 30
0.0
 11
0.0100095268516327
 21
0.0
 31
0.0
210
0.0
220
0.0
230
1.0
 40
0.9990482216
 41
0.0
 42
1.570796326794897
  0
ELLIPSE
  5
D5
330
1F
100
AcDbEntity
  8
OBJECTS
  6
CENTERX2
100
AcDbEllipse
 10
28.3920945194
 20
2.3673179191
 30
0.0
 11
0.01000952685163625
 21
0.0
 31
0.0
210
0.0
220
0.0
230
1.0
 40
0.9990482216
 41
4.712388980384704
 42
6.283185307179586
  0
ELLIPSE
  5
D6
330
1F
100
AcDbEntity
  8
OBJECTS
  6
CENTERX2
100
AcDbEllipse
 10
4.4121135731
 20
2.3673179191
 30
0.0
 11
-0.01000952685163359
 21
0.0
 31
0.0
210
0.0
220
0.0
230
1.0
 40
0.9990482216
 41
0.0
 42
1.570796326794897
  0
ELLIPSE
  5
D7
330
1F
100
AcDbEntity
  8
OBJECTS
  6
CENTERX2
100
AcDbEllipse
 10
4.4121135731
 20
19.3473179191
 30
0.0
 11
-0.01000952685163448
 21
0.0
 31
0.0
210
0.0
220
0.0
230
1.0
 40
0.9990482216
 41
4.71238898038497
 42
6.283185307179586
  0
INSERT
  5
D8
330
1F
100
AcDbEntity
  8
DIMS
100
AcDbBlockReference
  2
REVEAL - .1875
 10
16.8682792568
 20
-2.2086528104
 30
0.0
  0
DIMENSION
  5
D9
330
1F
100
AcDbEntity
  8
DIMS
100
AcDbDimension
  2
_D
 10
23.7437456647
 20
2.3573179191
 30
0.0
 11
23.7437456647
 21
13.3790001566
 31
0.0
 70
   160
  1
<>\PFLUSHMOUNT
 71
     2
 42
-1.0
 73
     0
 74
     0
 75
     0
  3
SLDDIMSTYLE0
100
AcDbAlignedDimension
 13
28.3920945194
 23
19.3573179191
 33
0.0
 14
28.3920945194
 24
2.3573179191
 34
0.0
 50
90.0
100
AcDbRotatedDimension
  0
DIMENSION
  5
EB
330
1F
100
AcDbEntity
  8
DIMS
100
AcDbDimension
  2
_D_1
 10
4.4021040462
 20
15.2818873143
 30
0.0
 11
21.3830057803
 21
15.2818873143
 31
0.0
 70
   160
  1
<>\PFLUSHMOUNT
 71
     2
 42
-1.0
 73
     0
 74
     0
 75
     0
  3
SLDDIMSTYLE0
100
AcDbAlignedDimension
 13
28.4021040462
 23
19.3473179191
 33
0.0
 14
4.4021040462
 24
19.3473179191
 34
0.0
 50
0.0
100
AcDbRotatedDimension
  0
DIMENSION
  5
FC
330
1F
100
AcDbEntity
  8
DIMS
100
AcDbDimension
  2
_D_2
 10
28.6521040462
 20
6.7868641432
 30
0.0
 11
9.8746642342
 21
6.7868641432
 31
0.0
 70
   160
  1
<>\PUNDERMOUNT
 71
     2
 42
-1.0
 73
     0
 74
     0
 75
     0
  3
SLDDIMSTYLE1
100
AcDbAlignedDimension
 13
4.1521040462
 23
2.3228848251
 33
0.0
 14
28.6521040462
 24
2.4146326636
 34
0.0
100
AcDbRotatedDimension
  0
DIMENSION
  5
112
330
1F
100
AcDbEntity
  8
DIMS
100
AcDbDimension
  2
_D_3
 10
7.2445086705
 20
2.1073179191
 30
0.0
 11
7.2445086705
 21
8.516965522
 31
0.0
 70
   160
  1
<>\PUNDERMOUNT
 71
     2
 42
-1.0
 73
     0
 74
     0
 75
     0
  3
SLDDIMSTYLE1
100
AcDbAlignedDimension
 13
4.3086299721
 23
19.6073179191
 33
0.0
 14
4.3676709523
 24
2.1073179191
 34
0.0
 50
90.0
100
AcDbRotatedDimension
  0
DIMENSION
  5
127
330
1F
100
AcDbEntity
  8
DIMS
100
AcDbDimension
  2
_D_4
 10
28.3454910469
 20
19.3007049197
 30
0.0
 11
26.7942175265
 21
18.3351594211
 31
0.0
 70
   164
  1
<>
 71
     1
 42
-1.0
 73
     0
 74
     0
 75
     0
  3
SLDDIMSTYLE2
100
AcDbRadialDimension
 15
28.5366066139
 25
19.5404680766
 35
0.0
 40
0.0
  0
INSERT
  5
141
330
1F
100
AcDbEntity
  8
NOTES
100
AcDbBlockReference
  2
SW_NOTE_0
 10
9.6638648527
 20
10.6148135965
 30
0.0
  0
INSERT
  5
14F
330
1F
100
AcDbEntity
  8
NOTES
100
AcDbBlockReference
  2
SW_NOTE_1
 10
5.6947572254
 20
18.7114859907
 30
0.0
  0
INSERT
  5
157
102
{ACAD_REACTORS
330
159
330
15A
102
}
330
1F
100
AcDbEntity
  8
NOTES
100
AcDbBlockReference
  2
SW_NOTE_2
 10
20.7804606072
 20
17.1410710839
 30
0.0
  0
LEADER
  5
159
330
1F
100
AcDbEntity
  8
NOTES
100
AcDbLeader
  3
SLDDIMSTYLE3
 73
     2
 76
     3
 10
16.4021040462
 20
18.585501201
 30
0.0
 10
19.474905101
 20
17.1410710839
 30
0.0
 10
20.7804606072
 20
17.1410710839
 30
0.0
340
157
  0
LEADER
  5
15A
330
1F
100
AcDbEntity
  8
NOTES
100
AcDbLeader
  3
SLDDIMSTYLE3
 73
     2
 76
     3
 10
27.6350751445
 20
10.8832601156
 30
0.0
 10
22.125386192
 20
17.1410710839
 30
0.0
 10
20.8198306859
 20
17.1410710839
 30
0.0
340
157
212
0.03937007874015208
222
0.0
232
0.0
  0
INSERT
  5
160
102
{ACAD_REACTORS
330
161
102
}
330
1F
100
AcDbEntity
  8
SLD-0
100
AcDbBlockReference
  2
SW_NOTE_3
 10
18.3909471576
 20
4.5460103771
 30
0.0
  0
LEADER
  5
161
330
1F
100
AcDbEntity
  8
SLD-0
100
AcDbLeader
  3
SLDDIMSTYLE3
 73
     2
 76
     3
 10
17.3422645006
 20
2.1073179191
 30
0.0
 10
18.1409471576
 20
4.5460103771
 30
0.0
 10
18.3909471576
 20
4.5460103771
 30
0.0
340
160
  0
MTEXT
  5
162
330
1F
100
AcDbEntity
  8
NOTES
100
AcDbMText
 10
25.8450635838
 20
3.1951479423
 30
0.0
 40
0.2083333333
 41
0.0
 46
0.0
 71
     1
 72
     1
  1
REV_A  11/19
  7
SLDTEXTSTYLE0
 73
     1
 44
1.0
  0
INSERT
  5
16C
102
{ACAD_REACTORS
330
16D
102
}
330
1F
100
AcDbEntity
  8
NOTES
100
AcDbBlockReference
  2
SW_NOTE_4
 10
12.3375130854
 20
4.5769539364
 30
0.0
  0
LEADER
  5
16D
330
1F
100
AcDbEntity
  8
NOTES
100
AcDbLeader
  3
SLDDIMSTYLE3
 73
     2
 76
     3
 10
11.1358381503
 20
2.3573179191
 30
0.0
 10
12.087873465
 20
4.5769539364
 30
0.0
 10
12.3375130854
 20
4.5769539364
 30
0.0
340
16C
  0
INSERT
  5
177
102
{ACAD_REACTORS
330
178
102
}
330
1F
100
AcDbEntity
  8
NOTES
100
AcDbBlockReference
  2
SW_NOTE_5
 10
24.1758454326
 20
5.3415982403
 30
0.0
  0
LEADER
  5
178
330
1F
100
AcDbEntity
  8
NOTES
100
AcDbLeader
  3
SLDDIMSTYLE3
 73
     2
 76
     3
 10
22.2650404624
 20
2.1073179191
 30
0.0
 10
23.9262058122
 20
5.3415982403
 30
0.0
 10
24.1758454326
 20
5.3415982403
 30
0.0
340
177
  0
INSERT
  5
17E
102
{ACAD_REACTORS
330
17F
102
}
330
1F
100
AcDbEntity
  8
DIMS
100
AcDbBlockReference
  2
SW_NOTE_6
 10
5.2996531812
 20
3.1623683035
 30
0.0
  0
LEADER
  5
17F
330
1F
100
AcDbEntity
  8
DIMS
100
AcDbLeader
  3
SLDDIMSTYLE3
 73
     2
 76
     3
 10
4.4121135731
 20
2.3573179191
 30
0.0
 10
5.0496531812
 20
3.1623683035
 30
0.0
 10
5.2996531812
 20
3.1623683035
 30
0.0
340
17E
  0
ENDSEC
  0
SECTION
  2
OBJECTS
  0
DICTIONARY
  5
C
330
0
100
AcDbDictionary
281
     1
  3
ACAD_DETAILVIEWSTYLE
350
188
  3
ACAD_GROUP
350
D
  3
ACAD_LAYOUT
350
1A
  3
ACAD_MATERIAL
350
43
  3
ACAD_MLEADERSTYLE
350
6B
  3
ACAD_MLINESTYLE
350
17
  3
ACAD_PLOTSETTINGS
350
19
  3
ACAD_PLOTSTYLENAME
350
E
  3
ACAD_SCALELIST
350
47
  3
ACAD_SECTIONVIEWSTYLE
350
189
  3
ACAD_TABLESTYLE
350
69
  3
ACAD_VISUALSTYLE
350
2A
  3
ACDB_RECOMPOSE_DATA
350
185
  3
AcDbVariableDictionary
350
180
  0
SUN
  5
6D
330
29
100
AcDbSun
 90
        1
290
     0
 63
     7
421
 16777215
 40
1.0
291
     1
 91
  2455826
 92
 54000000
292
     0
 70
     2
 71
   256
280
     1
  0
DICTIONARY
  5
188
102
{ACAD_REACTORS
330
C
102
}
330
C
100
AcDbDictionary
281
     1
  0
DICTIONARY
  5
D
102
{ACAD_REACTORS
330
C
102
}
330
C
100
AcDbDictionary
281
     1
  0
DICTIONARY
  5
1A
102
{ACAD_REACTORS
330
C
102
}
330
C
100
AcDbDictionary
281
     1
  3
Layout1
350
1E
  3
Layout2
350
26
  3
Model
350
22
  0
DICTIONARY
  5
43
102
{ACAD_REACTORS
330
C
102
}
330
C
100
AcDbDictionary
281
     1
  3
ByBlock
350
45
  3
ByLayer
350
44
  3
Global
350
46
  0
DICTIONARY
  5
6B
102
{ACAD_REACTORS
330
C
102
}
330
C
100
AcDbDictionary
281
     1
  3
Standard
350
6C
  0
DICTIONARY
  5
17
102
{ACAD_REACTORS
330
C
102
}
330
C
100
AcDbDictionary
281
     1
  3
Standard
350
18
  0
DICTIONARY
  5
19
102
{ACAD_REACTORS
330
C
102
}
330
C
100
AcDbDictionary
281
     1
  0
ACDBDICTIONARYWDFLT
  5
E
102
{ACAD_REACTORS
330
C
102
}
330
C
100
AcDbDictionary
281
     1
  3
Normal
350
F
100
AcDbDictionaryWithDefault
340
F
  0
DICTIONARY
  5
47
102
{ACAD_REACTORS
330
C
102
}
330
C
100
AcDbDictionary
281
     1
  3
A0
350
48
  3
A1
350
49
  3
A2
350
4A
  3
A3
350
4B
  3
A4
350
4C
  3
A5
350
4D
  3
A6
350
4E
  3
A7
350
4F
  3
A8
350
50
  3
A9
350
51
  3
B0
350
52
  3
B1
350
53
  3
B2
350
54
  3
B3
350
55
  3
B4
350
56
  3
B5
350
57
  3
B6
350
58
  3
B7
350
59
  3
B8
350
5A
  3
B9
350
5B
  3
C0
350
5C
  3
C1
350
5D
  3
C2
350
5E
  3
C3
350
5F
  3
C4
350
60
  3
C5
350
61
  3
C6
350
62
  3
C7
350
63
  3
C8
350
64
  3
C9
350
65
  3
D0
350
66
  3
D1
350
67
  3
D2
350
68
  0
DICTIONARY
  5
189
102
{ACAD_REACTORS
330
C
102
}
330
C
100
AcDbDictionary
281
     1
  0
DICTIONARY
  5
69
102
{ACAD_REACTORS
330
C
102
}
330
C
100
AcDbDictionary
281
     1
  3
Standard
350
6A
  0
DICTIONARY
  5
2A
102
{ACAD_REACTORS
330
C
102
}
330
C
100
AcDbDictionary
281
     1
  3
2dWireframe
350
2F
  3
Basic
350
32
  3
Brighten
350
36
  3
ColorChange
350
3A
  3
Conceptual
350
34
  3
Dim
350
35
  3
EdgeColorOff
350
3D
  3
Facepattern
350
39
  3
Flat
350
2B
  3
FlatWithEdges
350
2C
  3
Gouraud
350
2D
  3
GouraudWithEdges
350
2E
  3
Hidden
350
31
  3
JitterOff
350
3B
  3
Linepattern
350
38
  3
OverhangOff
350
3C
  3
Realistic
350
33
  3
Shaded
350
42
  3
Shaded with edges
350
41
  3
Shades of Gray
350
3E
  3
Sketchy
350
3F
  3
Thicken
350
37
  3
Wireframe
350
30
  3
X-Ray
350
40
  0
XRECORD
  5
185
102
{ACAD_REACTORS
330
C
102
}
330
C
100
AcDbXrecord
280
     1
 90
        1
330
6A
  0
DICTIONARY
  5
180
102
{ACAD_REACTORS
330
C
102
}
330
C
100
AcDbDictionary
281
     1
  3
CANNOSCALE
350
181
  3
CMLEADERSTYLE
350
187
  3
CTABLESTYLE
350
186
  0
LAYOUT
  5
1E
102
{ACAD_REACTORS
330
1A
102
}
330
1A
100
AcDbPlotSettings
  1

  2
none_device
  4

  6

 40
0.0
 41
0.0
 42
0.0
 43
0.0
 44
0.0
 45
0.0
 46
0.0
 47
0.0
 48
0.0
 49
0.0
140
0.0
141
0.0
142
1.0
143
1.0
 70
   688
 72
     0
 73
     0
 74
     5
  7

 75
    16
 76
     0
 77
     2
 78
   300
147
1.0
148
0.0
149
0.0
100
AcDbLayout
  1
Layout1
 70
     1
 71
     1
 10
0.0
 20
0.0
 11
12.0
 21
9.0
 12
0.0
 22
0.0
 32
0.0
 14
1.0000000000E+20
 24
1.0000000000E+20
 34
1.0000000000E+20
 15
-1.0000000000E+20
 25
-1.0000000000E+20
 35
-1.0000000000E+20
146
0.0
 13
0.0
 23
0.0
 33
0.0
 16
1.0
 26
0.0
 36
0.0
 17
0.0
 27
1.0
 37
0.0
 76
     0
330
1B
  0
LAYOUT
  5
26
102
{ACAD_REACTORS
330
1A
102
}
330
1A
100
AcDbPlotSettings
  1

  2
none_device
  4

  6

 40
0.0
 41
0.0
 42
0.0
 43
0.0
 44
0.0
 45
0.0
 46
0.0
 47
0.0
 48
0.0
 49
0.0
140
0.0
141
0.0
142
1.0
143
1.0
 70
   688
 72
     0
 73
     0
 74
     5
  7

 75
    16
 76
     0
 77
     2
 78
   300
147
1.0
148
0.0
149
0.0
100
AcDbLayout
  1
Layout2
 70
     1
 71
     2
 10
0.0
 20
0.0
 11
0.0
 21
0.0
 12
0.0
 22
0.0
 32
0.0
 14
0.0
 24
0.0
 34
0.0
 15
0.0
 25
0.0
 35
0.0
146
0.0
 13
0.0
 23
0.0
 33
0.0
 16
1.0
 26
0.0
 36
0.0
 17
0.0
 27
1.0
 37
0.0
 76
     0
330
23
  0
LAYOUT
  5
22
102
{ACAD_REACTORS
330
1A
102
}
330
1A
100
AcDbPlotSettings
  1

  2
none_device
  4
Letter_(8.50_x_11.00_Inches)
  6

 40
6.35
 41
6.35
 42
6.35000508
 43
6.35000508
 44
215.9
 45
279.4
 46
0.0
 47
0.0
 48
0.0
 49
0.0
140
0.0
141
0.0
142
1.0
143
1.0
 70
  1712
 72
     0
 73
     0
 74
     0
  7

 75
     0
 76
     0
 77
     2
 78
   300
147
1.0
148
0.0
149
0.0
100
AcDbLayout
  1
Model
 70
     1
 71
     0
 10
0.0
 20
0.0
 11
32.0
 21
22.0
 12
0.0
 22
0.0
 32
0.0
 14
0.0
 24
0.0
 34
0.0
 15
32.0
 25
22.0
 35
0.0
146
0.0
 13
0.0
 23
0.0
 33
0.0
 16
1.0
 26
0.0
 36
0.0
 17
0.0
 27
1.0
 37
0.0
 76
     0
330
1F
331
29
  0
MATERIAL
  5
45
102
{ACAD_REACTORS
330
43
102
}
330
43
100
AcDbMaterial
  1
ByBlock
 72
     1
 94
      127
  0
MATERIAL
  5
44
102
{ACAD_REACTORS
330
43
102
}
330
43
100
AcDbMaterial
  1
ByLayer
 72
     1
 94
      127
  0
MATERIAL
  5
46
102
{ACAD_REACTORS
330
43
102
}
330
43
100
AcDbMaterial
  1
Global
 72
     1
 94
      127
  0
MLEADERSTYLE
  5
6C
102
{ACAD_REACTORS
330
6B
102
}
330
6B
100
AcDbMLeaderStyle
170
     2
171
     1
172
     0
 90
        2
 40
0.0
 41
0.0
173
     1
 91
-1056964608
340
14
 92
       -2
290
     1
 42
0.09
291
     1
 43
0.36
  3
Standard
341
0
 44
0.18
300

342
11
174
     1
178
     6
175
     1
176
     0
 93
-1056964608
 45
0.18
292
     0
297
     0
 46
0.18
343
0
 94
-1056964608
 47
1.0
 49
1.0
140
1.0
293
     1
141
0.0
294
     1
177
     0
142
1.0
295
     0
296
     0
143
0.125
1001
ACAD_MLEADERVER
1070
     2
  0
MLINESTYLE
  5
18
102
{ACAD_REACTORS
330
17
102
}
330
17
100
AcDbMlineStyle
  2
Standard
 70
     0
  3

 62
   256
 51
90.0
 52
90.0
 71
     2
 49
0.5
 62
   256
  6
BYLAYER
 49
-0.5
 62
   256
  6
BYLAYER
  0
ACDBPLACEHOLDER
  5
F
102
{ACAD_REACTORS
330
E
102
}
330
E
  0
SCALE
  5
48
102
{ACAD_REACTORS
330
47
102
}
330
47
100
AcDbScale
 70
     0
300
1:1
140
1.0
141
1.0
290
     1
  0
SCALE
  5
49
102
{ACAD_REACTORS
330
47
102
}
330
47
100
AcDbScale
 70
     0
300
1:2
140
1.0
141
2.0
290
     0
  0
SCALE
  5
4A
102
{ACAD_REACTORS
330
47
102
}
330
47
100
AcDbScale
 70
     0
300
1:4
140
1.0
141
4.0
290
     0
  0
SCALE
  5
4B
102
{ACAD_REACTORS
330
47
102
}
330
47
100
AcDbScale
 70
     0
300
1:5
140
1.0
141
5.0
290
     0
  0
SCALE
  5
4C
102
{ACAD_REACTORS
330
47
102
}
330
47
100
AcDbScale
 70
     0
300
1:8
140
1.0
141
8.0
290
     0
  0
SCALE
  5
4D
102
{ACAD_REACTORS
330
47
102
}
330
47
100
AcDbScale
 70
     0
300
1:10
140
1.0
141
10.0
290
     0
  0
SCALE
  5
4E
102
{ACAD_REACTORS
330
47
102
}
330
47
100
AcDbScale
 70
     0
300
1:16
140
1.0
141
16.0
290
     0
  0
SCALE
  5
4F
102
{ACAD_REACTORS
330
47
102
}
330
47
100
AcDbScale
 70
     0
300
1:20
140
1.0
141
20.0
290
     0
  0
SCALE
  5
50
102
{ACAD_REACTORS
330
47
102
}
330
47
100
AcDbScale
 70
     0
300
1:30
140
1.0
141
30.0
290
     0
  0
SCALE
  5
51
102
{ACAD_REACTORS
330
47
102
}
330
47
100
AcDbScale
 70
     0
300
1:40
140
1.0
141
40.0
290
     0
  0
SCALE
  5
52
102
{ACAD_REACTORS
330
47
102
}
330
47
100
AcDbScale
 70
     0
300
1:50
140
1.0
141
50.0
290
     0
  0
SCALE
  5
53
102
{ACAD_REACTORS
330
47
102
}
330
47
100
AcDbScale
 70
     0
300
1:100
140
1.0
141
100.0
290
     0
  0
SCALE
  5
54
102
{ACAD_REACTORS
330
47
102
}
330
47
100
AcDbScale
 70
     0
300
2:1
140
2.0
141
1.0
290
     0
  0
SCALE
  5
55
102
{ACAD_REACTORS
330
47
102
}
330
47
100
AcDbScale
 70
     0
300
4:1
140
4.0
141
1.0
290
     0
  0
SCALE
  5
56
102
{ACAD_REACTORS
330
47
102
}
330
47
100
AcDbScale
 70
     0
300
8:1
140
8.0
141
1.0
290
     0
  0
SCALE
  5
57
102
{ACAD_REACTORS
330
47
102
}
330
47
100
AcDbScale
 70
     0
300
10:1
140
10.0
141
1.0
290
     0
  0
SCALE
  5
58
102
{ACAD_REACTORS
330
47
102
}
330
47
100
AcDbScale
 70
     0
300
100:1
140
100.0
141
1.0
290
     0
  0
SCALE
  5
59
102
{ACAD_REACTORS
330
47
102
}
330
47
100
AcDbScale
 70
     0
300
1/128" = 1'-0"
140
0.0078125
141
12.0
290
     0
  0
SCALE
  5
5A
102
{ACAD_REACTORS
330
47
102
}
330
47
100
AcDbScale
 70
     0
300
1/64" = 1'-0"
140
0.015625
141
12.0
290
     0
  0
SCALE
  5
5B
102
{ACAD_REACTORS
330
47
102
}
330
47
100
AcDbScale
 70
     0
300
1/32" = 1'-0"
140
0.03125
141
12.0
290
     0
  0
SCALE
  5
5C
102
{ACAD_REACTORS
330
47
102
}
330
47
100
AcDbScale
 70
     0
300
1/16" = 1'-0"
140
0.0625
141
12.0
290
     0
  0
SCALE
  5
5D
102
{ACAD_REACTORS
330
47
102
}
330
47
100
AcDbScale
 70
     0
300
3/32" = 1'-0"
140
0.09375
141
12.0
290
     0
  0
SCALE
  5
5E
102
{ACAD_REACTORS
330
47
102
}
330
47
100
AcDbScale
 70
     0
300
1/8" = 1'-0"
140
0.125
141
12.0
290
     0
  0
SCALE
  5
5F
102
{ACAD_REACTORS
330
47
102
}
330
47
100
AcDbScale
 70
     0
300
3/16" = 1'-0"
140
0.1875
141
12.0
290
     0
  0
SCALE
  5
60
102
{ACAD_REACTORS
330
47
102
}
330
47
100
AcDbScale
 70
     0
300
1/4" = 1'-0"
140
0.25
141
12.0
290
     0
  0
SCALE
  5
61
102
{ACAD_REACTORS
330
47
102
}
330
47
100
AcDbScale
 70
     0
300
3/8" = 1'-0"
140
0.375
141
12.0
290
     0
  0
SCALE
  5
62
102
{ACAD_REACTORS
330
47
102
}
330
47
100
AcDbScale
 70
     0
300
1/2" = 1'-0"
140
0.5
141
12.0
290
     0
  0
SCALE
  5
63
102
{ACAD_REACTORS
330
47
102
}
330
47
100
AcDbScale
 70
     0
300
3/4" = 1'-0"
140
0.75
141
12.0
290
     0
  0
SCALE
  5
64
102
{ACAD_REACTORS
330
47
102
}
330
47
100
AcDbScale
 70
     0
300
1" = 1'-0"
140
1.0
141
12.0
290
     0
  0
SCALE
  5
65
102
{ACAD_REACTORS
330
47
102
}
330
47
100
AcDbScale
 70
     0
300
1-1/2" = 1'-0"
140
1.5
141
12.0
290
     0
  0
SCALE
  5
66
102
{ACAD_REACTORS
330
47
102
}
330
47
100
AcDbScale
 70
     0
300
3" = 1'-0"
140
3.0
141
12.0
290
     0
  0
SCALE
  5
67
102
{ACAD_REACTORS
330
47
102
}
330
47
100
AcDbScale
 70
     0
300
6" = 1'-0"
140
6.0
141
12.0
290
     0
  0
SCALE
  5
68
102
{ACAD_REACTORS
330
47
102
}
330
47
100
AcDbScale
 70
     0
300
1'-0" = 1'-0"
140
12.0
141
12.0
290
     0
  0
TABLESTYLE
  5
6A
102
{ACAD_REACTORS
330
69
102
}
102
{ACAD_XDICTIONARY
360
182
102
}
330
69
100
AcDbTableStyle
  3
Standard
 70
     0
 71
     0
 40
0.06
 41
0.06
280
     0
281
     0
  7
Standard
140
0.18
170
     2
 62
     0
 63
   257
283
     0
 90
        4
 91
        0
  1

274
    -2
284
     1
 64
     0
275
    -2
285
     1
 65
     0
276
    -2
286
     1
 66
     0
277
    -2
287
     1
 67
     0
278
    -2
288
     1
 68
     0
279
    -2
289
     1
 69
     0
  7
Standard
140
0.25
170
     5
 62
     0
 63
   257
283
     0
 90
        4
 91
        0
  1

274
    -2
284
     1
 64
     0
275
    -2
285
     1
 65
     0
276
    -2
286
     1
 66
     0
277
    -2
287
     1
 67
     0
278
    -2
288
     1
 68
     0
279
    -2
289
     1
 69
     0
  7
Standard
140
0.18
170
     5
 62
     0
 63
   257
283
     0
 90
        4
 91
        0
  1

274
    -2
284
     1
 64
     0
275
    -2
285
     1
 65
     0
276
    -2
286
     1
 66
     0
277
    -2
287
     1
 67
     0
278
    -2
288
     1
 68
     0
279
    -2
289
     1
 69
     0
  0
VISUALSTYLE
  5
2F
102
{ACAD_REACTORS
330
2A
102
}
330
2A
100
AcDbVisualStyle
  2
2dWireframe
 70
     4
 71
     0
 72
     2
 73
     0
 90
        0
 40
0.6
 41
30.0
 62
     5
 63
     7
421
 16777215
 74
     1
 91
        4
 64
     7
 65
   257
 75
     1
175
     1
 42
1.0
 92
        0
 66
   257
 43
1.0
 76
     1
 77
     6
 78
     2
 67
     7
 79
     5
170
     0
171
     0
290
     0
174
     0
 93
        1
 44
0.0
173
     0
291
     0
 45
0.0
  0
VISUALSTYLE
  5
32
102
{ACAD_REACTORS
330
2A
102
}
330
2A
100
AcDbVisualStyle
  2
Basic
 70
     7
 71
     1
 72
     0
 73
     1
 90
        0
 40
0.6
 41
30.0
 62
     5
 63
     7
421
 16777215
 74
     0
 91
        4
 64
     7
 65
   257
 75
     1
175
     1
 42
1.0
 92
        8
 66
     7
 43
1.0
 76
     1
 77
     6
 78
     2
 67
     7
 79
     5
170
     0
171
     0
290
     0
174
     0
 93
        1
 44
0.0
173
     0
291
     1
 45
0.0
  0
VISUALSTYLE
  5
36
102
{ACAD_REACTORS
330
2A
102
}
330
2A
100
AcDbVisualStyle
  2
Brighten
 70
    12
 71
     2
 72
     2
 73
     0
 90
        0
 40
0.6
 41
30.0
 62
     5
 63
     7
421
 16777215
 74
     1
 91
        4
 64
     7
 65
   257
 75
     1
175
     1
 42
1.0
 92
        8
 66
     7
 43
1.0
 76
     1
 77
     6
 78
     2
 67
     7
 79
     5
170
     0
171
     0
290
     0
174
     0
 93
        1
 44
50.0
173
     0
291
     1
 45
0.0
  0
VISUALSTYLE
  5
3A
102
{ACAD_REACTORS
330
2A
102
}
330
2A
100
AcDbVisualStyle
  2
ColorChange
 70
    16
 71
     2
 72
     2
 73
     3
 90
        0
 40
0.6
 41
30.0
 62
     5
 63
     8
421
  8421504
 74
     1
 91
        4
 64
     7
 65
   257
 75
     1
175
     1
 42
1.0
 92
        8
 66
     8
424
  8421504
 43
1.0
 76
     1
 77
     6
 78
     2
 67
     7
 79
     5
170
     0
171
     0
290
     0
174
     0
 93
        1
 44
0.0
173
     0
291
     1
 45
0.0
  0
VISUALSTYLE
  5
34
102
{ACAD_REACTORS
330
2A
102
}
330
2A
100
AcDbVisualStyle
  2
Conceptual
 70
     9
 71
     3
 72
     2
 73
     0
 90
        0
 40
0.6
 41
30.0
 62
     5
 63
     7
421
 16777215
 74
     2
 91
        2
 64
     7
 65
   257
 75
     1
175
     1
 42
179.0
 92
        8
 66
     7
 43
1.0
 76
     1
 77
     6
 78
     2
 67
     7
 79
     3
170
     0
171
     0
290
     0
174
     0
 93
        1
 44
0.0
173
     0
291
     0
 45
0.0
  0
VISUALSTYLE
  5
35
102
{ACAD_REACTORS
330
2A
102
}
330
2A
100
AcDbVisualStyle
  2
Dim
 70
    11
 71
     2
 72
     2
 73
     0
 90
        0
 40
0.6
 41
30.0
 62
     5
 63
     7
421
 16777215
 74
     1
 91
        4
 64
     7
 65
   257
 75
     1
175
     1
 42
1.0
 92
        8
 66
     7
 43
1.0
 76
     1
 77
     6
 78
     2
 67
     7
 79
     5
170
     0
171
     0
290
     0
174
     0
 93
        1
 44
-50.0
173
     0
291
     1
 45
0.0
  0
VISUALSTYLE
  5
3D
102
{ACAD_REACTORS
330
2A
102
}
330
2A
100
AcDbVisualStyle
  2
EdgeColorOff
 70
    22
 71
     2
 72
     2
 73
     0
 90
        0
 40
0.6
 41
30.0
 62
     5
 63
     7
421
 16777215
 74
     1
 91
        4
 64
     7
 65
   257
 75
     1
175
     1
 42
1.0
 92
        8
 66
     7
 43
1.0
 76
     1
 77
     6
 78
     2
 67
     7
 79
     5
170
     0
171
     0
290
     0
174
     0
 93
        1
 44
0.0
173
     0
291
     1
 45
0.0
  0
VISUALSTYLE
  5
39
102
{ACAD_REACTORS
330
2A
102
}
330
2A
100
AcDbVisualStyle
  2
Facepattern
 70
    15
 71
     2
 72
     2
 73
     0
 90
        0
 40
0.6
 41
30.0
 62
     5
 63
     7
421
 16777215
 74
     1
 91
        4
 64
     7
 65
   257
 75
     1
175
     1
 42
1.0
 92
        8
 66
     7
 43
1.0
 76
     1
 77
     6
 78
     2
 67
     7
 79
     5
170
     0
171
     0
290
     0
174
     0
 93
        1
 44
0.0
173
     0
291
     1
 45
0.0
  0
VISUALSTYLE
  5
2B
102
{ACAD_REACTORS
330
2A
102
}
330
2A
100
AcDbVisualStyle
  2
Flat
 70
     0
 71
     2
 72
     1
 73
     1
 90
        2
 40
0.6
 41
30.0
 62
     5
 63
     7
421
 16777215
 74
     0
 91
        0
 64
     7
 65
   257
 75
     1
175
     1
 42
1.0
 92
        8
 66
     7
 43
1.0
 76
     1
 77
     6
 78
     2
 67
     7
 79
     5
170
     0
171
     0
290
     0
174
     0
 93
       13
 44
0.0
173
     0
291
     1
 45
0.0
  0
VISUALSTYLE
  5
2C
102
{ACAD_REACTORS
330
2A
102
}
330
2A
100
AcDbVisualStyle
  2
FlatWithEdges
 70
     1
 71
     2
 72
     1
 73
     1
 90
        2
 40
0.6
 41
30.0
 62
     5
 63
     7
421
 16777215
 74
     1
 91
        0
 64
     7
 65
   257
 75
     1
175
     1
 42
1.0
 92
        0
 66
   257
 43
1.0
 76
     1
 77
     6
 78
     2
 67
     7
 79
     5
170
     0
171
     0
290
     0
174
     0
 93
       13
 44
0.0
173
     0
291
     1
 45
0.0
  0
VISUALSTYLE
  5
2D
102
{ACAD_REACTORS
330
2A
102
}
330
2A
100
AcDbVisualStyle
  2
Gouraud
 70
     2
 71
     2
 72
     2
 73
     1
 90
        2
 40
0.6
 41
30.0
 62
     5
 63
     7
421
 16777215
 74
     0
 91
        0
 64
     7
 65
   257
 75
     1
175
     1
 42
1.0
 92
        0
 66
     7
 43
1.0
 76
     1
 77
     6
 78
     2
 67
     7
 79
     5
170
     0
171
     0
290
     0
174
     0
 93
       13
 44
0.0
173
     0
291
     1
 45
0.0
  0
VISUALSTYLE
  5
2E
102
{ACAD_REACTORS
330
2A
102
}
330
2A
100
AcDbVisualStyle
  2
GouraudWithEdges
 70
     3
 71
     2
 72
     2
 73
     1
 90
        2
 40
0.6
 41
30.0
 62
     5
 63
     7
421
 16777215
 74
     1
 91
        0
 64
     7
 65
   257
 75
     1
175
     1
 42
1.0
 92
        0
 66
   257
 43
1.0
 76
     1
 77
     6
 78
     2
 67
     7
 79
     5
170
     0
171
     0
290
     0
174
     0
 93
       13
 44
0.0
173
     0
291
     1
 45
0.0
  0
VISUALSTYLE
  5
31
102
{ACAD_REACTORS
330
2A
102
}
330
2A
100
AcDbVisualStyle
  2
Hidden
 70
     6
 71
     1
 72
     2
 73
     2
 90
        0
 40
0.6
 41
30.0
 62
     5
 63
     7
421
 16777215
 74
     2
 91
        2
 64
     7
 65
   257
 75
     2
175
     1
 42
40.0
 92
        0
 66
   257
 43
1.0
 76
     1
 77
     6
 78
     2
 67
     7
 79
     3
170
     0
171
     0
290
     0
174
     0
 93
        1
 44
0.0
173
     0
291
     0
 45
0.0
  0
VISUALSTYLE
  5
3B
102
{ACAD_REACTORS
330
2A
102
}
330
2A
100
AcDbVisualStyle
  2
JitterOff
 70
    20
 71
     2
 72
     2
 73
     0
 90
        0
 40
0.6
 41
30.0
 62
     5
 63
     7
421
 16777215
 74
     1
 91
        4
 64
     7
 65
   257
 75
     1
175
     1
 42
1.0
 92
       10
 66
     7
 43
1.0
 76
     1
 77
     6
 78
     2
 67
     7
 79
     5
170
     0
171
     0
290
     0
174
     0
 93
        1
 44
0.0
173
     0
291
     1
 45
0.0
  0
VISUALSTYLE
  5
38
102
{ACAD_REACTORS
330
2A
102
}
330
2A
100
AcDbVisualStyle
  2
Linepattern
 70
    14
 71
     2
 72
     2
 73
     0
 90
        0
 40
0.6
 41
30.0
 62
     5
 63
     7
421
 16777215
 74
     1
 91
        4
 64
     7
 65
   257
 75
     7
175
     7
 42
1.0
 92
        8
 66
     7
 43
1.0
 76
     1
 77
     6
 78
     2
 67
     7
 79
     5
170
     0
171
     0
290
     0
174
     0
 93
        1
 44
0.0
173
     0
291
     1
 45
0.0
  0
VISUALSTYLE
  5
3C
102
{ACAD_REACTORS
330
2A
102
}
330
2A
100
AcDbVisualStyle
  2
OverhangOff
 70
    21
 71
     2
 72
     2
 73
     0
 90
        0
 40
0.6
 41
30.0
 62
     5
 63
     7
421
 16777215
 74
     1
 91
        4
 64
     7
 65
   257
 75
     1
175
     1
 42
1.0
 92
        9
 66
     7
 43
1.0
 76
     1
 77
     6
 78
     2
 67
     7
 79
     5
170
     0
171
     0
290
     0
174
     0
 93
        1
 44
0.0
173
     0
291
     1
 45
0.0
  0
VISUALSTYLE
  5
33
102
{ACAD_REACTORS
330
2A
102
}
330
2A
100
AcDbVisualStyle
  2
Realistic
 70
     8
 71
     2
 72
     3
 73
     0
 90
        2
 40
0.6
 41
30.0
 62
     5
 63
     7
421
 16777215
 74
     0
 91
        0
 64
     7
 65
   257
 75
     1
175
     1
 42
1.0
 92
        8
 66
   257
 43
1.0
 76
     1
 77
     6
 78
     2
 67
     7
 79
     3
170
     0
171
     0
290
     0
174
     0
 93
       13
 44
0.0
173
     0
291
     0
 45
0.0
  0
VISUALSTYLE
  5
42
102
{ACAD_REACTORS
330
2A
102
}
330
2A
100
AcDbVisualStyle
  2
Shaded
 70
    27
 71
     2
 72
     2
 73
     1
 90
        2
 40
0.6
 41
30.0
 62
     5
 63
     7
421
 16777215
 74
     0
 91
        4
 64
     7
 65
   257
 75
     1
175
     1
 42
1.0
 92
        8
 66
   257
 43
1.0
 76
     1
 77
     6
 78
     2
 67
     8
425
  7895160
 79
     3
170
     0
171
     0
290
     0
174
     0
 93
        5
 44
0.0
173
     0
291
     0
 45
0.0
  0
VISUALSTYLE
  5
41
102
{ACAD_REACTORS
330
2A
102
}
330
2A
100
AcDbVisualStyle
  2
Shaded with edges
 70
    26
 71
     2
 72
     2
 73
     1
 90
        2
 40
0.6
 41
30.0
 62
     5
 63
     7
421
 16777215
 74
     1
 91
       10
 64
     7
 65
   257
 75
     2
175
     1
 42
1.0
 92
        8
 66
   257
 43
1.0
 76
     1
 77
     6
 78
     2
 67
     7
 79
     3
170
     0
171
     0
290
     0
174
     0
 93
        5
 44
0.0
173
     0
291
     0
 45
0.0
  0
VISUALSTYLE
  5
3E
102
{ACAD_REACTORS
330
2A
102
}
330
2A
100
AcDbVisualStyle
  2
Shades of Gray
 70
    23
 71
     2
 72
     2
 73
     3
 90
        0
 40
0.6
 41
30.0
 62
     5
 63
     7
421
 16777215
 74
     2
 91
        2
 64
     7
 65
     7
 75
     1
175
     1
 42
40.0
 92
        8
 66
     7
 43
1.0
 76
     1
 77
     6
 78
     2
 67
     7
 79
     3
170
     0
171
     0
290
     0
174
     0
 93
        1
 44
0.0
173
     0
291
     0
 45
0.0
  0
VISUALSTYLE
  5
3F
102
{ACAD_REACTORS
330
2A
102
}
330
2A
100
AcDbVisualStyle
  2
Sketchy
 70
    24
 71
     1
 72
     2
 73
     2
 90
        0
 40
0.6
 41
30.0
 62
     5
 63
     7
421
 16777215
 74
     2
 91
        2
 64
     7
 65
     7
 75
     1
175
     1
 42
40.0
 92
       11
 66
     7
 43
1.0
 76
     1
 77
     6
 78
     2
 67
     7
 79
     6
170
     0
171
     0
290
     0
174
     0
 93
        1
 44
0.0
173
     0
291
     0
 45
0.0
  0
VISUALSTYLE
  5
37
102
{ACAD_REACTORS
330
2A
102
}
330
2A
100
AcDbVisualStyle
  2
Thicken
 70
    13
 71
     2
 72
     2
 73
     0
 90
        0
 40
0.6
 41
30.0
 62
     5
 63
     7
421
 16777215
 74
     1
 91
        4
 64
     7
 65
   257
 75
     1
175
     1
 42
1.0
 92
       12
 66
     7
 43
1.0
 76
     1
 77
     6
 78
     2
 67
     7
 79
     5
170
     0
171
     0
290
     0
174
     0
 93
        1
 44
0.0
173
     0
291
     1
 45
0.0
  0
VISUALSTYLE
  5
30
102
{ACAD_REACTORS
330
2A
102
}
330
2A
100
AcDbVisualStyle
  2
Wireframe
 70
     5
 71
     0
 72
     2
 73
     0
 90
        0
 40
0.6
 41
30.0
 62
     5
 63
     7
421
 16777215
 74
     1
 91
        4
 64
     7
 65
   257
 75
     1
175
     1
 42
1.0
 92
        0
 66
   257
 43
1.0
 76
     1
 77
     6
 78
     2
 67
     7
 79
     3
170
     0
171
     0
290
     0
174
     0
 93
        1
 44
0.0
173
     0
291
     0
 45
0.0
  0
VISUALSTYLE
  5
40
102
{ACAD_REACTORS
330
2A
102
}
330
2A
100
AcDbVisualStyle
  2
X-Ray
 70
    25
 71
     2
 72
     2
 73
     1
 90
        1
 40
0.5
 41
30.0
 62
     5
 63
     7
421
 16777215
 74
     1
 91
        0
 64
     7
 65
   257
 75
     1
175
     1
 42
1.0
 92
        8
 66
     7
 43
1.0
 76
     1
 77
     6
 78
     2
 67
     7
 79
     3
170
     0
171
     0
290
     0
174
     0
 93
       13
 44
0.0
173
     0
291
     0
 45
0.0
  0
DICTIONARYVAR
  5
181
102
{ACAD_REACTORS
330
180
102
}
330
180
100
DictionaryVariables
280
     0
  1
1:1
  0
DICTIONARYVAR
  5
187
102
{ACAD_REACTORS
330
180
102
}
330
180
100
DictionaryVariables
280
     0
  1
Standard
  0
DICTIONARYVAR
  5
186
102
{ACAD_REACTORS
330
180
102
}
330
180
100
DictionaryVariables
280
     0
  1
Standard
  0
DICTIONARY
  5
182
330
6A
100
AcDbDictionary
280
     1
281
     1
  3
ACAD_ROUNDTRIP_2008_TABLESTYLE_CELLSTYLEMAP
360
183
  0
CELLSTYLEMAP
  5
183
102
{ACAD_REACTORS
330
182
102
}
330
182
100
AcDbCellStyleMap
 90
        3
300
CELLSTYLE
  1
TABLEFORMAT_BEGIN
 90
        5
170
     1
 91
        0
 92
    32768
 62
   257
 93
        1
300
CONTENTFORMAT
  1
CONTENTFORMAT_BEGIN
 90
        0
 91
        0
 92
        4
 93
        0
300

 40
0.0
140
1.0
 94
        5
 62
     0
340
11
144
0.25
309
CONTENTFORMAT_END
171
     1
301
MARGIN
  1
CELLMARGIN_BEGIN
 40
0.06
 40
0.06
 40
0.06
 40
0.06
 40
0.06
 40
0.06
309
CELLMARGIN_END
 94
        6
 95
        1
302
GRIDFORMAT
  1
GRIDFORMAT_BEGIN
 90
        0
 91
        1
 62
     0
 92
       -2
340
14
 93
        0
 40
0.045
309
GRIDFORMAT_END
 95
        2
302
GRIDFORMAT
  1
GRIDFORMAT_BEGIN
 90
        0
 91
        1
 62
     0
 92
       -2
340
14
 93
        0
 40
0.045
309
GRIDFORMAT_END
 95
        4
302
GRIDFORMAT
  1
GRIDFORMAT_BEGIN
 90
        0
 91
        1
 62
     0
 92
       -2
340
14
 93
        0
 40
0.045
309
GRIDFORMAT_END
 95
        8
302
GRIDFORMAT
  1
GRIDFORMAT_BEGIN
 90
        0
 91
        1
 62
     0
 92
       -2
340
14
 93
        0
 40
0.045
309
GRIDFORMAT_END
 95
       16
302
GRIDFORMAT
  1
GRIDFORMAT_BEGIN
 90
        0
 91
        1
 62
     0
 92
       -2
340
14
 93
        0
 40
0.045
309
GRIDFORMAT_END
 95
       32
302
GRIDFORMAT
  1
GRIDFORMAT_BEGIN
 90
        0
 91
        1
 62
     0
 92
       -2
340
14
 93
        0
 40
0.045
309
GRIDFORMAT_END
309
TABLEFORMAT_END
  1
CELLSTYLE_BEGIN
 90
        1
 91
        1
300
_TITLE
309
CELLSTYLE_END
300
CELLSTYLE
  1
TABLEFORMAT_BEGIN
 90
        5
170
     1
 91
        0
 92
        0
 62
   257
 93
        1
300
CONTENTFORMAT
  1
CONTENTFORMAT_BEGIN
 90
        0
 91
        0
 92
        4
 93
        0
300

 40
0.0
140
1.0
 94
        5
 62
     0
340
11
144
0.18
309
CONTENTFORMAT_END
171
     1
301
MARGIN
  1
CELLMARGIN_BEGIN
 40
0.06
 40
0.06
 40
0.06
 40
0.06
 40
0.06
 40
0.06
309
CELLMARGIN_END
 94
        6
 95
        1
302
GRIDFORMAT
  1
GRIDFORMAT_BEGIN
 90
        0
 91
        1
 62
     0
 92
       -2
340
14
 93
        0
 40
0.045
309
GRIDFORMAT_END
 95
        2
302
GRIDFORMAT
  1
GRIDFORMAT_BEGIN
 90
        0
 91
        1
 62
     0
 92
       -2
340
14
 93
        0
 40
0.045
309
GRIDFORMAT_END
 95
        4
302
GRIDFORMAT
  1
GRIDFORMAT_BEGIN
 90
        0
 91
        1
 62
     0
 92
       -2
340
14
 93
        0
 40
0.045
309
GRIDFORMAT_END
 95
        8
302
GRIDFORMAT
  1
GRIDFORMAT_BEGIN
 90
        0
 91
        1
 62
     0
 92
       -2
340
14
 93
        0
 40
0.045
309
GRIDFORMAT_END
 95
       16
302
GRIDFORMAT
  1
GRIDFORMAT_BEGIN
 90
        0
 91
        1
 62
     0
 92
       -2
340
14
 93
        0
 40
0.045
309
GRIDFORMAT_END
 95
       32
302
GRIDFORMAT
  1
GRIDFORMAT_BEGIN
 90
        0
 91
        1
 62
     0
 92
       -2
340
14
 93
        0
 40
0.045
309
GRIDFORMAT_END
309
TABLEFORMAT_END
  1
CELLSTYLE_BEGIN
 90
        2
 91
        1
300
_HEADER
309
CELLSTYLE_END
300
CELLSTYLE
  1
TABLEFORMAT_BEGIN
 90
        5
170
     1
 91
        0
 92
        0
 62
   257
 93
        1
300
CONTENTFORMAT
  1
CONTENTFORMAT_BEGIN
 90
        0
 91
        0
 92
        4
 93
        0
300

 40
0.0
140
1.0
 94
        2
 62
     0
340
11
144
0.18
309
CONTENTFORMAT_END
171
     1
301
MARGIN
  1
CELLMARGIN_BEGIN
 40
0.06
 40
0.06
 40
0.06
 40
0.06
 40
0.06
 40
0.06
309
CELLMARGIN_END
 94
        6
 95
        1
302
GRIDFORMAT
  1
GRIDFORMAT_BEGIN
 90
        0
 91
        1
 62
     0
 92
       -2
340
14
 93
        0
 40
0.045
309
GRIDFORMAT_END
 95
        2
302
GRIDFORMAT
  1
GRIDFORMAT_BEGIN
 90
        0
 91
        1
 62
     0
 92
       -2
340
14
 93
        0
 40
0.045
309
GRIDFORMAT_END
 95
        4
302
GRIDFORMAT
  1
GRIDFORMAT_BEGIN
 90
        0
 91
        1
 62
     0
 92
       -2
340
14
 93
        0
 40
0.045
309
GRIDFORMAT_END
 95
        8
302
GRIDFORMAT
  1
GRIDFORMAT_BEGIN
 90
        0
 91
        1
 62
     0
 92
       -2
340
14
 93
        0
 40
0.045
309
GRIDFORMAT_END
 95
       16
302
GRIDFORMAT
  1
GRIDFORMAT_BEGIN
 90
        0
 91
        1
 62
     0
 92
       -2
340
14
 93
        0
 40
0.045
309
GRIDFORMAT_END
 95
       32
302
GRIDFORMAT
  1
GRIDFORMAT_BEGIN
 90
        0
 91
        1
 62
     0
 92
       -2
340
14
 93
        0
 40
0.045
309
GRIDFORMAT_END
309
TABLEFORMAT_END
  1
CELLSTYLE_BEGIN
 90
        3
 91
        2
300
_DATA
309
CELLSTYLE_END
  0
ENDSEC
  0
EOF
