  0
SECTION
  2
HEADER
  9
$ACADVER
  1
AC1015
  9
$ACADMAINTVER
 70
     6
  9
$DWGCODEPAGE
  3
ANSI_1252
  9
$INSBASE
 10
0.0
 20
0.0
 30
0.0
  9
$EXTMIN
 10
0.0
 20
0.0
 30
0.0
  9
$EXTMAX
 10
34.0
 20
22.0
 30
0.0
  9
$LIMMIN
 10
0.0
 20
0.0
  9
$LIMMAX
 10
34.0
 20
22.0
  9
$ORTHOMODE
 70
     0
  9
$REGENMODE
 70
     1
  9
$FILLMODE
 70
     1
  9
$QTEXTMODE
 70
     0
  9
$MIRRTEXT
 70
     1
  9
$LTSCALE
 40
1.0
  9
$ATTMODE
 70
     1
  9
$TEXTSIZE
 40
0.2777777778
  9
$TRACEWID
 40
0.05
  9
$TEXTSTYLE
  7
Standard
  9
$CLAYER
  8
0
  9
$CELTYPE
  6
ByLayer
  9
$CECOLOR
 62
   256
  9
$CELTSCALE
 40
1.0
  9
$DISPSILH
 70
     0
  9
$DIMSCALE
 40
1.0
  9
$DIMASZ
 40
0.3640136719
  9
$DIMEXO
 40
0.05
  9
$DIMDLI
 40
0.38
  9
$DIMRND
 40
0.0
  9
$DIMDLE
 40
0.0
  9
$DIMEXE
 40
0.125
  9
$DIMTP
 40
0.0
  9
$DIMTM
 40
0.0
  9
$DIMTXT
 40
0.5
  9
$DIMCEN
 40
0.09
  9
$DIMTSZ
 40
0.0
  9
$DIMTOL
 70
     0
  9
$DIMLIM
 70
     0
  9
$DIMTIH
 70
     1
  9
$DIMTOH
 70
     1
  9
$DIMSE1
 70
     0
  9
$DIMSE2
 70
     0
  9
$DIMTAD
 70
     0
  9
$DIMZIN
 70
     0
  9
$DIMBLK
  1

  9
$DIMASO
 70
     1
  9
$DIMSHO
 70
     1
  9
$DIMPOST
  1

  9
$DIMAPOST
  1

  9
$DIMALT
 70
     0
  9
$DIMALTD
 70
     2
  9
$DIMALTF
 40
25.4
  9
$DIMLFAC
 40
1.0
  9
$DIMTOFL
 70
     0
  9
$DIMTVP
 40
0.0
  9
$DIMTIX
 70
     0
  9
$DIMSOXD
 70
     0
  9
$DIMSAH
 70
     0
  9
$DIMBLK1
  1

  9
$DIMBLK2
  1

  9
$DIMSTYLE
  2
Standard
  9
$DIMCLRD
 70
     0
  9
$DIMCLRE
 70
     0
  9
$DIMCLRT
 70
     0
  9
$DIMTFAC
 40
1.0
  9
$DIMGAP
 40
0.06
  9
$DIMJUST
 70
     0
  9
$DIMSD1
 70
     0
  9
$DIMSD2
 70
     0
  9
$DIMTOLJ
 70
     1
  9
$DIMTZIN
 70
     0
  9
$DIMALTZ
 70
     0
  9
$DIMALTTZ
 70
     0
  9
$DIMUPT
 70
     0
  9
$DIMDEC
 70
     3
  9
$DIMTDEC
 70
     3
  9
$DIMALTU
 70
     2
  9
$DIMALTTD
 70
     2
  9
$DIMTXSTY
  7
Standard
  9
$DIMAUNIT
 70
     0
  9
$DIMADEC
 70
     1
  9
$DIMALTRND
 40
0.0
  9
$DIMAZIN
 70
     0
  9
$DIMDSEP
 70
    46
  9
$DIMATFIT
 70
     3
  9
$DIMFRAC
 70
     0
  9
$DIMLDRBLK
  1

  9
$DIMLUNIT
 70
     2
  9
$DIMLWD
 70
    -2
  9
$DIMLWE
 70
    -2
  9
$DIMTMOVE
 70
     0
  9
$LUNITS
 70
     2
  9
$LUPREC
 70
     3
  9
$SKETCHINC
 40
0.1
  9
$FILLETRAD
 40
0.0
  9
$AUNITS
 70
     0
  9
$AUPREC
 70
     1
  9
$MENU
  1
.
  9
$ELEVATION
 40
0.0
  9
$PELEVATION
 40
0.0
  9
$THICKNESS
 40
0.0
  9
$LIMCHECK
 70
     0
  9
$CHAMFERA
 40
0.0
  9
$CHAMFERB
 40
0.0
  9
$CHAMFERC
 40
0.0
  9
$CHAMFERD
 40
0.0
  9
$SKPOLY
 70
     0
  9
$TDCREATE
 40
2460838.643031111
  9
$TDUCREATE
 40
2460838.851364444
  9
$TDUPDATE
 40
2460838.643031852
  9
$TDUUPDATE
 40
2460838.851365185
  9
$TDINDWG
 40
0.0000000116
  9
$TDUSRTIMER
 40
0.0000000116
  9
$USRTIMER
 70
     1
  9
$ANGBASE
 50
0.0
  9
$ANGDIR
 70
     0
  9
$PDMODE
 70
     0
  9
$PDSIZE
 40
-1.0
  9
$PLINEWID
 40
0.0
  9
$SPLFRAME
 70
     0
  9
$SPLINETYPE
 70
     6
  9
$SPLINESEGS
 70
     8
  9
$HANDSEED
  5
16F
  9
$SURFTAB1
 70
     6
  9
$SURFTAB2
 70
     6
  9
$SURFTYPE
 70
     6
  9
$SURFU
 70
     6
  9
$SURFV
 70
     6
  9
$UCSBASE
  2

  9
$UCSNAME
  2

  9
$UCSORG
 10
0.0
 20
0.0
 30
0.0
  9
$UCSXDIR
 10
1.0
 20
0.0
 30
0.0
  9
$UCSYDIR
 10
0.0
 20
1.0
 30
0.0
  9
$UCSORTHOREF
  2

  9
$UCSORTHOVIEW
 70
     0
  9
$UCSORGTOP
 10
0.0
 20
0.0
 30
0.0
  9
$UCSORGBOTTOM
 10
0.0
 20
0.0
 30
0.0
  9
$UCSORGLEFT
 10
0.0
 20
0.0
 30
0.0
  9
$UCSORGRIGHT
 10
0.0
 20
0.0
 30
0.0
  9
$UCSORGFRONT
 10
0.0
 20
0.0
 30
0.0
  9
$UCSORGBACK
 10
0.0
 20
0.0
 30
0.0
  9
$PUCSBASE
  2

  9
$PUCSNAME
  2

  9
$PUCSORG
 10
0.0
 20
0.0
 30
0.0
  9
$PUCSXDIR
 10
1.0
 20
0.0
 30
0.0
  9
$PUCSYDIR
 10
0.0
 20
1.0
 30
0.0
  9
$PUCSORTHOREF
  2

  9
$PUCSORTHOVIEW
 70
     0
  9
$PUCSORGTOP
 10
0.0
 20
0.0
 30
0.0
  9
$PUCSORGBOTTOM
 10
0.0
 20
0.0
 30
0.0
  9
$PUCSORGLEFT
 10
0.0
 20
0.0
 30
0.0
  9
$PUCSORGRIGHT
 10
0.0
 20
0.0
 30
0.0
  9
$PUCSORGFRONT
 10
0.0
 20
0.0
 30
0.0
  9
$PUCSORGBACK
 10
0.0
 20
0.0
 30
0.0
  9
$USERI1
 70
     0
  9
$USERI2
 70
     0
  9
$USERI3
 70
     0
  9
$USERI4
 70
     0
  9
$USERI5
 70
     0
  9
$USERR1
 40
0.0
  9
$USERR2
 40
0.0
  9
$USERR3
 40
0.0
  9
$USERR4
 40
0.0
  9
$USERR5
 40
0.0
  9
$WORLDVIEW
 70
     1
  9
$SHADEDGE
 70
     3
  9
$SHADEDIF
 70
    70
  9
$TILEMODE
 70
     1
  9
$MAXACTVP
 70
    64
  9
$PINSBASE
 10
0.0
 20
0.0
 30
0.0
  9
$PLIMCHECK
 70
     0
  9
$PEXTMIN
 10
1.0000000000E+20
 20
1.0000000000E+20
 30
1.0000000000E+20
  9
$PEXTMAX
 10
-1.0000000000E+20
 20
-1.0000000000E+20
 30
-1.0000000000E+20
  9
$PLIMMIN
 10
0.0
 20
0.0
  9
$PLIMMAX
 10
12.0
 20
9.0
  9
$UNITMODE
 70
     0
  9
$VISRETAIN
 70
     1
  9
$PLINEGEN
 70
     0
  9
$PSLTSCALE
 70
     1
  9
$TREEDEPTH
 70
  3020
  9
$CMLSTYLE
  2
Standard
  9
$CMLJUST
 70
     0
  9
$CMLSCALE
 40
1.0
  9
$PROXYGRAPHICS
 70
     1
  9
$MEASUREMENT
 70
     0
  9
$CELWEIGHT
370
    -1
  9
$ENDCAPS
280
     0
  9
$JOINSTYLE
280
     0
  9
$LWDISPLAY
290
     1
  9
$INSUNITS
 70
     1
  9
$HYPERLINKBASE
  1

  9
$STYLESHEET
  1

  9
$XEDIT
290
     1
  9
$CEPSNTYPE
380
     0
  9
$PSTYLEMODE
290
     1
  9
$FINGERPRINTGUID
  2
{b76a8ccd-6c89-4d8e-b885-252eee90ef5d}
  9
$VERSIONGUID
  2
{FAEB1C32-E019-11D5-929B-00C0DF256EC4}
  9
$EXTNAMES
290
     1
  9
$PSVPSCALE
 40
0.0
  9
$OLESTARTUP
290
     0
  0
ENDSEC
  0
SECTION
  2
CLASSES
  0
CLASS
  1
ACDBDICTIONARYWDFLT
  2
AcDbDictionaryWithDefault
  3
ObjectDBX Classes
 90
        0
280
     0
281
     0
  0
CLASS
  1
VISUALSTYLE
  2
AcDbVisualStyle
  3
ObjectDBX Classes
 90
     4095
280
     0
281
     0
  0
CLASS
  1
MATERIAL
  2
AcDbMaterial
  3
ObjectDBX Classes
 90
     1153
280
     0
281
     0
  0
CLASS
  1
SCALE
  2
AcDbScale
  3
ObjectDBX Classes
 90
     1153
280
     0
281
     0
  0
CLASS
  1
TABLESTYLE
  2
AcDbTableStyle
  3
ObjectDBX Classes
 90
     4095
280
     0
281
     0
  0
CLASS
  1
MLEADERSTYLE
  2
AcDbMLeaderStyle
  3
ACDB_MLEADERSTYLE_CLASS
 90
     4095
280
     0
281
     0
  0
CLASS
  1
SUN
  2
AcDbSun
  3
SCENEOE
 90
     1153
280
     0
281
     0
  0
CLASS
  1
ACDBPLACEHOLDER
  2
AcDbPlaceHolder
  3
ObjectDBX Classes
 90
        0
280
     0
281
     0
  0
CLASS
  1
LAYOUT
  2
AcDbLayout
  3
ObjectDBX Classes
 90
        0
280
     0
281
     0
  0
ENDSEC
  0
SECTION
  2
TABLES
  0
TABLE
  2
VPORT
  5
8
330
0
100
AcDbSymbolTable
 70
     1
  0
VPORT
  5
29
330
8
100
AcDbSymbolTableRecord
100
AcDbViewportTableRecord
  2
*Active
 70
     0
 10
0.0
 20
0.0
 11
1.0
 21
1.0
 12
17.0
 22
11.0
 13
0.0
 23
0.0
 14
0.5
 24
0.5
 15
0.5
 25
0.5
 16
0.0
 26
0.0
 36
1.0
 17
0.0
 27
0.0
 37
0.0
 40
22.0
 41
1.5454545455
 42
50.0
 43
0.0
 44
0.0
 50
0.0
 51
0.0
 71
     0
 72
  2000
 73
     1
 74
     3
 75
     0
 76
     0
 77
     0
 78
     0
281
     0
 65
     1
110
0.0
120
0.0
130
0.0
111
1.0
121
0.0
131
0.0
112
0.0
122
1.0
132
0.0
 79
     0
146
0.0
  0
ENDTAB
  0
TABLE
  2
LTYPE
  5
5
330
0
100
AcDbSymbolTable
 70
     6
  0
LTYPE
  5
14
330
5
100
AcDbSymbolTableRecord
100
AcDbLinetypeTableRecord
  2
ByBlock
 70
     0
  3

 72
    65
 73
     0
 40
0.0
  0
LTYPE
  5
15
330
5
100
AcDbSymbolTableRecord
100
AcDbLinetypeTableRecord
  2
ByLayer
 70
     0
  3

 72
    65
 73
     0
 40
0.0
  0
LTYPE
  5
16
330
5
100
AcDbSymbolTableRecord
100
AcDbLinetypeTableRecord
  2
Continuous
 70
     0
  3
Solid line
 72
    65
 73
     0
 40
0.0
  0
LTYPE
  5
5E
330
5
100
AcDbSymbolTableRecord
100
AcDbLinetypeTableRecord
  2
HIDDEN
 70
     0
  3
Hidden __ __ __ __ __ __ __ __ __ __ __ __ __ __
 72
    65
 73
     2
 40
0.075
 49
0.05
 74
     0
 49
-0.025
 74
     0
  0
LTYPE
  5
5F
330
5
100
AcDbSymbolTableRecord
100
AcDbLinetypeTableRecord
  2
PHANTOM
 70
     0
  3
Phantom ______  __  __  ______  __  __  ______
 72
    65
 73
     6
 40
0.5
 49
0.25
 74
     0
 49
-0.05
 74
     0
 49
0.05
 74
     0
 49
-0.05
 74
     0
 49
0.05
 74
     0
 49
-0.05
 74
     0
  0
LTYPE
  5
60
330
5
100
AcDbSymbolTableRecord
100
AcDbLinetypeTableRecord
  2
CENTER
 70
     0
  3
Center ____ _ ____ _ ____ _ ____ _ ____ _ ____
 72
    65
 73
     4
 40
0.4
 49
0.25
 74
     0
 49
-0.05
 74
     0
 49
0.05
 74
     0
 49
-0.05
 74
     0
  0
LTYPE
  5
61
330
5
100
AcDbSymbolTableRecord
100
AcDbLinetypeTableRecord
  2
CENTERX2
 70
     0
  3
Center (2x) ________  __  ________  __  _____
 72
    65
 73
     4
 40
0.8
 49
0.5
 74
     0
 49
-0.1
 74
     0
 49
0.1
 74
     0
 49
-0.1
 74
     0
  0
LTYPE
  5
62
330
5
100
AcDbSymbolTableRecord
100
AcDbLinetypeTableRecord
  2
DOT2
 70
     0
  3
Dot (.5x) ........................................
 72
    65
 73
     2
 40
0.025
 49
0.0
 74
     0
 49
-0.025
 74
     0
  0
ENDTAB
  0
TABLE
  2
LAYER
  5
2
330
0
100
AcDbSymbolTable
 70
     9
  0
LAYER
  5
10
330
2
100
AcDbSymbolTableRecord
100
AcDbLayerTableRecord
  2
0
 70
     0
 62
     7
  6
Continuous
370
    -3
390
F
  0
LAYER
  5
63
330
2
100
AcDbSymbolTableRecord
100
AcDbLayerTableRecord
  2
SLD-0
 70
     0
 62
   179
  6
Continuous
370
    -3
390
F
  0
LAYER
  5
64
330
2
100
AcDbSymbolTableRecord
100
AcDbLayerTableRecord
  2
OBJECTS
 70
     0
 62
     5
  6
Continuous
370
    -3
390
F
  0
LAYER
  5
65
330
2
100
AcDbSymbolTableRecord
100
AcDbLayerTableRecord
  2
DIMS
 70
     0
 62
     1
  6
Continuous
370
    -3
390
F
  0
LAYER
  5
66
330
2
100
AcDbSymbolTableRecord
100
AcDbLayerTableRecord
  2
NOTES
 70
     0
 62
     7
  6
Continuous
370
    -3
390
F
  0
LAYER
  5
67
330
2
100
AcDbSymbolTableRecord
100
AcDbLayerTableRecord
  2
IMAGES
 70
     0
 62
     7
  6
Continuous
370
    -3
390
F
  0
LAYER
  5
68
330
2
100
AcDbSymbolTableRecord
100
AcDbLayerTableRecord
  2
CENTERLINES
 70
     0
 62
     7
  6
HIDDEN
370
    -3
390
F
  0
LAYER
  5
69
330
2
100
AcDbSymbolTableRecord
100
AcDbLayerTableRecord
  2
BLOCKS
 70
     0
 62
    16
  6
Continuous
370
    -3
390
F
  0
LAYER
  5
6A
330
2
100
AcDbSymbolTableRecord
100
AcDbLayerTableRecord
  2
DIMENSIONS
 70
     0
 62
     1
  6
Continuous
370
    -3
390
F
  0
ENDTAB
  0
TABLE
  2
STYLE
  5
3
330
0
100
AcDbSymbolTable
 70
     2
  0
STYLE
  5
11
330
3
100
AcDbSymbolTableRecord
100
AcDbTextStyleTableRecord
  2
Standard
 70
     0
 40
0.0
 41
1.0
 50
0.0
 71
     0
 42
0.2777777778
  3
txt
  4

  0
STYLE
  5
7B
330
3
100
AcDbSymbolTableRecord
100
AcDbTextStyleTableRecord
  2
SLDTEXTSTYLE0
 70
     0
 40
0.0
 41
0.605
 50
0.0
 71
     0
 42
0.2777777778
  3
TXT
  4

  0
ENDTAB
  0
TABLE
  2
VIEW
  5
6
330
0
100
AcDbSymbolTable
 70
     0
  0
ENDTAB
  0
TABLE
  2
UCS
  5
7
330
0
100
AcDbSymbolTable
 70
     0
  0
ENDTAB
  0
TABLE
  2
APPID
  5
9
330
0
100
AcDbSymbolTable
 70
     1
  0
APPID
  5
12
330
9
100
AcDbSymbolTableRecord
100
AcDbRegAppTableRecord
  2
ACAD
 70
     0
  0
ENDTAB
  0
TABLE
  2
DIMSTYLE
  5
A
330
0
100
AcDbSymbolTable
 70
     5
100
AcDbDimStyleTable
  0
DIMSTYLE
105
27
330
A
100
AcDbSymbolTableRecord
100
AcDbDimStyleTableRecord
  2
Standard
 70
     0
178
     0
340
11
  0
DIMSTYLE
105
10E
102
{ACAD_REACTORS
330
10D
102
}
330
A
100
AcDbSymbolTableRecord
100
AcDbDimStyleTableRecord
  2
SLDDIMSTYLE0
 70
     0
 41
0.3640136719
 44
0.0
 45
0.000000001
 78
    12
 79
     3
140
0.3640136719
141
0.0
147
0.091003418
148
0.000000001
170
     1
171
     0
173
     1
178
     0
271
     3
272
     3
274
     0
276
     2
277
     5
279
     1
284
    12
340
7B
  0
DIMSTYLE
105
122
102
{ACAD_REACTORS
330
121
330
132
102
}
330
A
100
AcDbSymbolTableRecord
100
AcDbDimStyleTableRecord
  2
SLDDIMSTYLE1
 70
     0
 41
0.3640136719
 44
0.0
 45
0.000000001
 78
    12
 79
     3
140
0.3640136719
147
0.091003418
148
0.000000001
170
     1
171
     0
173
     1
178
     0
271
     3
272
     3
274
     0
276
     2
277
     5
284
    12
340
7B
  0
DIMSTYLE
105
143
102
{ACAD_REACTORS
330
142
102
}
330
A
100
AcDbSymbolTableRecord
100
AcDbDimStyleTableRecord
  2
SLDDIMSTYLE2
 70
     0
 41
0.3640136719
 44
0.0
 45
0.000000001
 78
    12
 79
     3
140
0.3640136719
147
0.091003418
148
0.000000001
170
     1
171
     0
172
     1
173
     1
178
     0
271
     6
272
     3
274
     0
276
     2
277
     5
284
    12
289
     0
340
7B
  0
DIMSTYLE
105
159
330
A
100
AcDbSymbolTableRecord
100
AcDbDimStyleTableRecord
  2
SLDDIMSTYLE3
 70
     0
 41
0.3640136719
 44
0.0
 45
0.000000001
146
0.3640136719
147
0.0
173
     1
178
     0
271
     0
272
     0
276
     2
277
     5
340
11
  0
ENDTAB
  0
TABLE
  2
BLOCK_RECORD
  5
1
330
0
100
AcDbSymbolTable
 70
     9
  0
BLOCK_RECORD
  5
1F
330
1
100
AcDbSymbolTableRecord
100
AcDbBlockTableRecord
  2
*Model_Space
340
22
  0
BLOCK_RECORD
  5
1B
330
1
100
AcDbSymbolTableRecord
100
AcDbBlockTableRecord
  2
*Paper_Space
340
1E
  0
BLOCK_RECORD
  5
23
330
1
100
AcDbSymbolTableRecord
100
AcDbBlockTableRecord
  2
*Paper_Space0
340
26
  0
BLOCK_RECORD
  5
6B
330
1
100
AcDbSymbolTableRecord
100
AcDbBlockTableRecord
  2
SW_BLOCK_DIMENSION_0
340
0
102
{BLKREFS
331
FF
102
}
  0
BLOCK_RECORD
  5
78
330
1
100
AcDbSymbolTableRecord
100
AcDbBlockTableRecord
  2
SW_NOTE_0
340
0
102
{BLKREFS
331
7D
102
}
  0
BLOCK_RECORD
  5
7E
330
1
100
AcDbSymbolTableRecord
100
AcDbBlockTableRecord
  2
SW_NOTE_0_1
340
0
102
{BLKREFS
331
82
102
}
  0
BLOCK_RECORD
  5
83
330
1
100
AcDbSymbolTableRecord
100
AcDbBlockTableRecord
  2
REVEAL_-__125
340
0
102
{BLKREFS
331
10C
102
}
  0
BLOCK_RECORD
  5
10F
330
1
100
AcDbSymbolTableRecord
100
AcDbBlockTableRecord
  2
_D
340
0
  0
BLOCK_RECORD
  5
123
330
1
100
AcDbSymbolTableRecord
100
AcDbBlockTableRecord
  2
_D_1
340
0
  0
BLOCK_RECORD
  5
133
330
1
100
AcDbSymbolTableRecord
100
AcDbBlockTableRecord
  2
_D_2
340
0
  0
BLOCK_RECORD
  5
144
330
1
100
AcDbSymbolTableRecord
100
AcDbBlockTableRecord
  2
_D_3
340
0
  0
ENDTAB
  0
ENDSEC
  0
SECTION
  2
BLOCKS
  0
BLOCK
  5
20
330
1F
100
AcDbEntity
  8
0
100
AcDbBlockBegin
  2
*Model_Space
 70
     0
 10
0.0
 20
0.0
 30
0.0
  3
*Model_Space
  1

  0
ENDBLK
  5
21
330
1F
100
AcDbEntity
  8
0
100
AcDbBlockEnd
  0
BLOCK
  5
1C
330
1B
100
AcDbEntity
 67
     1
  8
0
100
AcDbBlockBegin
  2
*Paper_Space
 70
     0
 10
0.0
 20
0.0
 30
0.0
  3
*Paper_Space
  1

  0
ENDBLK
  5
1D
330
1B
100
AcDbEntity
 67
     1
  8
0
100
AcDbBlockEnd
  0
BLOCK
  5
24
330
23
100
AcDbEntity
  8
0
100
AcDbBlockBegin
  2
*Paper_Space0
 70
     0
 10
0.0
 20
0.0
 30
0.0
  3
*Paper_Space0
  1

  0
ENDBLK
  5
25
330
23
100
AcDbEntity
  8
0
100
AcDbBlockEnd
  0
BLOCK
  5
6C
330
6B
100
AcDbEntity
  8
0
100
AcDbBlockBegin
  2
SW_BLOCK_DIMENSION_0
 70
     0
 10
0.0
 20
0.0
 30
0.0
  3
SW_BLOCK_DIMENSION_0
  1

  0
LINE
  5
6E
330
6B
100
AcDbEntity
  8
BLOCKS
100
AcDbLine
 10
0.079089508
 20
-0.0231481486
 30
0.0
 11
0.0559413594
 21
-0.0231481486
 31
0.0
  0
LINE
  5
6F
330
6B
100
AcDbEntity
  8
BLOCKS
100
AcDbLine
 10
0.0559413594
 20
-0.0231481486
 30
0.0
 11
0.0559413594
 21
-0.1784336481
 31
0.0
  0
LINE
  5
70
330
6B
100
AcDbEntity
  8
BLOCKS
100
AcDbLine
 10
0.0559413594
 20
-0.1784336481
 30
0.0
 11
0.079089508
 21
-0.1784336481
 31
0.0
  0
LINE
  5
71
330
6B
100
AcDbEntity
  8
BLOCKS
100
AcDbLine
 10
0.4070216247
 20
-0.0231481486
 30
0.0
 11
0.4301697734
 21
-0.0231481486
 31
0.0
  0
LINE
  5
72
330
6B
100
AcDbEntity
  8
BLOCKS
100
AcDbLine
 10
0.4301697734
 20
-0.0231481486
 30
0.0
 11
0.4301697734
 21
-0.1784336481
 31
0.0
  0
LINE
  5
73
330
6B
100
AcDbEntity
  8
BLOCKS
100
AcDbLine
 10
0.4301697734
 20
-0.1784336481
 30
0.0
 11
0.4070216247
 21
-0.1784336481
 31
0.0
  0
LINE
  5
74
330
6B
100
AcDbEntity
  8
BLOCKS
100
AcDbLine
 10
0.8941623717
 20
-0.9133913004
 30
0.0
 11
0.8941623717
 21
0.1018518422
 31
0.0
  0
LINE
  5
75
330
6B
100
AcDbEntity
  8
BLOCKS
100
AcDbLine
 10
0.630279944
 20
-0.2653153354
 30
0.0
 11
0.630279944
 21
0.1018518422
 31
0.0
  0
LINE
  5
76
330
6B
100
AcDbEntity
  8
BLOCKS
100
AcDbLine
 10
0.8941623717
 20
-0.0231481578
 30
0.0
 11
1.0886141195
 21
-0.0231481578
 31
0.0
  0
LINE
  5
77
330
6B
100
AcDbEntity
  8
BLOCKS
100
AcDbLine
 10
0.630279944
 20
-0.0231481578
 30
0.0
 11
0.4867977184
 21
-0.0231481578
 31
0.0
  0
INSERT
  5
7D
330
6B
100
AcDbEntity
  8
BLOCKS
 62
    16
100
AcDbBlockReference
  2
SW_NOTE_0
 10
0.1466049406
 20
-0.000270725
 30
0.0
  0
INSERT
  5
82
330
6B
100
AcDbEntity
  8
BLOCKS
 62
    16
100
AcDbBlockReference
  2
SW_NOTE_0_1
 10
0.1080246921
 20
-0.1787043663
 30
0.0
  0
ENDBLK
  5
6D
330
6B
100
AcDbEntity
  8
0
100
AcDbBlockEnd
  0
BLOCK
  5
79
330
78
100
AcDbEntity
  8
0
100
AcDbBlockBegin
  2
SW_NOTE_0
 70
     0
 10
0.0
 20
0.0
 30
0.0
  3
SW_NOTE_0
  1

  0
MTEXT
  5
7C
330
78
100
AcDbEntity
  8
BLOCKS
 62
     0
100
AcDbMText
 10
0.0
 20
0.1342778896
 30
0.0
 40
0.1041666667
 41
0.0
 71
     1
 72
     1
  1
1/8
  7
SLDTEXTSTYLE0
 73
     1
 44
1.0
  0
ENDBLK
  5
7A
330
78
100
AcDbEntity
  8
0
100
AcDbBlockEnd
  0
BLOCK
  5
7F
330
7E
100
AcDbEntity
  8
0
100
AcDbBlockBegin
  2
SW_NOTE_0_1
 70
     0
 10
0.0
 20
0.0
 30
0.0
  3
SW_NOTE_0_1
  1

  0
MTEXT
  5
81
330
7E
100
AcDbEntity
  8
BLOCKS
 62
     0
100
AcDbMText
 10
0.0
 20
0.1342778896
 30
0.0
 40
0.1041666667
 41
0.0
 71
     1
 72
     1
  1
3.20
  7
SLDTEXTSTYLE0
 73
     1
 44
1.0
  0
ENDBLK
  5
80
330
7E
100
AcDbEntity
  8
0
100
AcDbBlockEnd
  0
BLOCK
  5
84
330
83
100
AcDbEntity
  8
0
100
AcDbBlockBegin
  2
REVEAL_-__125
 70
     0
 10
0.0
 20
0.0
 30
0.0
  3
REVEAL_-__125
  1

  0
ARC
  5
86
330
83
100
AcDbEntity
  8
BLOCKS
100
AcDbCircle
 10
-1.4047720451
 20
-12.8442954347
 30
0.0
 40
0.2333367804802293
100
AcDbArc
 50
0.0
 51
90.0
  0
ARC
  5
87
330
83
100
AcDbEntity
  8
BLOCKS
100
AcDbCircle
 10
-1.4394760169
 20
-12.1962194696
 30
0.0
 40
0.0041583245038854
100
AcDbArc
 50
0.0
 51
90.0
  0
ARC
  5
88
330
83
100
AcDbEntity
  8
BLOCKS
100
AcDbCircle
 10
-2.2191634439
 20
-12.7398388164
 30
0.0
 40
0.0881257319589155
100
AcDbArc
 50
200.9822712638
 51
339.0177287362
  0
ARC
  5
89
330
83
100
AcDbEntity
  8
BLOCKS
100
AcDbCircle
 10
-1.4047720451
 20
-12.8442954347
 30
0.0
 40
0.1874525384626438
100
AcDbArc
 50
0.0
 51
90.0
  0
LINE
  5
8A
330
83
100
AcDbEntity
  8
BLOCKS
100
AcDbLine
 10
-1.4394760169
 20
-12.1920611451
 30
0.0
 11
-3.01526606
 21
-12.1920611451
 31
0.0
  0
LINE
  5
8B
330
83
100
AcDbEntity
  8
BLOCKS
100
AcDbLine
 10
-2.9855824064
 20
-12.587244826
 30
0.0
 11
-1.4353176924
 21
-12.5884178222
 31
0.0
  0
LINE
  5
8C
330
83
100
AcDbEntity
  8
BLOCKS
100
AcDbLine
 10
-1.9656725284
 20
-12.6109586542
 30
0.0
 11
-1.4047720451
 21
-12.6109586542
 31
0.0
  0
LINE
  5
8D
330
83
100
AcDbEntity
  8
BLOCKS
100
AcDbLine
 10
-1.1714352646
 20
-12.8442954347
 30
0.0
 11
-1.1714352646
 21
-13.2310110215
 31
0.0
  0
LINE
  5
8E
330
83
100
AcDbEntity
  8
BLOCKS
100
AcDbLine
 10
-1.1714352646
 20
-13.2310110215
 30
0.0
 11
-1.2173195066
 21
-13.2310110215
 31
0.0
  0
LINE
  5
8F
330
83
100
AcDbEntity
  8
BLOCKS
100
AcDbLine
 10
-1.2173195066
 20
-13.2310110215
 30
0.0
 11
-1.2173195066
 21
-12.8442954347
 31
0.0
  0
LINE
  5
90
330
83
100
AcDbEntity
  8
BLOCKS
100
AcDbLine
 10
-1.4047720451
 20
-12.6568428962
 30
0.0
 11
-1.9656725284
 21
-12.6568428962
 31
0.0
  0
LINE
  5
91
330
83
100
AcDbEntity
  8
BLOCKS
100
AcDbLine
 10
-1.9656725284
 20
-12.6568428962
 30
0.0
 11
-1.9656725284
 21
-12.6109586542
 31
0.0
  0
LINE
  5
92
330
83
100
AcDbEntity
  8
BLOCKS
100
AcDbLine
 10
-1.5885264144
 20
-12.7093957625
 30
0.0
 11
-1.5358283025
 21
-12.6587686221
 31
0.0
  0
LINE
  5
93
330
83
100
AcDbEntity
  8
BLOCKS
100
AcDbLine
 10
-1.5358283025
 20
-12.6587686221
 30
0.0
 11
-1.4932052497
 21
-12.7031352284
 31
0.0
  0
LINE
  5
94
330
83
100
AcDbEntity
  8
BLOCKS
100
AcDbLine
 10
-1.4932052497
 20
-12.7031352284
 30
0.0
 11
-1.562140852
 21
-12.7693617458
 31
0.0
  0
LINE
  5
95
330
83
100
AcDbEntity
  8
BLOCKS
100
AcDbLine
 10
-2.8296332645
 20
-12.6419825586
 30
0.0
 11
-2.8821446813
 21
-12.5873230914
 31
0.0
  0
LINE
  5
96
330
83
100
AcDbEntity
  8
BLOCKS
100
AcDbLine
 10
-2.8821446813
 20
-12.5873230914
 30
0.0
 11
-2.9245601437
 21
-12.6280716779
 31
0.0
  0
LINE
  5
97
330
83
100
AcDbEntity
  8
BLOCKS
100
AcDbLine
 10
-2.9245601437
 20
-12.6280716779
 30
0.0
 11
-2.8624774729
 21
-12.692693924
 31
0.0
  0
LINE
  5
98
330
83
100
AcDbEntity
  8
BLOCKS
100
AcDbLine
 10
-2.8296332645
 20
-12.6419825586
 30
0.0
 11
-1.5885264144
 21
-12.7093957625
 31
0.0
  0
LINE
  5
99
330
83
100
AcDbEntity
  8
BLOCKS
100
AcDbLine
 10
-1.562140852
 20
-12.7693617458
 30
0.0
 11
-2.8624774729
 21
-12.692693924
 31
0.0
  0
LINE
  5
9A
330
83
100
AcDbEntity
  8
BLOCKS
100
AcDbLine
 10
-2.1393972724
 20
-12.6794741087
 30
0.0
 11
-2.1393972724
 21
-12.7353267185
 31
0.0
  0
LINE
  5
9B
330
83
100
AcDbEntity
  8
BLOCKS
100
AcDbLine
 10
-2.2940106407
 20
-12.671075974
 30
0.0
 11
-2.2940106407
 21
-12.7262107174
 31
0.0
  0
LINE
  5
9C
330
83
100
AcDbEntity
  8
BLOCKS
100
AcDbLine
 10
-2.3014456705
 20
-12.7713947956
 30
0.0
 11
-2.1368812173
 21
-12.7713947956
 31
0.0
  0
LINE
  5
9D
330
83
100
AcDbEntity
  8
BLOCKS
100
AcDbLine
 10
-2.2566740506
 20
-12.381095059
 30
0.0
 11
-2.2566740506
 21
-12.7713947956
 31
0.0
  0
LINE
  5
9E
330
83
100
AcDbEntity
  8
BLOCKS
100
AcDbLine
 10
-2.1797821788
 20
-12.381095059
 30
0.0
 11
-2.1797821788
 21
-12.7713947956
 31
0.0
  0
LINE
  5
9F
330
83
100
AcDbEntity
  8
BLOCKS
100
AcDbLine
 10
-2.3194491289
 20
-12.7273697282
 30
0.0
 11
-2.1070425499
 21
-12.739893216
 31
0.0
  0
LINE
  5
A0
330
83
100
AcDbEntity
  8
BLOCKS
100
AcDbLine
 10
-2.2566740506
 20
-12.381095059
 30
0.0
 11
-2.2187090708
 21
-12.325905678
 31
0.0
  0
LINE
  5
A1
330
83
100
AcDbEntity
  8
BLOCKS
100
AcDbLine
 10
-2.2187090708
 20
-12.325905678
 30
0.0
 11
-2.1797821788
 21
-12.381095059
 31
0.0
  0
LINE
  5
A2
330
83
100
AcDbEntity
  8
BLOCKS
100
AcDbLine
 10
-2.108936665
 20
-12.7720186533
 30
0.0
 11
-2.3213432441
 21
-12.7594951655
 31
0.0
  0
LINE
  5
A3
330
83
100
AcDbEntity
  8
BLOCKS
100
AcDbLine
 10
-2.1070425499
 20
-12.739893216
 30
0.0
 11
-2.108936665
 21
-12.7720186533
 31
0.0
  0
LINE
  5
A4
330
83
100
AcDbEntity
  8
BLOCKS
100
AcDbLine
 10
-2.3194491289
 20
-12.7273697282
 30
0.0
 11
-2.3213432441
 21
-12.7594951655
 31
0.0
  0
LINE
  5
A5
330
83
100
AcDbEntity
  8
BLOCKS
100
AcDbLine
 10
-2.1534117467
 20
-12.5878744817
 30
0.0
 11
-2.1534117467
 21
-12.3074165013
 31
0.0
  0
LINE
  5
A6
330
83
100
AcDbEntity
  8
BLOCKS
100
AcDbLine
 10
-2.1534117467
 20
-12.3074165013
 30
0.0
 11
-2.2799487024
 21
-12.3074165013
 31
0.0
  0
LINE
  5
A7
330
83
100
AcDbEntity
  8
BLOCKS
100
AcDbLine
 10
-2.2799487024
 20
-12.3074165013
 30
0.0
 11
-2.2799487024
 21
-12.5877787385
 31
0.0
  0
LINE
  5
A8
330
83
100
AcDbEntity
  8
BLOCKS
  6
Continuous
100
AcDbLine
 10
-1.4353176924
 20
-12.5884178222
 30
0.0
 11
-1.4353176924
 21
-12.1962194696
 31
0.0
  0
LINE
  5
A9
330
83
100
AcDbEntity
  8
BLOCKS
100
AcDbLine
 10
-1.9656725284
 20
-12.5880165332
 30
0.0
 11
-1.9656725284
 21
-12.6339007752
 31
0.0
  0
LINE
  5
AA
330
83
100
AcDbEntity
  8
BLOCKS
100
AcDbLine
 10
-1.4353176924
 20
-12.5884178222
 30
0.0
 11
-1.4200334992
 21
-12.6109586542
 31
0.0
  0
LINE
  5
AB
330
83
100
AcDbEntity
  8
BLOCKS
 62
    16
100
AcDbLine
 10
-2.9739383892
 20
-12.2547148922
 30
0.0
 11
-2.9112846421
 21
-12.1920611451
 31
0.0
  0
LINE
  5
AC
330
83
100
AcDbEntity
  8
BLOCKS
 62
    16
100
AcDbLine
 10
-2.8947183855
 20
-12.2638832362
 30
0.0
 11
-2.8228962944
 21
-12.1920611451
 31
0.0
  0
LINE
  5
AD
330
83
100
AcDbEntity
  8
BLOCKS
 62
    16
100
AcDbLine
 10
-2.9688871487
 20
-12.3380519994
 30
0.0
 11
-2.9389125593
 21
-12.30807741
 31
0.0
  0
LINE
  5
AE
330
83
100
AcDbEntity
  8
BLOCKS
 62
    16
100
AcDbLine
 10
-2.7731844075
 20
-12.2307376058
 30
0.0
 11
-2.7345079468
 21
-12.1920611451
 31
0.0
  0
LINE
  5
AF
330
83
100
AcDbEntity
  8
BLOCKS
 62
    16
100
AcDbLine
 10
-2.9278640159
 20
-12.3854172142
 30
0.0
 11
-2.8173785813
 21
-12.2749317797
 31
0.0
  0
LINE
  5
B0
330
83
100
AcDbEntity
  8
BLOCKS
 62
    16
100
AcDbLine
 10
-2.996767939
 20
-12.4543211374
 30
0.0
 11
-2.9720581897
 21
-12.429611388
 31
0.0
  0
LINE
  5
B1
330
83
100
AcDbEntity
  8
BLOCKS
 62
    16
100
AcDbLine
 10
-2.6516504294
 20
-12.1975919755
 30
0.0
 11
-2.6461195991
 21
-12.1920611451
 31
0.0
  0
LINE
  5
B2
330
83
100
AcDbEntity
  8
BLOCKS
 62
    16
100
AcDbLine
 10
-2.8063300378
 20
-12.3522715839
 30
0.0
 11
-2.6958446033
 21
-12.2417861493
 31
0.0
  0
LINE
  5
B3
330
83
100
AcDbEntity
  8
BLOCKS
 62
    16
100
AcDbLine
 10
-2.9610096462
 20
-12.5069511922
 30
0.0
 11
-2.8505242117
 21
-12.3964657577
 31
0.0
  0
LINE
  5
B4
330
83
100
AcDbEntity
  8
BLOCKS
 62
    16
100
AcDbLine
 10
-2.6847960598
 20
-12.3191259535
 30
0.0
 11
-2.5743106253
 21
-12.2086405189
 31
0.0
  0
LINE
  5
B5
330
83
100
AcDbEntity
  8
BLOCKS
 62
    16
100
AcDbLine
 10
-2.8394756682
 20
-12.4738055619
 30
0.0
 11
-2.7289902336
 21
-12.3633201273
 31
0.0
  0
LINE
  5
B6
330
83
100
AcDbEntity
  8
BLOCKS
 62
    16
100
AcDbLine
 10
-2.9529396313
 20
-12.587269525
 30
0.0
 11
-2.883669842
 21
-12.5179997357
 31
0.0
  0
LINE
  5
B7
330
83
100
AcDbEntity
  8
BLOCKS
 62
    16
100
AcDbLine
 10
-2.5632620818
 20
-12.2859803231
 30
0.0
 11
-2.4693429038
 21
-12.1920611451
 31
0.0
  0
LINE
  5
B8
330
83
100
AcDbEntity
  8
BLOCKS
 62
    16
100
AcDbLine
 10
-2.7179416902
 20
-12.4406599315
 30
0.0
 11
-2.6074562556
 21
-12.3301744969
 31
0.0
  0
LINE
  5
B9
330
83
100
AcDbEntity
  8
BLOCKS
 62
    16
100
AcDbLine
 10
-2.8646181115
 20
-12.5873363528
 30
0.0
 11
-2.762135864
 21
-12.4848541053
 31
0.0
  0
LINE
  5
BA
330
83
100
AcDbEntity
  8
BLOCKS
 62
    16
100
AcDbLine
 10
-2.4417281038
 20
-12.2528346927
 30
0.0
 11
-2.3809545562
 21
-12.1920611451
 31
0.0
  0
LINE
  5
BB
330
83
100
AcDbEntity
  8
BLOCKS
 62
    16
100
AcDbLine
 10
-2.5964077122
 20
-12.4075143011
 30
0.0
 11
-2.4859222776
 21
-12.2970288666
 31
0.0
  0
LINE
  5
BC
330
83
100
AcDbEntity
  8
BLOCKS
 62
    16
100
AcDbLine
 10
-2.7510873206
 20
-12.5621939095
 30
0.0
 11
-2.640601886
 21
-12.451708475
 31
0.0
  0
LINE
  5
BD
330
83
100
AcDbEntity
  8
BLOCKS
 62
    16
100
AcDbLine
 10
-2.3201941258
 20
-12.2196890624
 30
0.0
 11
-2.2925662085
 21
-12.1920611451
 31
0.0
  0
LINE
  5
BE
330
83
100
AcDbEntity
  8
BLOCKS
 62
    16
100
AcDbLine
 10
-2.4748737342
 20
-12.3743686708
 30
0.0
 11
-2.3643882996
 21
-12.2638832362
 31
0.0
  0
LINE
  5
BF
330
83
100
AcDbEntity
  8
BLOCKS
 62
    16
100
AcDbLine
 10
-2.6295533425
 20
-12.5290482791
 30
0.0
 11
-2.519067908
 21
-12.4185628446
 31
0.0
  0
LINE
  5
C0
330
83
100
AcDbEntity
  8
BLOCKS
 62
    16
100
AcDbLine
 10
-2.6879750718
 20
-12.5874700084
 30
0.0
 11
-2.6737475164
 21
-12.573242453
 31
0.0
  0
LINE
  5
C1
330
83
100
AcDbEntity
  8
BLOCKS
 62
    16
100
AcDbLine
 10
-2.3533397561
 20
-12.3412230404
 30
0.0
 11
-2.2428543216
 21
-12.2307376058
 31
0.0
  0
LINE
  5
C2
330
83
100
AcDbEntity
  8
BLOCKS
 62
    16
100
AcDbLine
 10
-2.5080193645
 20
-12.4959026488
 30
0.0
 11
-2.39753393
 21
-12.3854172142
 31
0.0
  0
LINE
  5
C3
330
83
100
AcDbEntity
  8
BLOCKS
 62
    16
100
AcDbLine
 10
-2.599653552
 20
-12.5875368362
 30
0.0
 11
-2.5522135383
 21
-12.5400968226
 31
0.0
  0
LINE
  5
C4
330
83
100
AcDbEntity
  8
BLOCKS
 62
    16
100
AcDbLine
 10
-2.3864853865
 20
-12.4627570184
 30
0.0
 11
-2.2799487024
 21
-12.3562203344
 31
0.0
  0
LINE
  5
C5
330
83
100
AcDbEntity
  8
BLOCKS
 62
    16
100
AcDbLine
 10
-2.5113320321
 20
-12.587603664
 30
0.0
 11
-2.4306795603
 21
-12.5069511922
 31
0.0
  0
LINE
  5
C6
330
83
100
AcDbEntity
  8
BLOCKS
 62
    16
100
AcDbLine
 10
-2.2311448694
 20
-12.3074165013
 30
0.0
 11
-2.1213203436
 21
-12.1975919755
 31
0.0
  0
LINE
  5
C7
330
83
100
AcDbEntity
  8
BLOCKS
 62
    16
100
AcDbLine
 10
-2.4196310169
 20
-12.5842909964
 30
0.0
 11
-2.3091455823
 21
-12.4738055619
 31
0.0
  0
LINE
  5
C8
330
83
100
AcDbEntity
  8
BLOCKS
 62
    16
100
AcDbLine
 10
-2.1102718001
 20
-12.2749317797
 30
0.0
 11
-2.0274011656
 21
-12.1920611451
 31
0.0
  0
LINE
  5
C9
330
83
100
AcDbEntity
  8
BLOCKS
 62
    16
100
AcDbLine
 10
-2.2980970389
 20
-12.5511453661
 30
0.0
 11
-2.2799487024
 21
-12.5329970296
 31
0.0
  0
LINE
  5
CA
330
83
100
AcDbEntity
  8
BLOCKS
 62
    16
100
AcDbLine
 10
-1.9887378221
 20
-12.2417861493
 30
0.0
 11
-1.9390128179
 21
-12.1920611451
 31
0.0
  0
LINE
  5
CB
330
83
100
AcDbEntity
  8
BLOCKS
 62
    16
100
AcDbLine
 10
-2.1434174305
 20
-12.3964657577
 30
0.0
 11
-2.0329319959
 21
-12.2859803231
 31
0.0
  0
LINE
  5
CC
330
83
100
AcDbEntity
  8
BLOCKS
 62
    16
100
AcDbLine
 10
-1.8672038441
 20
-12.2086405189
 30
0.0
 11
-1.8506244703
 21
-12.1920611451
 31
0.0
  0
LINE
  5
CD
330
83
100
AcDbEntity
  8
BLOCKS
 62
    16
100
AcDbLine
 10
-2.0218834525
 20
-12.3633201273
 30
0.0
 11
-1.9113980179
 21
-12.2528346927
 31
0.0
  0
LINE
  5
CE
330
83
100
AcDbEntity
  8
BLOCKS
 62
    16
100
AcDbLine
 10
-2.1534117467
 20
-12.4948484216
 30
0.0
 11
-2.0660776263
 21
-12.4075143011
 31
0.0
  0
LINE
  5
CF
330
83
100
AcDbEntity
  8
BLOCKS
 62
    16
100
AcDbLine
 10
-1.9003494744
 20
-12.3301744969
 30
0.0
 11
-1.7898640399
 21
-12.2196890624
 31
0.0
  0
LINE
  5
D0
330
83
100
AcDbEntity
  8
BLOCKS
 62
    16
100
AcDbLine
 10
-2.0550290828
 20
-12.4848541053
 30
0.0
 11
-1.9445436483
 21
-12.3743686708
 31
0.0
  0
LINE
  5
D1
330
83
100
AcDbEntity
  8
BLOCKS
 62
    16
100
AcDbLine
 10
-2.1534117467
 20
-12.5832367692
 30
0.0
 11
-2.0992232566
 21
-12.5290482791
 31
0.0
  0
LINE
  5
D2
330
83
100
AcDbEntity
  8
BLOCKS
 62
    16
100
AcDbLine
 10
-1.7788154964
 20
-12.2970288666
 30
0.0
 11
-1.673847775
 21
-12.1920611451
 31
0.0
  0
LINE
  5
D3
330
83
100
AcDbEntity
  8
BLOCKS
 62
    16
100
AcDbLine
 10
-1.9334951048
 20
-12.451708475
 30
0.0
 11
-1.8230096702
 21
-12.3412230404
 31
0.0
  0
LINE
  5
D4
330
83
100
AcDbEntity
  8
BLOCKS
 62
    16
100
AcDbLine
 10
-2.069724433
 20
-12.5879378031
 30
0.0
 11
-1.9776892786
 21
-12.4959026488
 31
0.0
  0
LINE
  5
D5
330
83
100
AcDbEntity
  8
BLOCKS
 62
    16
100
AcDbLine
 10
-1.6572815184
 20
-12.2638832362
 30
0.0
 11
-1.5854594273
 21
-12.1920611451
 31
0.0
  0
LINE
  5
D6
330
83
100
AcDbEntity
  8
BLOCKS
 62
    16
100
AcDbLine
 10
-1.8119611268
 20
-12.4185628446
 30
0.0
 11
-1.7014756922
 21
-12.30807741
 31
0.0
  0
LINE
  5
D7
330
83
100
AcDbEntity
  8
BLOCKS
 62
    16
100
AcDbLine
 10
-1.9666407352
 20
-12.573242453
 30
0.0
 11
-1.8561553006
 21
-12.4627570184
 31
0.0
  0
LINE
  5
D8
330
83
100
AcDbEntity
  8
BLOCKS
 62
    16
100
AcDbLine
 10
-1.5357475404
 20
-12.2307376058
 30
0.0
 11
-1.4970710797
 21
-12.1920611451
 31
0.0
  0
LINE
  5
D9
330
83
100
AcDbEntity
  8
BLOCKS
 62
    16
100
AcDbLine
 10
-1.6904271488
 20
-12.3854172142
 30
0.0
 11
-1.5799417142
 21
-12.2749317797
 31
0.0
  0
LINE
  5
DA
330
83
100
AcDbEntity
  8
BLOCKS
 62
    16
100
AcDbLine
 10
-1.8451067572
 20
-12.5400968226
 30
0.0
 11
-1.7346213226
 21
-12.429611388
 31
0.0
  0
LINE
  5
DB
330
83
100
AcDbEntity
  8
BLOCKS
 62
    16
100
AcDbLine
 10
-1.8930813933
 20
-12.5880714588
 30
0.0
 11
-1.889300931
 21
-12.5842909964
 31
0.0
  0
LINE
  5
DC
330
83
100
AcDbEntity
  8
BLOCKS
 62
    16
100
AcDbLine
 10
-1.5688931708
 20
-12.3522715839
 30
0.0
 11
-1.4584077362
 21
-12.2417861493
 31
0.0
  0
LINE
  5
DD
330
83
100
AcDbEntity
  8
BLOCKS
 62
    16
100
AcDbLine
 10
-1.7235727791
 20
-12.5069511922
 30
0.0
 11
-1.6130873446
 21
-12.3964657577
 31
0.0
  0
LINE
  5
DE
330
83
100
AcDbEntity
  8
BLOCKS
 62
    16
100
AcDbLine
 10
-1.8047598735
 20
-12.5881382866
 30
0.0
 11
-1.767766953
 21
-12.5511453661
 31
0.0
  0
LINE
  5
DF
330
83
100
AcDbEntity
  8
BLOCKS
 62
    16
100
AcDbLine
 10
-1.4473591927
 20
-12.3191259535
 30
0.0
 11
-1.4353176924
 21
-12.3070844531
 31
0.0
  0
LINE
  5
E0
330
83
100
AcDbEntity
  8
BLOCKS
 62
    16
100
AcDbLine
 10
-1.6020388011
 20
-12.4738055619
 30
0.0
 11
-1.4915533666
 21
-12.3633201273
 31
0.0
  0
LINE
  5
E1
330
83
100
AcDbEntity
  8
BLOCKS
 62
    16
100
AcDbLine
 10
-1.7164383536
 20
-12.5882051144
 30
0.0
 11
-1.6462329749
 21
-12.5179997357
 31
0.0
  0
LINE
  5
E2
330
83
100
AcDbEntity
  8
BLOCKS
 62
    16
100
AcDbLine
 10
-1.4805048231
 20
-12.4406599315
 30
0.0
 11
-1.4353176924
 21
-12.3954728008
 31
0.0
  0
LINE
  5
E3
330
83
100
AcDbEntity
  8
BLOCKS
 62
    16
100
AcDbLine
 10
-1.6281168338
 20
-12.5882719422
 30
0.0
 11
-1.5246989969
 21
-12.4848541053
 31
0.0
  0
LINE
  5
E4
330
83
100
AcDbEntity
  8
BLOCKS
 62
    16
100
AcDbLine
 10
-1.5136504535
 20
-12.5621939095
 30
0.0
 11
-1.4353176924
 21
-12.4838611484
 31
0.0
  0
LINE
  5
E5
330
83
100
AcDbEntity
  8
BLOCKS
 62
    16
100
AcDbLine
 10
-1.4514737941
 20
-12.5884055978
 30
0.0
 11
-1.4363106493
 21
-12.573242453
 31
0.0
  0
LINE
  5
E6
330
83
100
AcDbEntity
  8
BLOCKS
 62
    16
100
AcDbLine
 10
-2.1949419749
 20
-12.3596019544
 30
0.0
 11
-2.2566740506
 21
-12.4213340301
 31
0.0
  0
LINE
  5
E7
330
83
100
AcDbEntity
  8
BLOCKS
 62
    16
100
AcDbLine
 10
-2.1797821788
 20
-12.432830506
 30
0.0
 11
-2.2566740506
 21
-12.5097223778
 31
0.0
  0
LINE
  5
E8
330
83
100
AcDbEntity
  8
BLOCKS
 62
    16
100
AcDbLine
 10
-2.1797821788
 20
-12.5212188536
 30
0.0
 11
-2.2463674726
 21
-12.5878041475
 31
0.0
  0
LINE
  5
E9
330
83
100
AcDbEntity
  8
BLOCKS
 62
    16
100
AcDbLine
 10
-2.1827560423
 20
-12.3768788044
 30
0.0
 11
-2.2566740506
 21
-12.4507968126
 31
0.0
  0
LINE
  5
EA
330
83
100
AcDbEntity
  8
BLOCKS
 62
    16
100
AcDbLine
 10
-2.1797821788
 20
-12.4622932885
 30
0.0
 11
-2.2566740506
 21
-12.5391851603
 31
0.0
  0
LINE
  5
EB
330
83
100
AcDbEntity
  8
BLOCKS
 62
    16
100
AcDbLine
 10
-2.1797821788
 20
-12.5506816361
 30
0.0
 11
-2.2169269661
 21
-12.5878264234
 31
0.0
  0
LINE
  5
EC
330
83
100
AcDbEntity
  8
BLOCKS
 62
    16
100
AcDbLine
 10
-2.2463674726
 20
-12.5878041475
 30
0.0
 11
-2.2566740506
 21
-12.5981107254
 31
0.0
  0
LINE
  5
ED
330
83
100
AcDbEntity
  8
BLOCKS
 62
    16
100
AcDbLine
 10
-2.1797821788
 20
-12.6096072013
 30
0.0
 11
-2.2439690602
 21
-12.6737940827
 31
0.0
  0
LINE
  5
EE
330
83
100
AcDbEntity
  8
BLOCKS
 62
    16
100
AcDbLine
 10
-2.2169269661
 20
-12.5878264234
 30
0.0
 11
-2.2566740506
 21
-12.6275735079
 31
0.0
  0
LINE
  5
EF
330
83
100
AcDbEntity
  8
BLOCKS
 62
    16
100
AcDbLine
 10
-2.1797821788
 20
-12.6390699838
 30
0.0
 11
-2.2160241608
 21
-12.6753119658
 31
0.0
  0
LINE
  5
F0
330
83
100
AcDbEntity
  8
BLOCKS
 62
    16
100
AcDbLine
 10
-2.2439690602
 20
-12.6737940827
 30
0.0
 11
-2.2566740506
 21
-12.6864990731
 31
0.0
  0
LINE
  5
F1
330
83
100
AcDbEntity
  8
BLOCKS
 62
    16
100
AcDbLine
 10
-2.1797821788
 20
-12.6979955489
 30
0.0
 11
-2.2127863309
 21
-12.7309997011
 31
0.0
  0
LINE
  5
F2
330
83
100
AcDbEntity
  8
BLOCKS
 62
    16
100
AcDbLine
 10
-2.2160241608
 20
-12.6753119658
 30
0.0
 11
-2.2566740506
 21
-12.7159618556
 31
0.0
  0
LINE
  5
F3
330
83
100
AcDbEntity
  8
BLOCKS
 62
    16
100
AcDbLine
 10
-2.1797821788
 20
-12.7274583314
 30
0.0
 11
-2.1849639552
 21
-12.7326401078
 31
0.0
  0
LINE
  5
F4
330
83
100
AcDbEntity
  8
BLOCKS
 62
    16
100
AcDbLine
 10
-2.2152971563
 20
-12.7335105265
 30
0.0
 11
-2.2457393967
 21
-12.7639527669
 31
0.0
  0
LINE
  5
F5
330
83
100
AcDbEntity
  8
BLOCKS
 62
    16
100
AcDbLine
 10
-2.1874747806
 20
-12.7351509332
 30
0.0
 11
-2.217917021
 21
-12.7655931736
 31
0.0
  0
LINE
  5
F6
330
83
100
AcDbEntity
  8
BLOCKS
 62
    16
100
AcDbLine
 10
-2.2987642838
 20
-12.7285893063
 30
0.0
 11
-2.32082153
 21
-12.7506465525
 31
0.0
  0
LINE
  5
F7
330
83
100
AcDbEntity
  8
BLOCKS
 62
    16
100
AcDbLine
 10
-2.270941908
 20
-12.730229713
 30
0.0
 11
-2.3013841484
 21
-12.7606719534
 31
0.0
  0
LINE
  5
F8
330
83
100
AcDbEntity
  8
BLOCKS
 62
    16
100
AcDbLine
 10
-2.1318300289
 20
-12.7384317467
 30
0.0
 11
-2.1622722693
 21
-12.7688739871
 31
0.0
  0
LINE
  5
F9
330
83
100
AcDbEntity
  8
BLOCKS
 62
    16
100
AcDbLine
 10
-2.1072439096
 20
-12.7433084099
 30
0.0
 11
-2.1344498935
 21
-12.7705143938
 31
0.0
  0
LINE
  5
FA
330
83
100
AcDbEntity
  8
BLOCKS
 62
    16
100
AcDbLine
 10
-2.2531814254
 20
-12.7713947956
 30
0.0
 11
-2.2826965875
 21
-12.8009099577
 31
0.0
  0
LINE
  5
FB
330
83
100
AcDbEntity
  8
BLOCKS
 62
    16
100
AcDbLine
 10
-2.1647930778
 20
-12.7713947956
 30
0.0
 11
-2.2213360454
 21
-12.8279377632
 31
0.0
  0
LINE
  5
FC
330
83
100
AcDbEntity
  8
BLOCKS
 62
    16
100
AcDbLine
 10
-2.2237186429
 20
-12.7713947956
 30
0.0
 11
-2.2664973516
 21
-12.8141735042
 31
0.0
  0
LINE
  5
FD
330
83
100
AcDbEntity
  8
BLOCKS
 62
    16
100
AcDbLine
 10
-2.1379229757
 20
-12.773987476
 30
0.0
 11
-2.1850147843
 21
-12.8210792846
 31
0.0
  0
SPLINE
  5
FE
330
83
100
AcDbEntity
  8
BLOCKS
100
AcDbSpline
210
0.0
220
0.0
230
1.0
 70
     8
 71
     3
 72
     9
 73
     5
 74
     0
 42
0.00000001
 43
0.00000001
 40
0.0
 40
0.0
 40
0.0
 40
0.0
 40
0.5928291688347104
 40
1.0
 40
1.0
 40
1.0
 40
1.0
 10
-2.985582406350157
 20
-12.58724482604875
 30
0.0
 10
-3.030158058563442
 20
-12.50141038487578
 30
0.0
 10
-2.950675096239938
 20
-12.38218687093916
 30
0.0
 10
-2.968787917689462
 20
-12.22793862570682
 30
0.0
 10
-3.015266060000032
 20
-12.19206114512515
 30
0.0
  0
INSERT
  5
FF
330
83
100
AcDbEntity
  8
0
  6
Continuous
 62
     7
100
AcDbBlockReference
  2
SW_BLOCK_DIMENSION_0
 10
-27.11940535
 20
-27.6624536565
 30
0.0
  0
ENDBLK
  5
85
330
83
100
AcDbEntity
  8
0
100
AcDbBlockEnd
  0
BLOCK
  5
110
330
10F
100
AcDbEntity
  8
0
100
AcDbBlockBegin
  2
_D
 70
     0
 10
0.0
 20
0.0
 30
0.0
  3
_D
  1

  0
SOLID
  5
112
330
10F
100
AcDbEntity
  8
DIMS
100
AcDbTrace
 10
32.2518198727
 20
20.0025802124
 30
0.0
 11
31.9764125918
 21
19.7580541024
 31
0.0
 12
32.0626473661
 22
19.6865802889
 32
0.0
 13
32.0626473661
 23
19.6865802889
 33
0.0
  0
LINE
  5
113
330
10F
100
AcDbEntity
  8
DIMS
100
AcDbLine
 10
30.5893174634
 20
19.4562458396
 30
0.0
 11
30.973345247
 21
19.4562458396
 31
0.0
  0
LINE
  5
114
330
10F
100
AcDbEntity
  8
DIMS
100
AcDbLine
 10
30.4118869097
 20
18.8304125334
 30
0.0
 11
30.2868869112
 21
18.8304125334
 31
0.0
  0
LINE
  5
115
330
10F
100
AcDbEntity
  8
DIMS
100
AcDbLine
 10
30.2868869112
 20
18.8304125334
 30
0.0
 11
30.2868869112
 21
18.2713847647
 31
0.0
  0
LINE
  5
116
330
10F
100
AcDbEntity
  8
DIMS
100
AcDbLine
 10
30.2868869112
 20
18.2713847647
 30
0.0
 11
30.4118869097
 21
18.2713847647
 31
0.0
  0
LINE
  5
117
330
10F
100
AcDbEntity
  8
DIMS
100
AcDbLine
 10
30.9674424586
 20
18.8304125334
 30
0.0
 11
31.092442457
 21
18.8304125334
 31
0.0
  0
LINE
  5
118
330
10F
100
AcDbEntity
  8
DIMS
100
AcDbLine
 10
31.092442457
 20
18.8304125334
 30
0.0
 11
31.092442457
 21
18.2713847647
 31
0.0
  0
LINE
  5
119
330
10F
100
AcDbEntity
  8
DIMS
100
AcDbLine
 10
31.092442457
 20
18.2713847647
 30
0.0
 11
30.9674424586
 21
18.2713847647
 31
0.0
  0
LINE
  5
11A
330
10F
100
AcDbEntity
  8
DIMS
100
AcDbLine
 10
32.2518198727
 20
20.0025802124
 30
0.0
 11
31.4674424922
 21
19.0562111416
 31
0.0
  0
LINE
  5
11B
330
10F
100
AcDbEntity
  8
DIMS
100
AcDbLine
 10
31.4674424922
 20
19.0562111416
 30
0.0
 11
31.2174424922
 21
19.0562111416
 31
0.0
  0
MTEXT
  5
11C
330
10F
100
AcDbEntity
  8
DIMS
100
AcDbMText
 10
30.1750813336
 20
19.6522937748
 30
0.0
 40
0.375
 41
0.0
 71
     1
 72
     1
  1
R
  7
SLDTEXTSTYLE0
 73
     1
 44
1.0
  0
MTEXT
  5
11D
330
10F
100
AcDbEntity
  8
DIMS
100
AcDbMText
 10
30.642442468
 20
19.9077712502
 30
0.0
 40
0.375
 41
0.0
 71
     1
 72
     1
  1
3
  7
SLDTEXTSTYLE0
 73
     1
 44
1.0
  0
MTEXT
  5
11E
330
10F
100
AcDbEntity
  8
DIMS
100
AcDbMText
 10
30.642442468
 20
19.3971462556
 30
0.0
 40
0.375
 41
0.0
 71
     1
 72
     1
  1
8
  7
SLDTEXTSTYLE0
 73
     1
 44
1.0
  0
MTEXT
  5
11F
330
10F
100
AcDbEntity
  8
DIMS
100
AcDbMText
 10
31.0264702517
 20
19.6522937748
 30
0.0
 40
0.375
 41
0.0
 71
     1
 72
     1
  1
"
  7
SLDTEXTSTYLE0
 73
     1
 44
1.0
  0
MTEXT
  5
120
330
10F
100
AcDbEntity
  8
DIMS
100
AcDbMText
 10
30.4118869097
 20
18.7547851763
 30
0.0
 40
0.375
 41
0.0
 71
     1
 72
     1
  1
10
  7
SLDTEXTSTYLE0
 73
     1
 44
1.0
  0
ENDBLK
  5
111
330
10F
100
AcDbEntity
  8
0
100
AcDbBlockEnd
  0
BLOCK
  5
124
330
123
100
AcDbEntity
  8
0
100
AcDbBlockBegin
  2
_D_1
 70
     0
 10
0.0
 20
0.0
 30
0.0
  3
_D_1
  1

  0
SOLID
  5
126
330
123
100
AcDbEntity
  8
DIMS
100
AcDbTrace
 10
1.3875192176
 20
6.8018041963
 30
0.0
 11
1.7515328894
 21
6.7458020929
 31
0.0
 12
1.7515328894
 22
6.8578062996
 32
0.0
 13
1.7515328894
 23
6.8578062996
 33
0.0
  0
SOLID
  5
127
330
123
100
AcDbEntity
  8
DIMS
100
AcDbTrace
 10
32.3875192176
 20
6.8018041963
 30
0.0
 11
32.0235055457
 21
6.8578062996
 31
0.0
 12
32.0235055457
 22
6.7458020929
 32
0.0
 13
32.0235055457
 23
6.7458020929
 33
0.0
  0
LINE
  5
128
330
123
100
AcDbEntity
  8
DIMS
100
AcDbLine
 10
8.9777438233
 20
6.831318102
 30
0.0
 11
8.8527438248
 21
6.831318102
 31
0.0
  0
LINE
  5
129
330
123
100
AcDbEntity
  8
DIMS
100
AcDbLine
 10
8.8527438248
 20
6.831318102
 30
0.0
 11
8.8527438248
 21
6.2722903333
 31
0.0
  0
LINE
  5
12A
330
123
100
AcDbEntity
  8
DIMS
100
AcDbLine
 10
8.8527438248
 20
6.2722903333
 30
0.0
 11
8.9777438233
 21
6.2722903333
 31
0.0
  0
LINE
  5
12B
330
123
100
AcDbEntity
  8
DIMS
100
AcDbLine
 10
9.8110771832
 20
6.831318102
 30
0.0
 11
9.9360771817
 21
6.831318102
 31
0.0
  0
LINE
  5
12C
330
123
100
AcDbEntity
  8
DIMS
100
AcDbLine
 10
9.9360771817
 20
6.831318102
 30
0.0
 11
9.9360771817
 21
6.2722903333
 31
0.0
  0
LINE
  5
12D
330
123
100
AcDbEntity
  8
DIMS
100
AcDbLine
 10
9.9360771817
 20
6.2722903333
 30
0.0
 11
9.8110771832
 21
6.2722903333
 31
0.0
  0
LINE
  5
12E
330
123
100
AcDbEntity
  8
DIMS
100
AcDbLine
 10
1.3875192176
 20
6.8018041963
 30
0.0
 11
8.6443919274
 21
6.8018041963
 31
0.0
  0
LINE
  5
12F
330
123
100
AcDbEntity
  8
DIMS
100
AcDbLine
 10
32.3875192176
 20
6.8018041963
 30
0.0
 11
10.1444290423
 21
6.8018041963
 31
0.0
  0
MTEXT
  5
130
330
123
100
AcDbEntity
  8
DIMS
100
AcDbMText
 10
9.0277438007
 20
7.3980518276
 30
0.0
 40
0.375
 41
0.0
 71
     1
 72
     1
  1
31"
  7
SLDTEXTSTYLE0
 73
     1
 44
1.0
  0
MTEXT
  5
131
330
123
100
AcDbEntity
  8
DIMS
100
AcDbMText
 10
8.9777438233
 20
6.7556907448
 30
0.0
 40
0.375
 41
0.0
 71
     1
 72
     1
  1
787
  7
SLDTEXTSTYLE0
 73
     1
 44
1.0
  0
ENDBLK
  5
125
330
123
100
AcDbEntity
  8
0
100
AcDbBlockEnd
  0
BLOCK
  5
134
330
133
100
AcDbEntity
  8
0
100
AcDbBlockBegin
  2
_D_2
 70
     0
 10
0.0
 20
0.0
 30
0.0
  3
_D_2
  1

  0
SOLID
  5
136
330
133
100
AcDbEntity
  8
DIMS
100
AcDbTrace
 10
4.6880676135
 20
2.0888585533
 30
0.0
 11
4.7440697169
 21
2.4528722252
 31
0.0
 12
4.6320655101
 22
2.4528722252
 32
0.0
 13
4.6320655101
 23
2.4528722252
 33
0.0
  0
SOLID
  5
137
330
133
100
AcDbEntity
  8
DIMS
100
AcDbTrace
 10
4.6880676135
 20
20.0888585533
 30
0.0
 11
4.6320655101
 21
19.7248448815
 31
0.0
 12
4.7440697169
 22
19.7248448815
 32
0.0
 13
4.7440697169
 23
19.7248448815
 33
0.0
  0
LINE
  5
138
330
133
100
AcDbEntity
  8
DIMS
100
AcDbLine
 10
4.2714009519
 20
14.5010675012
 30
0.0
 11
4.1464009534
 21
14.5010675012
 31
0.0
  0
LINE
  5
139
330
133
100
AcDbEntity
  8
DIMS
100
AcDbLine
 10
4.1464009534
 20
14.5010675012
 30
0.0
 11
4.1464009534
 21
13.9420397325
 31
0.0
  0
LINE
  5
13A
330
133
100
AcDbEntity
  8
DIMS
100
AcDbLine
 10
4.1464009534
 20
13.9420397325
 30
0.0
 11
4.2714009519
 21
13.9420397325
 31
0.0
  0
LINE
  5
13B
330
133
100
AcDbEntity
  8
DIMS
100
AcDbLine
 10
5.1047343118
 20
14.5010675012
 30
0.0
 11
5.2297343103
 21
14.5010675012
 31
0.0
  0
LINE
  5
13C
330
133
100
AcDbEntity
  8
DIMS
100
AcDbLine
 10
5.2297343103
 20
14.5010675012
 30
0.0
 11
5.2297343103
 21
13.9420397325
 31
0.0
  0
LINE
  5
13D
330
133
100
AcDbEntity
  8
DIMS
100
AcDbLine
 10
5.2297343103
 20
13.9420397325
 30
0.0
 11
5.1047343118
 21
13.9420397325
 31
0.0
  0
LINE
  5
13E
330
133
100
AcDbEntity
  8
DIMS
100
AcDbLine
 10
4.6880676135
 20
2.0888585533
 30
0.0
 11
4.6880676135
 21
13.8587063819
 31
0.0
  0
LINE
  5
13F
330
133
100
AcDbEntity
  8
DIMS
100
AcDbLine
 10
4.6880676135
 20
20.0888585533
 30
0.0
 11
4.6880676135
 21
15.0844008092
 31
0.0
  0
MTEXT
  5
140
330
133
100
AcDbEntity
  8
DIMS
100
AcDbMText
 10
4.3214009293
 20
15.0678012268
 30
0.0
 40
0.375
 41
0.0
 71
     1
 72
     1
  1
18"
  7
SLDTEXTSTYLE0
 73
     1
 44
1.0
  0
MTEXT
  5
141
330
133
100
AcDbEntity
  8
DIMS
100
AcDbMText
 10
4.2714009519
 20
14.4254401441
 30
0.0
 40
0.375
 41
0.0
 71
     1
 72
     1
  1
457
  7
SLDTEXTSTYLE0
 73
     1
 44
1.0
  0
ENDBLK
  5
135
330
133
100
AcDbEntity
  8
0
100
AcDbBlockEnd
  0
BLOCK
  5
145
330
144
100
AcDbEntity
  8
0
100
AcDbBlockBegin
  2
_D_3
 70
     0
 10
0.0
 20
0.0
 30
0.0
  3
_D_3
  1

  0
SOLID
  5
147
330
144
100
AcDbEntity
  8
DIMENSIONS
100
AcDbTrace
 10
12.2032511488
 20
4.5761052716
 30
0.0
 11
11.8392374769
 21
4.632107375
 31
0.0
 12
11.8392374769
 22
4.5201031682
 32
0.0
 13
11.8392374769
 23
4.5201031682
 33
0.0
  0
SOLID
  5
148
330
144
100
AcDbEntity
  8
DIMENSIONS
100
AcDbTrace
 10
12.4712919011
 20
4.5761052716
 30
0.0
 11
12.8353055729
 21
4.5201031682
 31
0.0
 12
12.8353055729
 22
4.632107375
 32
0.0
 13
12.8353055729
 23
4.632107375
 33
0.0
  0
LINE
  5
149
330
144
100
AcDbEntity
  8
DIMENSIONS
100
AcDbLine
 10
13.4056840627
 20
4.6056191773
 30
0.0
 11
13.2806840642
 21
4.6056191773
 31
0.0
  0
LINE
  5
14A
330
144
100
AcDbEntity
  8
DIMENSIONS
100
AcDbLine
 10
13.2806840642
 20
4.6056191773
 30
0.0
 11
13.2806840642
 21
4.0465914086
 31
0.0
  0
LINE
  5
14B
330
144
100
AcDbEntity
  8
DIMENSIONS
100
AcDbLine
 10
13.2806840642
 20
4.0465914086
 30
0.0
 11
13.4056840627
 21
4.0465914086
 31
0.0
  0
LINE
  5
14C
330
144
100
AcDbEntity
  8
DIMENSIONS
100
AcDbLine
 10
13.6834618371
 20
4.6056191773
 30
0.0
 11
13.8084618356
 21
4.6056191773
 31
0.0
  0
LINE
  5
14D
330
144
100
AcDbEntity
  8
DIMENSIONS
100
AcDbLine
 10
13.8084618356
 20
4.6056191773
 30
0.0
 11
13.8084618356
 21
4.0465914086
 31
0.0
  0
LINE
  5
14E
330
144
100
AcDbEntity
  8
DIMENSIONS
100
AcDbLine
 10
13.8084618356
 20
4.0465914086
 30
0.0
 11
13.6834618371
 21
4.0465914086
 31
0.0
  0
LINE
  5
14F
330
144
100
AcDbEntity
  8
DIMENSIONS
100
AcDbLine
 10
12.2032511488
 20
4.0936113661
 30
0.0
 11
12.2032511488
 21
4.7011052716
 31
0.0
  0
LINE
  5
150
330
144
100
AcDbEntity
  8
DIMENSIONS
100
AcDbLine
 10
12.4712919011
 20
3.0588198142
 30
0.0
 11
12.4712919011
 21
4.7011052716
 31
0.0
  0
LINE
  5
151
330
144
100
AcDbEntity
  8
DIMENSIONS
100
AcDbLine
 10
12.2032511488
 20
4.5761052716
 30
0.0
 11
11.5032248567
 21
4.5761052716
 31
0.0
  0
LINE
  5
152
330
144
100
AcDbEntity
  8
DIMENSIONS
100
AcDbLine
 10
12.4712919011
 20
4.5761052716
 30
0.0
 11
13.0723321669
 21
4.5761052716
 31
0.0
  0
MTEXT
  5
153
330
144
100
AcDbEntity
  8
DIMENSIONS
100
AcDbMText
 10
13.197350741
 20
5.1723529029
 30
0.0
 40
0.375
 41
0.0
 71
     1
 72
     1
  1
1/8
  7
SLDTEXTSTYLE0
 73
     1
 44
1.0
  0
MTEXT
  5
154
330
144
100
AcDbEntity
  8
DIMENSIONS
100
AcDbMText
 10
13.4056840627
 20
4.5299918202
 30
0.0
 40
0.375
 41
0.0
 71
     1
 72
     1
  1
3
  7
SLDTEXTSTYLE0
 73
     1
 44
1.0
  0
ENDBLK
  5
146
330
144
100
AcDbEntity
  8
0
100
AcDbBlockEnd
  0
ENDSEC
  0
SECTION
  2
ENTITIES
  0
LINE
  5
100
330
1F
100
AcDbEntity
  8
OBJECTS
  6
CENTERX2
100
AcDbLine
 10
16.8875192176
 20
20.0888585533
 30
0.0
 11
16.8875192176
 21
19.1173983715
 31
0.0
  0
LINE
  5
101
330
1F
100
AcDbEntity
  8
DIMS
100
AcDbLine
 10
1.7625192176
 20
20.0888585533
 30
0.0
 11
32.0125192176
 21
20.0888585533
 31
0.0
  0
LINE
  5
102
330
1F
100
AcDbEntity
  8
OBJECTS
  6
CENTERX2
100
AcDbLine
 10
1.3875192176
 20
11.0888585533
 30
0.0
 11
2.3589793994
 21
11.0888585533
 31
0.0
  0
LINE
  5
103
330
1F
100
AcDbEntity
  8
OBJECTS
  6
CENTERX2
100
AcDbLine
 10
16.8875192176
 20
2.0888585533
 30
0.0
 11
16.8875192176
 21
3.0603187352
 31
0.0
  0
LINE
  5
104
330
1F
100
AcDbEntity
  8
DIMS
  6
CENTERX2
100
AcDbLine
 10
1.3875192176
 20
19.7138585533
 30
0.0
 11
1.3875192176
 21
2.4638585533
 31
0.0
  0
LINE
  5
105
330
1F
100
AcDbEntity
  8
OBJECTS
  6
CENTERX2
100
AcDbLine
 10
32.3875192176
 20
11.0888585533
 30
0.0
 11
31.4160590357
 21
11.0888585533
 31
0.0
  0
LINE
  5
106
330
1F
100
AcDbEntity
  8
DIMS
  6
CENTERX2
100
AcDbLine
 10
1.7625192176
 20
2.0888585533
 30
0.0
 11
32.0125192176
 21
2.0888585533
 31
0.0
  0
LINE
  5
107
330
1F
100
AcDbEntity
  8
DIMS
  6
CENTERX2
100
AcDbLine
 10
32.3875192176
 20
19.7138585533
 30
0.0
 11
32.3875192176
 21
2.4638585533
 31
0.0
  0
ARC
  5
108
330
1F
100
AcDbEntity
  8
DIMS
  6
CENTERX2
100
AcDbCircle
 10
32.0125192176
 20
19.7138585533
 30
0.0
 40
0.375
100
AcDbArc
 50
0.0
 51
90.0
  0
ARC
  5
109
330
1F
100
AcDbEntity
  8
DIMS
  6
CENTERX2
100
AcDbCircle
 10
32.0125192176
 20
2.4638585533
 30
0.0
 40
0.375
100
AcDbArc
 50
270.0
 51
0.0
  0
ARC
  5
10A
330
1F
100
AcDbEntity
  8
DIMS
  6
CENTERX2
100
AcDbCircle
 10
1.7625192176
 20
2.4638585533
 30
0.0
 40
0.3750000000000004
100
AcDbArc
 50
180.0
 51
270.0
  0
ARC
  5
10B
330
1F
100
AcDbEntity
  8
DIMS
  6
CENTERX2
100
AcDbCircle
 10
1.7625192176
 20
19.7138585533
 30
0.0
 40
0.3750000000000004
100
AcDbArc
 50
90.0
 51
180.0
  0
INSERT
  5
10C
330
1F
100
AcDbEntity
  8
0
  6
Continuous
 62
     7
100
AcDbBlockReference
  2
REVEAL_-__125
 10
13.6427271657
 20
16.2398308357
 30
0.0
  0
DIMENSION
  5
10D
330
1F
100
AcDbEntity
  8
DIMS
100
AcDbDimension
  2
_D
 10
32.0125192176
 20
19.7138585533
 30
0.0
 11
30.6896647025
 21
19.0562111416
 31
0.0
 70
   164
  1
<>
 71
     1
 42
-1.0
  3
SLDDIMSTYLE0
100
AcDbRadialDimension
 15
32.2518198727
 25
20.0025802124
 35
0.0
 40
0.0
  0
DIMENSION
  5
121
330
1F
100
AcDbEntity
  8
DIMS
100
AcDbDimension
  2
_D_1
 10
32.3875192176
 20
6.8018041963
 30
0.0
 11
9.3944104849
 21
6.8018041963
 31
0.0
 70
   160
  1
<>
 71
     2
 42
-1.0
  3
SLDDIMSTYLE1
100
AcDbAlignedDimension
 13
1.3875192176
 23
2.4638585533
 33
0.0
 14
32.3875192176
 24
2.4638585533
 34
0.0
 50
0.0
100
AcDbRotatedDimension
  0
DIMENSION
  5
132
330
1F
100
AcDbEntity
  8
DIMS
100
AcDbDimension
  2
_D_2
 10
4.6880676135
 20
20.0888585533
 30
0.0
 11
4.6880676135
 21
14.4715535955
 31
0.0
 70
   160
  1
<>
 71
     2
 42
-1.0
  3
SLDDIMSTYLE1
100
AcDbAlignedDimension
 13
1.7625192176
 23
2.0888585533
 33
0.0
 14
1.7625192176
 24
20.0888585533
 34
0.0
 50
90.0
100
AcDbRotatedDimension
  0
DIMENSION
  5
142
330
1F
100
AcDbEntity
  8
DIMENSIONS
100
AcDbDimension
  2
_D_3
 10
12.4712919011
 20
4.5761052716
 30
0.0
 11
13.5445729499
 21
4.5761052716
 31
0.0
 70
   160
  1
<>
 71
     2
 42
-1.0
  3
SLDDIMSTYLE2
100
AcDbAlignedDimension
 13
12.2032511488
 23
4.0436113661
 33
0.0
 14
12.4712919011
 24
3.0088198142
 34
0.0
100
AcDbRotatedDimension
  0
MTEXT
  5
155
330
1F
100
AcDbEntity
  8
NOTES
100
AcDbMText
 10
23.5287954702
 20
5.3213121958
 30
0.0
 40
0.2083333333
 41
0.0
 71
     2
 72
     1
  1
TEMPLATE
  7
SLDTEXTSTYLE0
 73
     1
 44
1.0
  0
MTEXT
  5
156
330
1F
100
AcDbEntity
  8
NOTES
100
AcDbMText
 10
23.5319301404
 20
5.0435344214
 30
0.0
 40
0.2083333333
 41
0.0
 71
     2
 72
     1
  1
CENTERLINE
  7
SLDTEXTSTYLE0
 73
     1
 44
1.0
  0
MTEXT
  5
157
330
1F
100
AcDbEntity
  8
NOTES
100
AcDbMText
 10
23.5320506785
 20
4.4879788726
 30
0.0
 40
0.2083333333
 41
0.0
 71
     2
 72
     1
  1
PLANTILLA
  7
SLDTEXTSTYLE0
 73
     1
 44
1.0
  0
MTEXT
  5
158
330
1F
100
AcDbEntity
  8
NOTES
100
AcDbMText
 10
23.529036613
 20
4.2102010982
 30
0.0
 40
0.2083333333
 41
0.0
 71
     2
 72
     1
  1
CENTRAL
  7
SLDTEXTSTYLE0
 73
     1
 44
1.0
  0
LEADER
  5
15A
330
1F
100
AcDbEntity
  8
NOTES
100
AcDbLeader
  3
SLDDIMSTYLE3
 76
     3
 10
16.8875192176
 20
2.6210165044
 30
0.0
 10
22.369360874
 20
4.6323625049
 30
0.0
 10
22.619360874
 20
4.6323625049
 30
0.0
  0
LEADER
  5
15B
330
1F
100
AcDbEntity
  8
NOTES
100
AcDbLeader
  3
SLDDIMSTYLE3
 76
     3
 10
31.8543065236
 20
11.0888585533
 30
0.0
 10
24.6696290108
 20
4.6323625049
 30
0.0
 10
24.4196290108
 20
4.6323625049
 30
0.0
  0
MTEXT
  5
15C
330
1F
100
AcDbEntity
  8
NOTES
100
AcDbMText
 10
11.8077560351
 20
15.7837213952
 30
0.0
 40
0.2083333333
 41
0.0
 71
     1
 72
     1
  1
NOTES:
  7
SLDTEXTSTYLE0
 73
     1
 44
1.0
  0
MTEXT
  5
15D
330
1F
100
AcDbEntity
  8
NOTES
100
AcDbMText
 10
12.2014568137
 20
15.2281658464
 30
0.0
 40
0.2083333333
 41
0.0
 71
     1
 72
     1
  1
THOROUGHLY READ ALL  INSTALLATION INSTRUCTIONS
  7
SLDTEXTSTYLE0
 73
     1
 44
1.0
  0
MTEXT
  5
15E
330
1F
100
AcDbEntity
  8
NOTES
100
AcDbMText
 10
11.8077560351
 20
15.2281658464
 30
0.0
 40
0.2083333333
 41
0.0
 71
     1
 72
     1
  1
1.
  7
SLDTEXTSTYLE0
 73
     1
 44
1.0
  0
MTEXT
  5
15F
330
1F
100
AcDbEntity
  8
NOTES
100
AcDbMText
 10
11.8077560351
 20
14.950388072
 30
0.0
 40
0.2083333333
 41
0.0
 71
     1
 72
     1
  1
BEFORE CUTTING COUNTERTOP.
  7
SLDTEXTSTYLE0
 73
     1
 44
1.0
  0
MTEXT
  5
160
330
1F
100
AcDbEntity
  8
NOTES
100
AcDbMText
 10
11.8077560351
 20
14.3948325231
 30
0.0
 40
0.2083333333
 41
0.0
 71
     1
 72
     1
  1
2.  DIMENSIONS ARE IN INCHES [MM].
  7
SLDTEXTSTYLE0
 73
     1
 44
1.0
  0
MTEXT
  5
161
330
1F
100
AcDbEntity
  8
NOTES
100
AcDbMText
 10
11.8077560351
 20
13.8392769743
 30
0.0
 40
0.2083333333
 41
0.0
 71
     1
 72
     1
  1
PLEASE CHECK TEMPLATE AGAINST PHYSICAL SINK FOR MOST ACCURATE
  7
SLDTEXTSTYLE0
 73
     1
 44
1.0
  0
MTEXT
  5
162
330
1F
100
AcDbEntity
  8
NOTES
100
AcDbMText
 10
11.8077560351
 20
13.5614991999
 30
0.0
 40
0.2083333333
 41
0.0
 71
     1
 72
     1
  1
CUT.
  7
SLDTEXTSTYLE0
 73
     1
 44
1.0
  0
MTEXT
  5
163
330
1F
100
AcDbEntity
  8
NOTES
100
AcDbMText
 10
11.8077560351
 20
13.005943651
 30
0.0
 40
0.2083333333
 41
0.0
 71
     1
 72
     1
  1
NOTAS:
  7
SLDTEXTSTYLE0
 73
     1
 44
1.0
  0
MTEXT
  5
164
330
1F
100
AcDbEntity
  8
NOTES
100
AcDbMText
 10
11.8077560351
 20
12.4503881022
 30
0.0
 40
0.2083333333
 41
0.0
 71
     1
 72
     1
  1
1.  LEA ATENTAMENTE LAS INSTRUCCIONES DE INSTALACIÓN ANTES DE
  7
SLDTEXTSTYLE0
 73
     1
 44
1.0
  0
MTEXT
  5
165
330
1F
100
AcDbEntity
  8
NOTES
100
AcDbMText
 10
11.8077560351
 20
12.1726103277
 30
0.0
 40
0.2083333333
 41
0.0
 71
     1
 72
     1
  1
CORTAR LA ENCIMERA.
  7
SLDTEXTSTYLE0
 73
     1
 44
1.0
  0
MTEXT
  5
166
330
1F
100
AcDbEntity
  8
NOTES
100
AcDbMText
 10
11.8077560351
 20
11.6170547789
 30
0.0
 40
0.2083333333
 41
0.0
 71
     1
 72
     1
  1
2.  DIMENSIONES EN PULGADAS [MM].
  7
SLDTEXTSTYLE0
 73
     1
 44
1.0
  0
MTEXT
  5
167
330
1F
100
AcDbEntity
  8
NOTES
100
AcDbMText
 10
11.8077560351
 20
11.0614992301
 30
0.0
 40
0.2083333333
 41
0.0
 71
     1
 72
     1
  1
POR FAVOR COMPRUEBE PLANTILLA CONTRA FREGADERO FÍSICO PARA
  7
SLDTEXTSTYLE0
 73
     1
 44
1.0
  0
MTEXT
  5
168
330
1F
100
AcDbEntity
  8
NOTES
100
AcDbMText
 10
11.8077560351
 20
10.7837214556
 30
0.0
 40
0.2083333333
 41
0.0
 71
     1
 72
     1
  1
CORTE MÁS EXACTO.
  7
SLDTEXTSTYLE0
 73
     1
 44
1.0
  0
MTEXT
  5
169
330
1F
100
AcDbEntity
  8
NOTES
100
AcDbMText
 10
11.3120184655
 20
2.8127284947
 30
0.0
 40
0.2083333333
 41
0.0
 71
     1
 72
     1
  1
1/8" REVEAL
  7
SLDTEXTSTYLE0
 73
     1
 44
1.0
  0
MTEXT
  5
16A
330
1F
100
AcDbEntity
  8
NOTES
100
AcDbMText
 10
11.3120184655
 20
2.5349507203
 30
0.0
 40
0.2083333333
 41
0.0
 71
     1
 72
     1
  1
[3 REVELADO]
  7
SLDTEXTSTYLE0
 73
     1
 44
1.0
  0
LEADER
  5
16B
330
1F
100
AcDbEntity
  8
NOTES
100
AcDbLeader
  3
SLDDIMSTYLE3
 76
     3
 10
14.2175462799
 20
2.0888585533
 30
0.0
 10
13.4789217501
 20
2.5487998879
 30
0.0
 10
13.2289217501
 20
2.5487998879
 30
0.0
  0
MTEXT
  5
16C
330
1F
100
AcDbEntity
  8
NOTES
100
AcDbMText
 10
16.41677395
 20
9.6892032991
 30
0.0
 40
0.4166666667
 41
0.0
 71
     2
 72
     1
  1
TEMPLATE #: 2000001751
  7
SLDTEXTSTYLE0
 73
     1
 44
1.0
  0
MTEXT
  5
16D
330
1F
100
AcDbEntity
  8
NOTES
100
AcDbMText
 10
16.4669802736
 20
9.1336477502
 30
0.0
 40
0.4166666667
 41
0.0
 71
     2
 72
     1
  1
REVEAL UNDERMOUNT TEMPLATE 30-3/4" X 17-3/4" W/ 3/8" RADIUS
  7
SLDTEXTSTYLE0
 73
     1
 44
1.0
  0
ENDSEC
  0
SECTION
  2
OBJECTS
  0
DICTIONARY
  5
C
330
0
100
AcDbDictionary
281
     1
  3
ACAD_GROUP
350
D
  3
ACAD_LAYOUT
350
1A
  3
ACAD_MLINESTYLE
350
17
  3
ACAD_PLOTSETTINGS
350
19
  3
ACAD_PLOTSTYLENAME
350
E
  3
ACAD_SCALELIST
350
47
  3
DWGPROPS
350
16E
  0
DICTIONARY
  5
D
102
{ACAD_REACTORS
330
C
102
}
330
C
100
AcDbDictionary
281
     1
  0
DICTIONARY
  5
1A
102
{ACAD_REACTORS
330
C
102
}
330
C
100
AcDbDictionary
281
     1
  3
Layout1
350
1E
  3
Layout2
350
26
  3
Model
350
22
  0
DICTIONARY
  5
17
102
{ACAD_REACTORS
330
C
102
}
330
C
100
AcDbDictionary
281
     1
  3
Standard
350
18
  0
DICTIONARY
  5
19
102
{ACAD_REACTORS
330
C
102
}
330
C
100
AcDbDictionary
281
     1
  0
ACDBDICTIONARYWDFLT
  5
E
102
{ACAD_REACTORS
330
C
102
}
330
C
100
AcDbDictionary
281
     1
  3
Normal
350
F
100
AcDbDictionaryWithDefault
340
F
  0
DICTIONARY
  5
47
102
{ACAD_REACTORS
330
C
102
}
330
C
100
AcDbDictionary
281
     1
  3
A0
350
48
  3
A1
350
49
  3
A2
350
4A
  3
A3
350
4B
  3
A4
350
4C
  3
A5
350
4D
  3
A6
350
4E
  3
A7
350
4F
  3
A8
350
50
  3
A9
350
51
  3
B1
350
52
  3
B2
350
53
  3
B3
350
54
  3
B4
350
55
  3
B5
350
56
  3
B6
350
57
  3
B7
350
58
  0
XRECORD
  5
16E
102
{ACAD_REACTORS
330
C
102
}
330
C
100
AcDbXrecord
280
     1
  1
DWGPROPS COOKIE
  2

  3

  4

  6

  7

  8
jeremy.fountain
  9

300
=
301
=
302
=
303
=
304
=
305
=
306
=
307
=
308
=
309
=
 40
0.0
 41
2460838.851364444
 42
2460838.851365185
  1

 90
        0
  0
LAYOUT
  5
1E
102
{ACAD_REACTORS
330
1A
102
}
330
1A
100
AcDbPlotSettings
  1

  2
none_device
  4

  6

 40
0.0
 41
0.0
 42
0.0
 43
0.0
 44
0.0
 45
0.0
 46
0.0
 47
0.0
 48
0.0
 49
0.0
140
0.0
141
0.0
142
1.0
143
1.0
 70
   688
 72
     0
 73
     0
 74
     5
  7

 75
    16
147
1.0
148
0.0
149
0.0
100
AcDbLayout
  1
Layout1
 70
     1
 71
     1
 10
0.0
 20
0.0
 11
12.0
 21
9.0
 12
0.0
 22
0.0
 32
0.0
 14
1.0000000000E+20
 24
1.0000000000E+20
 34
1.0000000000E+20
 15
-1.0000000000E+20
 25
-1.0000000000E+20
 35
-1.0000000000E+20
146
0.0
 13
0.0
 23
0.0
 33
0.0
 16
1.0
 26
0.0
 36
0.0
 17
0.0
 27
1.0
 37
0.0
 76
     0
330
1B
  0
LAYOUT
  5
26
102
{ACAD_REACTORS
330
1A
102
}
330
1A
100
AcDbPlotSettings
  1

  2
none_device
  4

  6

 40
0.0
 41
0.0
 42
0.0
 43
0.0
 44
0.0
 45
0.0
 46
0.0
 47
0.0
 48
0.0
 49
0.0
140
0.0
141
0.0
142
1.0
143
1.0
 70
   688
 72
     0
 73
     0
 74
     5
  7

 75
    16
147
1.0
148
0.0
149
0.0
100
AcDbLayout
  1
Layout2
 70
     1
 71
     2
 10
0.0
 20
0.0
 11
0.0
 21
0.0
 12
0.0
 22
0.0
 32
0.0
 14
0.0
 24
0.0
 34
0.0
 15
0.0
 25
0.0
 35
0.0
146
0.0
 13
0.0
 23
0.0
 33
0.0
 16
1.0
 26
0.0
 36
0.0
 17
0.0
 27
1.0
 37
0.0
 76
     0
330
23
  0
LAYOUT
  5
22
102
{ACAD_REACTORS
330
1A
102
}
330
1A
100
AcDbPlotSettings
  1

  2
none_device
  4
Letter_(8.50_x_11.00_Inches)
  6

 40
6.35
 41
6.35
 42
6.35000508
 43
6.35000508
 44
215.9
 45
279.4
 46
0.0
 47
0.0
 48
0.0
 49
0.0
140
0.0
141
0.0
142
1.0
143
1.0
 70
  1712
 72
     0
 73
     0
 74
     0
  7

 75
     0
147
1.0
148
0.0
149
0.0
100
AcDbLayout
  1
Model
 70
     1
 71
     0
 10
0.0
 20
0.0
 11
34.0
 21
22.0
 12
0.0
 22
0.0
 32
0.0
 14
0.0
 24
0.0
 34
0.0
 15
34.0
 25
22.0
 35
0.0
146
0.0
 13
0.0
 23
0.0
 33
0.0
 16
1.0
 26
0.0
 36
0.0
 17
0.0
 27
1.0
 37
0.0
 76
     0
330
1F
331
29
  0
MLINESTYLE
  5
18
102
{ACAD_REACTORS
330
17
102
}
330
17
100
AcDbMlineStyle
  2
Standard
 70
     0
  3

 62
   256
 51
90.0
 52
90.0
 71
     2
 49
0.5
 62
   256
  6
BYLAYER
 49
-0.5
 62
   256
  6
BYLAYER
  0
ACDBPLACEHOLDER
  5
F
102
{ACAD_REACTORS
330
E
102
}
330
E
  0
SCALE
  5
48
102
{ACAD_REACTORS
330
47
102
}
330
47
100
AcDbScale
 70
     0
300
1:1
140
1.0
141
1.0
290
     1
  0
SCALE
  5
49
102
{ACAD_REACTORS
330
47
102
}
330
47
100
AcDbScale
 70
     0
300
1/128" = 1'-0"
140
0.0078125
141
12.0
290
     0
  0
SCALE
  5
4A
102
{ACAD_REACTORS
330
47
102
}
330
47
100
AcDbScale
 70
     0
300
1/64" = 1'-0"
140
0.015625
141
12.0
290
     0
  0
SCALE
  5
4B
102
{ACAD_REACTORS
330
47
102
}
330
47
100
AcDbScale
 70
     0
300
1/32" = 1'-0"
140
0.03125
141
12.0
290
     0
  0
SCALE
  5
4C
102
{ACAD_REACTORS
330
47
102
}
330
47
100
AcDbScale
 70
     0
300
1/16" = 1'-0"
140
0.0625
141
12.0
290
     0
  0
SCALE
  5
4D
102
{ACAD_REACTORS
330
47
102
}
330
47
100
AcDbScale
 70
     0
300
3/32" = 1'-0"
140
0.09375
141
12.0
290
     0
  0
SCALE
  5
4E
102
{ACAD_REACTORS
330
47
102
}
330
47
100
AcDbScale
 70
     0
300
1/8" = 1'-0"
140
0.125
141
12.0
290
     0
  0
SCALE
  5
4F
102
{ACAD_REACTORS
330
47
102
}
330
47
100
AcDbScale
 70
     0
300
3/16" = 1'-0"
140
0.1875
141
12.0
290
     0
  0
SCALE
  5
50
102
{ACAD_REACTORS
330
47
102
}
330
47
100
AcDbScale
 70
     0
300
1/4" = 1'-0"
140
0.25
141
12.0
290
     0
  0
SCALE
  5
51
102
{ACAD_REACTORS
330
47
102
}
330
47
100
AcDbScale
 70
     0
300
3/8" = 1'-0"
140
0.375
141
12.0
290
     0
  0
SCALE
  5
52
102
{ACAD_REACTORS
330
47
102
}
330
47
100
AcDbScale
 70
     0
300
1/2" = 1'-0"
140
0.5
141
12.0
290
     0
  0
SCALE
  5
53
102
{ACAD_REACTORS
330
47
102
}
330
47
100
AcDbScale
 70
     0
300
3/4" = 1'-0"
140
0.75
141
12.0
290
     0
  0
SCALE
  5
54
102
{ACAD_REACTORS
330
47
102
}
330
47
100
AcDbScale
 70
     0
300
1" = 1'-0"
140
1.0
141
12.0
290
     0
  0
SCALE
  5
55
102
{ACAD_REACTORS
330
47
102
}
330
47
100
AcDbScale
 70
     0
300
1-1/2" = 1'-0"
140
1.5
141
12.0
290
     0
  0
SCALE
  5
56
102
{ACAD_REACTORS
330
47
102
}
330
47
100
AcDbScale
 70
     0
300
3" = 1'-0"
140
3.0
141
12.0
290
     0
  0
SCALE
  5
57
102
{ACAD_REACTORS
330
47
102
}
330
47
100
AcDbScale
 70
     0
300
6" = 1'-0"
140
6.0
141
12.0
290
     0
  0
SCALE
  5
58
102
{ACAD_REACTORS
330
47
102
}
330
47
100
AcDbScale
 70
     0
300
1'-0" = 1'-0"
140
12.0
141
12.0
290
     0
  0
ENDSEC
  0
EOF
